VERSION	0.00.00	1.03.00
FES_MODE	0
BPM_DEF	196.000	196.000	196.000	196.000
MET_DEF	4	4
RESOLUTION	384
CLK_DEF	384
COMPATIBLE_CODE	MA2

BPM	0	0	196.000
MET	0	0	4	4

TAP	1	0	5
TAP	1	72	5
TAP	1	144	4
TAP	1	144	6
HLD	1	192	3	96
HLD	1	192	7	96
TAP	2	0	2
TAP	2	72	2
TAP	2	144	1
TAP	2	144	3
HLD	2	192	0	96
HLD	2	192	4	96
TAP	3	0	4
TAP	3	0	5
TAP	3	72	4
TAP	3	72	5
TAP	3	144	3
TAP	3	144	6
HLD	3	192	2	96
HLD	3	192	7	96
TAP	4	0	2
TAP	4	0	3
TAP	4	72	2
TAP	4	72	3
TAP	4	144	1
TAP	4	144	4
STR	4	192	0
SCR	4	192	0	96	48	3
HLD	4	192	5	96
TAP	5	0	4
TAP	5	0	5
TAP	5	96	2
TAP	5	96	3
TAP	5	192	1
TAP	5	240	0
TAP	5	288	7
HLD	5	336	6	96
TAP	6	48	7
TAP	6	96	7
HLD	6	144	0	96
TTP	6	240	7	B	0	M1
TTP	6	240	7	E	0	M1
TTP	6	336	4	B	0	M1
TTP	6	336	5	E	0	M1
TAP	7	0	2
TAP	7	48	2
TAP	7	144	0
TAP	7	144	7
TAP	7	240	5
TAP	7	288	5
TAP	7	336	4
HLD	7	336	6	96
TAP	8	48	0
TAP	8	96	0
HLD	8	144	1	96
STR	8	144	7
SCR	8	144	7	96	96	3
TAP	9	0	4
TAP	9	0	5
TAP	9	96	2
TAP	9	96	3
TAP	9	192	1
TAP	9	240	0
TAP	9	288	7
HLD	9	336	6	96
TTP	10	48	0	B	0	M1
TTP	10	48	1	E	0	M1
TTP	10	144	3	E	0	M1
TTP	10	144	3	B	0	M1
TAP	10	240	4
TAP	10	288	4
TAP	11	0	6
TAP	11	0	7
TAP	11	48	0
TAP	11	96	1
STR	11	144	2
SI_	11	144	2	96	48	7
STR	11	144	3
SI_	11	144	3	96	48	6
XTP	12	0	1
XTP	12	72	1
XTP	12	144	0
XTP	12	144	2
XTP	12	192	6
XTP	12	264	6
XTP	12	336	5
XTP	12	336	7
TAP	13	0	3
TAP	13	0	4
STR	13	96	1
SI_	13	96	1	96	48	4
TAP	13	144	1
TAP	13	192	0
STR	13	288	6
SI_	13	288	6	96	48	3
TAP	13	336	6
TAP	14	0	7
STR	14	96	1
SI_	14	96	1	96	48	4
TAP	14	144	1
TAP	14	192	0
STR	14	288	6
SI_	14	288	6	96	48	3
TAP	14	336	6
TAP	15	0	7
STR	15	96	2
SI_	15	96	2	96	48	7
TAP	15	144	2
TAP	15	192	4
TAP	15	240	4
TAP	15	336	4
TAP	15	336	6
TAP	16	48	0
TAP	16	48	7
TAP	16	96	0
TAP	16	96	7
BST	16	192	1
SUL	16	192	1	96	48	4
BRK	16	192	5
TAP	17	0	3
TAP	17	0	4
STR	17	96	6
SI_	17	96	6	96	48	3
TAP	17	144	6
TAP	17	192	7
STR	17	288	1
SI_	17	288	1	96	48	4
TAP	17	336	1
TAP	18	0	0
STR	18	96	6
SI_	18	96	6	96	48	3
TAP	18	144	6
TAP	18	192	7
STR	18	288	1
SI_	18	288	1	96	48	4
TAP	18	336	1
TAP	19	0	0
STR	19	96	5
SI_	19	96	5	96	48	0
TAP	19	144	5
TAP	19	192	3
STR	19	240	3
SCL	19	240	3	96	192	4
BRK	19	336	7
TAP	20	288	3
TAP	20	288	4
TAP	21	0	2
HLD	21	0	5	384
TTP	21	96	3	E	0	M1
TTP	21	192	4	E	0	M1
TTP	21	288	5	E	0	M1
HLD	22	0	6	192
TTP	22	192	0	B	0	M1
TTP	22	192	7	B	0	M1
HLD	23	0	2	384
TAP	23	0	5
TTP	23	96	5	E	0	M1
TTP	23	192	4	E	0	M1
TTP	23	288	3	E	0	M1
HLD	24	0	1	192
TTP	24	192	0	B	0	M1
TTP	24	192	7	B	0	M1
HLD	25	0	4	288
TAP	25	0	5
TTP	25	96	6	B	0	M1
TTP	25	192	4	B	0	M1
TTP	25	288	0	C	0	M1
TAP	26	0	1
HLD	26	0	7	288
TTP	26	96	3	E	0	M1
TTP	26	192	1	E	0	M1
TTP	26	288	0	C	0	M1
TAP	27	0	0
TAP	27	0	7
TAP	27	48	0
TAP	27	48	7
TAP	27	144	1
TAP	27	144	3
TAP	27	240	4
TAP	27	240	6
BRK	27	336	2
BRK	27	336	5
TAP	28	48	4
TAP	28	72	3
TAP	28	96	4
TAP	28	144	2
TAP	28	144	5
BRK	28	192	1
BRK	28	192	6
STR	28	336	1
SXR	28	336	1	96	96	5
TAP	28	336	7
TAP	29	48	4
TAP	29	144	3
TAP	29	240	0
TAP	29	288	0
STR	29	336	1
SXR	29	336	1	96	96	4
TAP	29	336	7
TAP	30	48	3
TAP	30	144	2
TAP	30	240	7
TAP	30	288	7
TAP	30	336	0
STR	30	336	6
SCL	30	336	6	96	144	2
TAP	31	48	2
STR	31	96	2
SCL	31	96	2	96	96	6
STR	31	192	6
SCL	31	192	6	96	96	2
TAP	31	288	2
TAP	32	0	0
TAP	32	48	0
BRK	32	144	2
BRK	32	144	6
TAP	32	240	7
TAP	32	288	7
TAP	32	336	0
STR	32	336	6
SXL	32	336	6	96	96	2
TAP	33	48	3
TAP	33	144	4
TAP	33	240	7
TAP	33	288	7
TAP	33	336	0
STR	33	336	6
SXL	33	336	6	96	96	3
TAP	34	48	4
TAP	34	144	5
TAP	34	240	0
TAP	34	288	0
STR	34	336	1
SI_	34	336	1	96	48	4
TAP	34	336	7
TAP	35	48	6
STR	35	96	6
SI_	35	96	6	96	48	2
STR	35	192	0
SI_	35	192	0	96	48	4
TAP	35	288	6
TAP	36	0	0
TAP	36	0	7
TAP	36	48	0
TAP	36	48	7
BRK	36	144	2
BRK	36	144	5
TAP	36	240	0
TAP	36	288	0
TAP	37	0	2
STR	37	0	3
SI_	37	0	3	96	48	0
TAP	37	96	1
STR	37	192	4
SI_	37	192	4	96	48	7
TAP	37	192	5
TAP	37	288	6
TAP	38	0	1
STR	38	0	3
SI_	38	0	3	96	48	7
TAP	38	96	2
STR	38	192	4
SI_	38	192	4	96	48	0
TAP	38	192	6
TAP	38	288	5
TAP	39	0	3
TAP	39	0	4
TAP	39	48	3
TAP	39	48	4
TAP	39	144	5
TAP	39	144	7
TAP	39	240	0
TAP	39	240	2
STR	39	336	1
SXR	39	336	1	96	144	4
STR	39	336	6
SXL	39	336	6	96	144	3
TAP	40	240	1
TAP	40	288	1
TAP	41	0	4
TAP	41	0	5
TAP	41	48	6
TAP	41	96	4
TAP	41	96	5
TAP	41	144	6
TAP	41	192	4
TAP	41	192	5
TAP	41	240	6
TAP	41	288	0
TAP	41	288	7
TAP	42	0	2
TAP	42	0	3
TAP	42	48	1
TAP	42	96	2
TAP	42	96	3
TAP	42	144	1
TAP	42	192	2
TAP	42	192	3
TAP	42	240	1
TAP	42	288	0
TAP	42	288	7
TAP	43	0	2
HLD	43	0	5	96
TAP	43	96	7
HLD	43	144	7	96
TAP	43	240	0
HLD	43	288	0	96
TAP	44	0	2
TAP	44	48	2
TAP	44	144	0
TAP	44	144	7
STR	44	192	0
SI_	44	192	0	96	48	4
STR	44	192	7
SI_	44	192	7	96	48	3
TAP	44	288	0
TAP	44	288	7
TAP	45	0	2
TAP	45	0	5
TAP	45	48	2
TAP	45	48	5
TAP	45	144	6
TAP	45	144	7
TAP	45	240	0
TAP	45	240	1
TAP	45	336	3
TAP	45	336	4
TAP	46	48	1
TAP	46	48	6
STR	46	96	1
SCR	46	96	1	96	96	6
TAP	46	96	6
BRK	46	192	7
TAP	47	0	0
TAP	47	0	1
TAP	47	96	6
TAP	47	96	7
TAP	47	192	5
TAP	47	240	4
TAP	47	288	3
HLD	47	336	2	96
TAP	48	48	3
TAP	48	96	3
HLD	48	144	4	96
TTP	48	240	3	E	0	M1
TTP	48	240	3	B	0	M1
TTP	48	336	0	B	0	M1
TTP	48	336	1	E	0	M1
TAP	49	0	6
TAP	49	48	6
TAP	49	144	0
TAP	49	144	7
TAP	49	240	1
TAP	49	288	1
TAP	49	336	0
HLD	49	336	2	96
TAP	50	48	4
TAP	50	96	4
STR	50	144	3
SCR	50	144	3	96	96	7
HLD	50	144	5	96
TAP	51	0	0
TAP	51	0	1
TAP	51	96	6
TAP	51	96	7
TAP	51	192	5
TAP	51	240	4
TAP	51	288	3
HLD	51	336	2	96
TTP	52	48	4	B	0	M1
TTP	52	48	5	E	0	M1
TTP	52	144	7	B	0	M1
TTP	52	144	7	E	0	M1
TAP	52	240	1
TAP	52	288	1
TAP	53	0	2
TAP	53	0	3
TAP	53	48	4
TAP	53	96	5
STR	53	144	6
SI_	53	144	6	96	48	3
STR	53	144	7
SI_	53	144	7	96	48	2
XTP	54	0	5
XTP	54	72	5
XTP	54	144	4
XTP	54	144	6
XTP	54	192	2
XTP	54	264	2
XTP	54	336	1
XTP	54	336	3
HLD	55	0	5	72
TAP	55	72	4
TAP	55	144	4
TAP	55	144	5
HLD	55	192	7	72
TAP	55	264	0
TAP	55	336	0
TAP	55	336	7
HLD	56	0	2	72
TAP	56	72	3
TAP	56	144	2
TAP	56	144	3
TAP	56	192	1
TAP	56	192	4
BRK	56	288	7
HLD	57	0	2	72
TAP	57	72	3
TAP	57	144	2
TAP	57	144	3
HLD	57	192	0	72
TAP	57	264	7
TAP	57	336	0
TAP	57	336	7
HLD	58	0	5	72
TAP	58	72	4
TAP	58	144	4
TAP	58	144	5
TAP	58	192	3
TAP	58	192	6
BRK	58	288	7
HLD	59	0	6	72
TAP	59	72	4
TAP	59	144	4
TAP	59	144	6
HLD	59	192	7	72
TAP	59	264	0
TAP	59	336	1
TAP	59	336	6
HLD	60	0	1	72
TAP	60	72	3
TAP	60	144	1
TAP	60	144	3
TAP	60	192	0
TAP	60	192	4
BRK	60	288	6
HLD	61	0	1	72
TAP	61	72	3
TAP	61	144	1
TAP	61	144	3
HLD	61	192	0	72
TAP	61	264	7
TAP	61	336	1
TAP	61	336	6
TAP	62	0	4
TAP	62	0	5
TAP	62	96	2
TAP	62	96	3
TAP	62	192	2
TAP	62	192	5
TAP	62	240	1
TAP	62	240	6
BRK	62	288	0
BRK	62	288	7
HLD	63	0	1	384
TAP	63	0	6
TTP	63	96	7	E	0	M1
TTP	63	192	0	E	0	M1
TTP	63	288	1	E	0	M1
HLD	64	0	2	192
TTP	64	192	6	E	0	M1
TTP	64	192	7	E	0	M1
TAP	65	0	1
HLD	65	0	6	384
TTP	65	96	1	E	0	M1
TTP	65	192	0	E	0	M1
TTP	65	288	7	E	0	M1
HLD	66	0	5	192
TTP	66	192	1	E	0	M1
TTP	66	192	2	E	0	M1
HLD	67	0	6	288
TAP	67	0	7
TTP	67	96	1	E	0	M1
TTP	67	192	7	E	0	M1
TTP	67	288	0	C	0	M1
TAP	68	0	4
HLD	68	0	5	288
TTP	68	96	3	E	0	M1
TTP	68	192	5	E	0	M1
TTP	68	288	0	C	0	M1
TAP	69	0	0
TAP	69	0	7
TAP	69	48	0
TAP	69	48	7
TAP	69	144	4
TAP	69	144	6
TAP	69	240	1
TAP	69	240	3
BRK	69	336	1
BRK	69	336	6
TAP	70	48	4
TAP	70	72	3
TAP	70	96	4
TAP	70	120	3
TAP	70	144	4
BRK	70	192	1
BRK	70	192	6
STR	70	336	1
SXR	70	336	1	96	96	5
TAP	70	336	7
TAP	71	48	4
TAP	71	96	4
TAP	71	144	3
TAP	71	240	0
TAP	71	288	0
STR	71	336	1
SXR	71	336	1	96	96	4
TAP	71	336	7
TAP	72	48	3
TAP	72	96	3
TAP	72	144	2
TAP	72	240	0
TAP	72	288	0
STR	72	336	1
SCR	72	336	1	96	144	5
TAP	72	336	7
TAP	73	48	5
STR	73	96	5
SCR	73	96	5	96	96	1
STR	73	192	1
SCR	73	192	1	96	96	5
TAP	73	288	5
TAP	74	0	7
TAP	74	48	7
BRK	74	144	1
BRK	74	144	5
TAP	74	240	7
TAP	74	288	7
TAP	74	336	0
STR	74	336	6
SXL	74	336	6	96	96	2
TAP	75	48	3
TAP	75	96	3
TAP	75	144	4
TAP	75	240	7
TAP	75	288	7
TAP	75	336	0
STR	75	336	6
SXL	75	336	6	96	96	3
TAP	76	48	4
TAP	76	96	4
TAP	76	144	5
TAP	76	240	7
TAP	76	288	7
TAP	76	336	0
STR	76	336	6
SI_	76	336	6	96	48	3
TAP	77	48	1
STR	77	96	1
SI_	77	96	1	96	48	5
STR	77	192	7
SI_	77	192	7	96	48	3
TAP	77	288	1
TAP	78	0	0
TAP	78	0	7
TAP	78	48	0
TAP	78	48	7
BRK	78	144	2
BRK	78	144	5
TAP	78	240	7
TAP	78	288	7
STR	79	0	4
SI_	79	0	4	96	48	0
TAP	79	0	5
TAP	79	96	6
TAP	79	192	2
STR	79	192	3
SI_	79	192	3	96	48	7
TAP	79	288	1
STR	80	0	4
SI_	80	0	4	96	48	1
TAP	80	0	6
TAP	80	96	7
TAP	80	192	1
STR	80	192	3
SI_	80	192	3	96	48	6
TAP	80	288	0
TAP	81	0	3
TAP	81	0	4
TAP	81	48	3
TAP	81	48	4
TAP	81	144	0
TAP	81	144	2
TAP	81	240	5
TAP	81	240	7
STR	81	336	1
SXR	81	336	1	96	144	4
STR	81	336	6
SXL	81	336	6	96	144	3
TAP	82	240	5
TAP	82	288	5
TAP	83	0	0
TAP	83	0	1
TAP	83	48	7
TAP	83	96	0
TAP	83	96	1
TAP	83	144	2
TAP	83	192	0
TAP	83	192	1
TAP	83	240	7
TAP	83	288	4
TAP	83	288	6
TAP	84	0	6
TAP	84	0	7
TAP	84	48	0
TAP	84	96	6
TAP	84	96	7
TAP	84	144	5
TAP	84	192	6
TAP	84	192	7
TAP	84	240	0
TAP	84	288	1
TAP	84	288	3
TAP	85	0	1
HLD	85	0	6	96
TAP	85	96	4
HLD	85	144	4	96
TAP	85	240	3
HLD	85	288	3	96
TAP	86	0	1
TAP	86	48	1
TAP	86	144	0
TAP	86	144	7
STR	86	192	0
SI_	86	192	0	96	48	4
STR	86	192	7
SI_	86	192	7	96	48	3
TAP	86	288	0
TAP	86	288	7
TAP	87	0	2
TAP	87	0	5
TAP	87	48	2
TAP	87	48	5
TAP	87	144	6
TAP	87	144	7
TAP	87	240	0
TAP	87	240	1
TAP	87	336	3
TAP	87	336	4
TAP	88	48	1
TAP	88	48	6
TAP	88	96	1
STR	88	96	6
SCL	88	96	6	96	96	1
BRK	88	192	0
TAP	89	0	1
TAP	89	0	6
TAP	89	48	1
TAP	89	48	6
TAP	89	144	0
TAP	89	144	2
TAP	89	240	5
TAP	89	240	7
TAP	89	336	3
TAP	89	336	4
TAP	90	48	1
TAP	90	48	6
STR	90	96	1
SCL	90	96	1	96	96	4
TAP	90	96	6
BRK	90	192	7
TAP	91	0	6
TAP	91	0	7
TAP	91	96	0
TAP	91	96	1
TAP	91	192	2
TAP	91	240	3
TAP	91	288	4
HLD	91	336	5	96
TAP	92	48	4
TAP	92	96	4
HLD	92	144	3	96
TTP	92	240	4	E	0	M1
TTP	92	240	4	B	0	M1
TTP	92	336	0	E	0	M1
TTP	92	336	7	B	0	M1
TAP	93	0	1
TAP	93	48	1
TAP	93	144	3
TAP	93	144	4
TAP	93	240	6
TAP	93	288	6
HLD	93	336	5	96
TAP	93	336	7
TAP	94	48	3
TAP	94	96	3
HLD	94	144	2	96
STR	94	144	4
SCL	94	144	4	96	96	0
TAP	95	0	6
TAP	95	0	7
TAP	95	96	0
TAP	95	96	1
TAP	95	192	2
TAP	95	240	3
TAP	95	288	4
HLD	95	336	5	96
TTP	96	48	3	B	0	M1
TTP	96	48	4	E	0	M1
TTP	96	144	0	E	0	M1
TTP	96	144	0	B	0	M1
TAP	96	240	6
TAP	96	288	6
TAP	97	0	4
TAP	97	0	5
TAP	97	48	3
TAP	97	96	2
STR	97	144	0
SI_	97	144	0	96	48	5
STR	97	144	1
SI_	97	144	1	96	48	4
XTP	98	0	6
XTP	98	72	6
XTP	98	144	5
XTP	98	144	7
XTP	98	192	1
XTP	98	264	1
XTP	98	336	0
XTP	98	336	2
BRK	99	0	3
BRK	99	0	4
BRK	99	144	2
BRK	99	144	5
BRK	99	288	1
BRK	99	288	6
BST	100	0	0
SCR	100	0	0	96	288	7
BRK	100	0	7

T_REC_TAP	440
T_REC_BRK	33
T_REC_XTP	24
T_REC_HLD	51
T_REC_XHO	0
T_REC_STR	60
T_REC_BST	2
T_REC_XST	0
T_REC_TTP	56
T_REC_THO	0
T_REC_SLD	62
T_REC_ALL	728
T_NUM_TAP	580
T_NUM_BRK	35
T_NUM_HLD	51
T_NUM_SLD	62
T_NUM_ALL	728
T_JUDGE_TAP	615
T_JUDGE_HLD	150
T_JUDGE_SLD	62
T_JUDGE_ALL	827
TTM_EACHPAIRS	179
TTM_SCR_TAP	290000
TTM_SCR_BRK	91000
TTM_SCR_HLD	51000
TTM_SCR_SLD	93000
TTM_SCR_ALL	525000
TTM_SCR_S	505900
TTM_SCR_SS	521500
TTM_RAT_ACV	10067

