VERSION	0.00.00	1.03.00
FES_MODE	0
BPM_DEF	196.000	196.000	196.000	196.000
MET_DEF	4	4
RESOLUTION	384
CLK_DEF	384
COMPATIBLE_CODE	MA2

BPM	0	0	196.000
MET	0	0	4	4

XTP	1	0	4
XTP	1	0	5
XTP	1	72	4
XTP	1	72	5
XTP	1	144	4
XTP	1	144	5
XTP	1	192	3
XTP	1	192	6
XTP	2	0	2
XTP	2	0	3
XTP	2	72	2
XTP	2	72	3
XTP	2	144	2
XTP	2	144	3
XTP	2	192	1
XTP	2	192	4
XTP	3	0	3
XTP	3	0	4
XTP	3	72	3
XTP	3	72	4
XTP	3	144	3
XTP	3	144	4
XTP	3	192	2
XTP	3	192	5
XTP	4	0	0
XTP	4	0	7
XTP	4	72	0
XTP	4	72	7
XTP	4	144	0
XTP	4	144	7
BRK	4	192	1
BRK	4	192	6
TTP	5	0	4	B	0	M1
TTP	5	0	5	B	0	M1
TTP	5	96	3	E	0	M1
TTP	5	96	7	E	0	M1
XTP	5	192	0
XTP	5	192	1
TAP	5	288	6
TAP	5	336	6
TAP	5	336	7
TTP	6	48	2	B	0	M1
TTP	6	48	3	B	0	M1
TTP	6	144	1	E	0	M1
TTP	6	144	5	E	0	M1
XTP	6	240	6
XTP	6	240	7
TAP	6	336	4
TAP	6	336	5
TAP	7	48	3
TAP	7	48	6
TAP	7	144	2
TAP	7	144	7
TAP	7	240	1
TAP	7	288	1
TAP	7	336	0
TAP	7	336	1
TAP	8	48	0
TAP	8	48	7
XTP	8	144	2
XTP	8	144	5
TAP	8	240	6
TAP	8	288	6
TAP	8	288	7
TTP	9	0	2	B	0	M1
TTP	9	0	3	B	0	M1
TTP	9	96	1	E	0	M1
TTP	9	96	5	E	0	M1
XTP	9	192	6
XTP	9	192	7
TAP	9	288	1
TAP	9	336	0
TAP	9	336	1
TTP	10	48	4	B	0	M1
TTP	10	48	5	B	0	M1
TTP	10	144	3	E	0	M1
TTP	10	144	7	E	0	M1
XTP	10	240	0
XTP	10	240	1
TAP	10	336	2
TAP	11	0	2
TAP	11	0	3
TAP	11	96	5
TAP	11	144	4
TAP	11	144	5
TAP	11	240	6
TAP	11	240	7
TAP	11	288	6
TAP	11	288	7
XTP	12	0	0
XTP	12	0	7
XTP	12	72	0
XTP	12	72	7
XTP	12	144	0
XTP	12	144	7
BRK	12	192	1
BRK	12	192	6
TAP	13	0	3
TAP	13	0	5
TAP	13	96	4
TAP	13	144	3
TAP	13	192	4
TAP	13	288	2
TAP	13	288	3
TAP	14	0	1
TAP	14	96	2
TAP	14	96	3
XTP	14	192	1
XTP	14	192	4
TAP	15	0	2
TAP	15	0	4
TAP	15	96	3
TAP	15	144	4
TAP	15	192	3
TAP	15	288	4
TAP	15	288	5
TAP	16	0	6
TAP	16	96	4
TAP	16	96	5
XTP	16	192	3
XTP	16	192	6
TAP	17	0	4
TAP	17	0	6
TAP	17	96	5
TAP	17	144	4
TAP	17	192	5
TAP	17	288	2
TAP	17	288	3
TAP	18	0	1
TAP	18	96	2
TAP	18	96	3
XTP	18	192	1
XTP	18	192	4
TAP	19	0	0
TAP	19	0	6
TAP	19	96	1
TAP	19	144	0
TAP	19	192	1
TAP	19	288	2
TAP	19	288	7
XTP	20	0	3
XTP	20	0	4
XTP	20	96	2
XTP	20	96	5
BRK	20	192	1
BRK	20	192	6
HLD	21	0	2	144
HLD	21	144	3	144
STR	21	288	4
SV_	21	288	4	96	144	2
TAP	22	192	3
TAP	22	288	4
HLD	23	0	5	144
HLD	23	144	4	144
STR	23	288	3
SV_	23	288	3	96	144	5
TAP	24	192	4
TAP	24	288	3
HLD	25	0	1	144
HLD	25	144	2	144
TAP	25	288	3
HLD	26	0	6	144
HLD	26	144	5	144
TAP	26	288	4
TAP	27	0	3
TAP	27	0	4
TAP	27	48	3
TAP	27	48	4
TAP	27	144	0
TAP	27	144	7
STR	27	240	2
SCL	27	240	2	96	192	3
TAP	27	240	5
XTP	27	336	7
TTP	28	192	0	C	1	M1
XTP	28	336	0
XTP	28	336	7
HLD	29	48	0	96
TAP	29	48	1
TAP	29	144	4
TAP	29	240	6
HLD	29	240	7	96
TAP	29	336	3
HLD	30	48	0	96
TAP	30	48	1
TAP	30	144	4
XTP	30	240	0
XTP	30	240	7
XTP	30	336	1
XTP	30	336	6
TAP	31	48	1
TAP	31	96	1
TAP	31	144	3
TAP	31	192	3
TAP	31	240	4
TAP	31	288	4
TAP	31	336	6
XTP	32	0	0
XTP	32	48	7
XTP	32	96	0
XTP	32	144	1
XTP	32	144	6
HLD	32	240	0	96
TAP	32	240	1
TAP	32	336	4
TAP	33	48	6
HLD	33	48	7	96
TAP	33	144	3
HLD	33	240	0	96
TAP	33	240	1
TAP	33	336	4
TAP	34	48	6
HLD	34	48	7	96
TAP	34	144	3
XTP	34	240	0
XTP	34	240	7
XTP	34	336	1
XTP	34	336	6
TAP	35	48	5
TAP	35	96	5
TAP	35	144	7
TAP	35	192	7
TAP	35	240	0
TAP	35	288	0
TAP	35	336	2
XTP	36	0	4
XTP	36	48	3
XTP	36	96	4
TTP	36	144	0	C	1	M1
TTP	36	144	2	B	0	M1
TTP	36	144	5	B	0	M1
XHO	37	0	0	96
XTP	37	0	7
TAP	37	96	6
HLD	37	144	6	192
STR	37	240	5
SV_	37	240	5	96	96	2
XTP	38	96	7
XTP	38	192	7
XTP	38	288	6
TAP	39	0	4
TAP	39	0	5
TAP	39	48	4
TAP	39	48	5
HLD	39	144	6	192
STR	39	240	5
SV_	39	240	5	96	96	2
XTP	40	48	7
XTP	40	96	7
XTP	40	144	1
XTP	40	192	1
TAP	40	240	6
TAP	40	288	7
TAP	40	336	6
STR	41	0	0
SI_	41	0	0	96	48	2
TAP	41	96	6
STR	41	192	7
SI_	41	192	7	96	48	5
TAP	41	288	1
STR	42	0	0
SI_	42	0	0	96	48	3
TAP	42	96	6
STR	42	192	7
SI_	42	192	7	96	48	4
TAP	42	288	1
STR	43	0	2
SI_	43	0	2	96	48	5
TAP	43	96	7
TAP	43	144	7
TAP	43	240	6
TAP	43	288	4
TAP	43	288	6
TAP	44	0	1
TAP	44	48	1
TAP	44	48	3
XTP	44	144	7
XST	44	192	0
SI_	44	192	0	96	48	4
XST	44	192	6
SI_	44	192	6	96	48	2
TAP	45	0	1
TAP	45	48	1
STR	45	144	2
SI_	45	144	2	96	48	5
HLD	45	144	6	96
TAP	45	336	7
TAP	46	48	4
TAP	46	48	5
TAP	46	96	4
TAP	46	96	5
BRK	46	192	2
BRK	46	192	6
TTP	47	0	2	B	0	M1
TTP	47	0	3	B	0	M1
TTP	47	0	3	E	0	M1
TTP	47	96	1	E	0	M1
TTP	47	96	5	E	0	M1
XTP	47	192	6
XTP	47	192	7
TAP	47	288	1
TAP	47	336	0
TAP	47	336	1
TTP	48	48	4	B	0	M1
TTP	48	48	5	E	0	M1
TTP	48	48	5	B	0	M1
TTP	48	144	3	E	0	M1
TTP	48	144	7	E	0	M1
XTP	48	240	0
XTP	48	240	1
TAP	48	336	2
TAP	48	336	4
TAP	49	48	3
TAP	49	48	5
TAP	49	144	6
TAP	49	144	7
TAP	49	240	1
TAP	49	288	1
TAP	49	336	0
TAP	49	336	1
TAP	50	48	2
TAP	50	48	3
XTP	50	144	0
XTP	50	144	5
TAP	50	240	1
TAP	50	288	0
TAP	50	288	1
TTP	51	0	4	B	0	M1
TTP	51	0	5	E	0	M1
TTP	51	0	5	B	0	M1
TTP	51	96	3	E	0	M1
TTP	51	96	7	E	0	M1
XTP	51	192	0
XTP	51	192	1
TAP	51	288	6
TAP	51	336	6
TAP	51	336	7
TTP	52	48	2	B	0	M1
TTP	52	48	3	E	0	M1
TTP	52	48	3	B	0	M1
TTP	52	144	1	E	0	M1
TTP	52	144	5	E	0	M1
XTP	52	240	6
XTP	52	240	7
TAP	52	336	5
TAP	53	0	4
TAP	53	0	5
TAP	53	96	2
TAP	53	144	2
TAP	53	144	3
TAP	53	240	0
TAP	53	240	1
TAP	53	288	0
TAP	53	288	1
XTP	54	0	0
XTP	54	0	7
XTP	54	72	0
XTP	54	72	7
XTP	54	144	0
XTP	54	144	7
BRK	54	192	1
BRK	54	192	6
XTP	55	0	1
XTP	55	0	3
TAP	55	72	3
TAP	55	144	3
XTP	55	192	2
XTP	55	192	4
TAP	55	264	2
TAP	55	336	2
XTP	56	0	3
XTP	56	0	5
TAP	56	72	5
TAP	56	144	5
XTP	56	192	3
XTP	56	192	6
XTP	57	0	4
XTP	57	0	6
TAP	57	72	4
TAP	57	144	4
XTP	57	192	3
XTP	57	192	5
TAP	57	264	5
TAP	57	336	5
XTP	58	0	2
XTP	58	0	4
TAP	58	72	2
TAP	58	144	2
XTP	58	192	1
XTP	58	192	4
XTP	59	0	1
XTP	59	0	3
TAP	59	72	3
TAP	59	144	3
XTP	59	192	2
XTP	59	192	4
TAP	59	264	2
TAP	59	336	2
XTP	60	0	3
XTP	60	0	5
TAP	60	72	5
TAP	60	144	5
XTP	60	192	3
XTP	60	192	6
XTP	61	0	1
XTP	61	0	7
TAP	61	72	7
TAP	61	144	7
XTP	61	192	0
XTP	61	192	6
TAP	61	264	0
TAP	61	336	0
XTP	62	0	0
XTP	62	0	7
XTP	62	96	3
XTP	62	96	4
BRK	62	192	1
BRK	62	192	6
HLD	63	0	6	144
HLD	63	144	4	144
STR	63	288	3
SUL	63	288	3	96	144	5
TAP	64	192	4
TAP	64	288	3
HLD	65	0	1	144
HLD	65	144	3	144
STR	65	288	4
SUR	65	288	4	96	144	2
TAP	66	192	3
TAP	66	288	4
HLD	67	0	6	144
HLD	67	144	5	96
XTP	67	240	4
XTP	67	288	4
HLD	68	0	1	144
HLD	68	144	2	96
XTP	68	240	3
XTP	68	288	3
TAP	69	0	3
TAP	69	0	4
TAP	69	48	3
TAP	69	48	4
TAP	69	144	0
TAP	69	144	7
TAP	69	240	2
STR	69	240	5
SCR	69	240	5	96	192	4
XTP	69	336	0
TTP	70	192	0	C	1	M1
XTP	70	336	0
XTP	70	336	7
TAP	71	48	0
STR	71	48	1
SI_	71	48	1	96	48	4
TAP	71	144	7
STR	71	240	6
SI_	71	240	6	96	48	3
TAP	71	240	7
TAP	71	336	0
TAP	72	48	0
STR	72	48	1
SI_	72	48	1	96	48	4
XTP	72	144	6
XTP	72	240	0
XTP	72	240	7
XTP	72	336	1
XTP	72	336	6
TAP	73	48	6
TAP	73	96	6
TAP	73	144	4
TAP	73	192	4
TAP	73	240	3
TAP	73	288	3
TAP	73	336	1
XTP	74	0	0
XTP	74	0	7
XTP	74	48	0
XTP	74	48	7
XTP	74	96	0
XTP	74	96	7
XTP	74	144	1
XTP	74	144	6
TAP	74	240	0
STR	74	240	1
SI_	74	240	1	96	48	4
TAP	74	336	7
STR	75	48	6
SI_	75	48	6	96	48	3
TAP	75	48	7
TAP	75	144	0
TAP	75	240	0
STR	75	240	1
SI_	75	240	1	96	48	4
TAP	75	336	7
STR	76	48	6
SI_	76	48	6	96	48	3
TAP	76	48	7
XTP	76	144	1
XTP	76	240	0
XTP	76	240	7
XTP	76	336	1
XTP	76	336	6
TAP	77	48	2
TAP	77	96	2
TAP	77	144	0
TAP	77	192	0
TAP	77	240	7
TAP	77	288	7
TAP	77	336	5
XTP	78	0	3
XTP	78	0	4
XTP	78	48	3
XTP	78	48	4
XTP	78	96	3
XTP	78	96	4
TTP	78	144	0	C	1	M1
TTP	78	144	2	B	0	M1
TTP	78	144	5	B	0	M1
XTP	79	0	0
XHO	79	0	7	96
TAP	79	96	1
HLD	79	144	1	192
STR	79	240	2
SUL	79	240	2	96	96	4
XTP	80	96	0
XTP	80	192	0
XTP	80	288	1
TAP	81	0	2
TAP	81	0	3
TAP	81	48	2
TAP	81	48	3
HLD	81	144	1	192
STR	81	240	2
SUL	81	240	2	96	96	4
XTP	82	48	0
XTP	82	96	0
TAP	82	144	7
TAP	82	192	1
TAP	82	240	6
TAP	82	288	2
TAP	82	336	5
STR	83	0	3
SI_	83	0	3	96	48	1
TAP	83	96	5
STR	83	192	4
SI_	83	192	4	96	48	6
TAP	83	288	2
STR	84	0	3
SI_	84	0	3	96	48	7
TAP	84	96	5
STR	84	192	4
SI_	84	192	4	96	48	0
TAP	84	288	2
STR	85	0	2
SI_	85	0	2	96	48	5
TAP	85	96	7
TAP	85	144	7
TAP	85	240	6
TAP	85	288	4
TAP	85	288	6
TAP	86	0	1
TAP	86	48	1
TAP	86	48	3
XTP	86	144	7
XST	86	192	0
SI_	86	192	0	96	48	4
XST	86	192	6
SI_	86	192	6	96	48	2
TAP	87	0	1
TAP	87	48	1
STR	87	144	2
SI_	87	144	2	96	48	5
HLD	87	144	6	96
TAP	87	336	7
TAP	88	48	4
TAP	88	48	5
TAP	88	96	4
TAP	88	96	5
BRK	88	192	2
BRK	88	192	6
TAP	89	0	6
TAP	89	0	7
TAP	89	48	6
TAP	89	48	7
TAP	89	144	0
TAP	89	144	5
TAP	89	240	2
TAP	89	240	7
XST	89	336	3
SI_	89	336	3	96	48	0
XST	89	336	4
SI_	89	336	4	96	48	7
BRK	90	192	1
BRK	90	192	6
TTP	91	0	4	B	0	M1
TTP	91	0	5	E	0	M1
TTP	91	0	5	B	0	M1
TTP	91	96	2	B	0	M1
TTP	91	96	3	E	0	M1
TTP	91	96	7	E	0	M1
TTP	91	96	7	B	0	M1
XTP	91	192	0
XTP	91	192	1
TAP	91	288	5
TAP	91	336	4
TAP	91	336	5
TTP	92	48	2	B	0	M1
TTP	92	48	3	B	0	M1
TTP	92	48	3	E	0	M1
TTP	92	144	0	B	0	M1
TTP	92	144	1	E	0	M1
TTP	92	144	5	B	0	M1
TTP	92	144	5	E	0	M1
XTP	92	240	6
XTP	92	240	7
TAP	92	336	2
TAP	92	336	3
TAP	93	48	0
TAP	93	48	1
TAP	93	144	4
TAP	93	144	5
TAP	93	240	6
TAP	93	288	6
TAP	93	336	6
TAP	93	336	7
TAP	94	48	4
TAP	94	48	5
XTP	94	144	2
XTP	94	144	7
TAP	94	240	6
TAP	94	288	6
TAP	94	288	7
TTP	95	0	2	B	0	M1
TTP	95	0	3	E	0	M1
TTP	95	0	3	B	0	M1
TTP	95	96	0	B	0	M1
TTP	95	96	1	E	0	M1
TTP	95	96	5	E	0	M1
TTP	95	96	5	B	0	M1
XTP	95	192	6
XTP	95	192	7
TAP	95	288	2
TAP	95	336	2
TAP	95	336	3
TTP	96	48	4	B	0	M1
TTP	96	48	5	B	0	M1
TTP	96	48	5	E	0	M1
TTP	96	144	2	B	0	M1
TTP	96	144	3	E	0	M1
TTP	96	144	7	E	0	M1
TTP	96	144	7	B	0	M1
XTP	96	240	0
XTP	96	240	1
TAP	96	336	5
TAP	97	0	4
TAP	97	0	5
TAP	97	96	2
TAP	97	144	2
TAP	97	144	3
TAP	97	240	6
TAP	97	240	7
TAP	97	288	6
TAP	97	288	7
XTP	98	0	0
XTP	98	0	7
XTP	98	72	0
XTP	98	72	7
XTP	98	144	0
XTP	98	144	7
BRK	98	192	1
BRK	98	192	6
TTP	99	0	3	E	0	M1
TTP	99	0	3	B	0	M1
TTP	99	0	4	B	0	M1
TTP	99	0	5	E	0	M1
TTP	99	144	1	B	0	M1
TTP	99	144	1	E	0	M1
TTP	99	144	2	E	0	M1
TTP	99	144	6	B	0	M1
TTP	99	144	6	E	0	M1
TTP	99	144	7	E	0	M1
TTP	99	288	0	E	0	M1
TTP	99	288	4	E	0	M1
TTP	100	0	0	C	1	M1
TTP	100	0	2	B	0	M1
TTP	100	0	2	E	0	M1
TTP	100	0	5	B	0	M1
TTP	100	0	6	E	0	M1

T_REC_TAP	294
T_REC_BRK	18
T_REC_XTP	186
T_REC_HLD	29
T_REC_XHO	2
T_REC_STR	29
T_REC_BST	0
T_REC_XST	6
T_REC_TTP	89
T_REC_THO	0
T_REC_SLD	35
T_REC_ALL	688
T_NUM_TAP	604
T_NUM_BRK	18
T_NUM_HLD	31
T_NUM_SLD	35
T_NUM_ALL	688
T_JUDGE_TAP	622
T_JUDGE_HLD	84
T_JUDGE_SLD	35
T_JUDGE_ALL	741
TTM_EACHPAIRS	179
TTM_SCR_TAP	302000
TTM_SCR_BRK	46800
TTM_SCR_HLD	31000
TTM_SCR_SLD	52500
TTM_SCR_ALL	432300
TTM_SCR_S	417600
TTM_SCR_SS	430500
TTM_RAT_ACV	10041

