VERSION	0.00.00	1.03.00
FES_MODE	0
BPM_DEF	196.000	196.000	196.000	196.000
MET_DEF	4	4
RESOLUTION	384
CLK_DEF	384
COMPATIBLE_CODE	MA2

BPM	0	0	196.000
MET	0	0	4	4

XHO	1	0	2	192
XHO	2	0	3	192
XHO	2	0	4	192
XHO	3	0	5	192
XHO	4	0	3	192
XHO	4	0	4	192
TAP	5	0	2
TAP	5	96	2
TAP	5	192	3
TAP	6	0	5
TAP	6	96	5
TAP	6	192	4
TAP	7	0	3
TAP	7	96	3
TAP	7	192	4
TAP	8	0	3
TAP	8	0	4
TAP	8	192	2
TAP	8	192	5
TAP	9	0	2
TAP	9	96	3
TAP	9	192	2
TAP	10	0	5
TAP	10	96	4
TAP	10	192	5
HLD	11	0	3	192
HLD	11	192	4	192
TAP	12	0	3
TAP	12	96	3
XTP	12	192	2
XTP	12	192	5
HLD	13	0	2	192
TAP	13	192	3
TAP	13	288	3
TAP	14	0	4
TAP	14	96	4
TAP	14	192	3
TAP	14	192	4
HLD	15	0	5	192
TAP	15	192	4
TAP	15	288	4
TAP	16	0	3
TAP	16	96	3
TAP	16	192	3
TAP	16	192	4
HLD	17	0	1	192
TAP	17	192	0
TAP	17	288	0
TAP	18	0	7
TAP	18	96	7
TAP	18	192	0
TAP	18	192	7
HLD	19	0	6	192
TAP	19	192	7
TAP	19	288	7
TAP	20	0	0
TAP	20	0	6
XTP	20	192	1
XTP	20	192	7
TTP	21	0	2	E	0	L1
TTP	21	192	2	B	0	L1
TTP	22	0	3	B	0	L1
TTP	23	0	4	B	0	L1
TTP	23	192	5	B	0	L1
TTP	24	0	6	E	0	L1
TTP	25	0	2	B	0	L1
TTP	25	192	1	B	0	L1
TTP	26	0	1	E	0	L1
THO	27	0	0	336	C	0	L1
TAP	28	240	1
TAP	28	336	1
TAP	29	48	2
TAP	29	48	3
TAP	29	144	2
TAP	29	144	3
TAP	29	240	4
TAP	29	336	5
TAP	30	48	4
TAP	30	48	5
TAP	30	144	4
TAP	30	144	5
TAP	30	240	6
TAP	30	336	7
TAP	31	48	0
TAP	31	96	0
TAP	31	192	1
TAP	31	288	2
TAP	31	288	3
TAP	32	0	4
TAP	32	48	4
TAP	32	144	3
TAP	32	144	5
TAP	32	240	6
TAP	32	336	6
TAP	33	48	4
TAP	33	48	5
TAP	33	144	4
TAP	33	144	5
TAP	33	240	3
TAP	33	336	2
TAP	34	48	2
TAP	34	48	3
TAP	34	144	2
TAP	34	144	3
TAP	34	240	1
TAP	34	336	0
TAP	35	48	7
TAP	35	96	7
TAP	35	192	1
TAP	35	192	6
TAP	35	288	2
TAP	35	288	5
STR	36	0	3
SCL	36	0	3	96	144	0
STR	36	0	4
SCR	36	0	4	96	144	7
TAP	37	0	2
TAP	37	96	3
TAP	37	192	1
TAP	37	192	4
TAP	38	0	5
TAP	38	96	4
TAP	38	192	3
TAP	38	192	6
XHO	39	0	7	144
XTP	39	144	0
XTP	39	240	1
XTP	39	240	6
XTP	39	336	2
XTP	39	336	5
TAP	40	192	3
TAP	40	192	4
TAP	41	0	2
TAP	41	96	2
TAP	41	192	1
TAP	41	192	3
TAP	42	0	5
TAP	42	96	5
TAP	42	192	4
TAP	42	192	6
XTP	43	0	3
XTP	43	0	4
XTP	43	144	2
XTP	43	144	3
XTP	43	288	3
XTP	43	288	4
XTP	44	48	4
XTP	44	48	5
XTP	44	192	6
XST	44	288	6
SLL	44	288	6	96	384	0
BRK	46	192	1
BRK	46	192	7
TAP	47	0	2
TAP	47	96	2
TAP	47	192	3
TAP	47	288	3
TAP	48	0	3
TAP	48	0	4
TAP	48	192	3
TAP	48	192	5
TAP	49	0	5
TAP	49	96	5
TAP	49	192	4
TAP	49	288	4
TAP	50	0	3
TAP	50	0	4
TAP	50	192	2
TAP	50	192	4
TAP	51	0	2
TAP	51	96	2
TAP	51	192	1
TAP	51	288	1
TAP	52	0	0
TAP	52	0	7
TAP	52	192	1
TAP	52	192	6
TAP	53	0	5
TAP	53	96	5
TAP	53	192	6
TAP	53	288	6
XTP	54	0	0
XTP	54	0	7
XTP	54	192	1
XTP	54	192	6
STR	55	0	2
SI_	55	0	2	96	288	7
TAP	56	192	6
STR	57	0	6
SI_	57	0	6	96	288	3
TAP	58	192	2
STR	59	0	1
SCR	59	0	1	96	288	4
TAP	60	192	5
STR	61	0	6
SUR	61	0	6	96	288	3
XTP	62	192	2
XTP	62	192	4
HLD	63	0	2	192
HLD	63	192	3	192
HLD	64	0	4	192
TAP	64	192	5
HLD	65	0	6	192
HLD	65	192	5	192
HLD	66	0	4	192
TAP	66	192	3
HLD	67	0	2	192
HLD	67	0	3	192
HLD	68	0	4	192
HLD	68	0	5	192
THO	69	0	0	336	C	0	L1
TAP	70	240	6
TAP	70	336	6
TAP	71	48	4
TAP	71	48	5
TAP	71	144	4
TAP	71	144	5
TAP	71	240	3
TAP	71	336	2
TAP	72	48	2
TAP	72	48	3
TAP	72	144	2
TAP	72	144	3
TAP	72	240	1
TAP	72	336	0
TAP	73	48	7
TAP	73	96	7
TAP	73	192	6
TAP	73	288	4
TAP	73	288	5
TAP	74	0	3
TAP	74	48	3
TAP	74	144	2
TAP	74	144	4
TAP	74	240	1
TAP	74	336	1
TAP	75	48	0
TAP	75	48	1
TAP	75	144	0
TAP	75	144	1
TAP	75	240	7
TAP	75	336	6
TAP	76	48	6
TAP	76	48	7
TAP	76	144	6
TAP	76	144	7
TAP	76	240	5
TAP	76	336	4
TAP	77	48	3
TAP	77	96	3
TAP	77	192	2
TAP	77	192	5
TAP	77	288	1
TAP	77	288	6
STR	78	0	0
SCR	78	0	0	96	144	3
STR	78	0	7
SCL	78	0	7	96	144	4
TAP	79	0	1
TAP	79	96	0
TAP	79	192	2
TAP	79	192	7
TAP	80	0	6
TAP	80	96	7
TAP	80	192	0
TAP	80	192	5
HLD	81	0	2	144
XTP	81	144	3
XTP	81	240	1
XTP	81	240	4
XTP	81	336	0
XTP	81	336	5
TAP	82	192	1
TAP	82	192	6
TAP	83	0	0
TAP	83	96	0
TAP	83	192	1
TAP	83	288	1
TAP	84	0	2
TAP	84	96	2
TAP	84	192	3
TAP	84	192	4
TAP	84	288	3
TAP	84	288	4
XTP	85	0	3
XTP	85	0	4
XTP	85	144	4
XTP	85	144	5
XTP	85	288	3
XTP	85	288	4
XTP	86	48	2
XTP	86	48	3
XTP	86	192	2
XST	86	288	2
SLL	86	288	2	96	384	4
XTP	88	192	5
XST	88	288	5
SUR	88	288	5	96	384	2
BRK	90	192	0
BRK	90	192	6
TAP	91	0	5
TAP	91	96	5
TAP	91	192	4
TAP	91	288	3
TAP	92	0	4
TAP	92	96	5
TAP	92	192	4
TAP	92	192	5
TAP	93	0	2
TAP	93	96	2
TAP	93	192	3
TAP	93	288	4
TAP	94	0	3
TAP	94	96	2
TAP	94	192	2
TAP	94	192	3
TAP	95	0	6
TAP	95	96	6
TAP	95	192	7
TAP	95	288	0
TAP	96	0	7
TAP	96	96	6
TAP	96	192	6
TAP	96	192	7
TAP	97	0	1
TAP	97	96	1
TAP	97	192	0
TAP	97	288	7
XTP	98	0	0
XTP	98	0	7
XTP	98	96	0
XTP	98	96	7
XTP	98	192	1
XTP	98	192	6
XHO	99	0	3	144
XHO	99	0	4	144
XTP	99	288	3
XTP	99	288	4
BRK	100	0	2
BRK	100	0	5

T_REC_TAP	228
T_REC_BRK	6
T_REC_XTP	47
T_REC_HLD	17
T_REC_XHO	9
T_REC_STR	8
T_REC_BST	0
T_REC_XST	3
T_REC_TTP	9
T_REC_THO	2
T_REC_SLD	11
T_REC_ALL	340
T_NUM_TAP	295
T_NUM_BRK	6
T_NUM_HLD	28
T_NUM_SLD	11
T_NUM_ALL	340
T_JUDGE_TAP	301
T_JUDGE_HLD	114
T_JUDGE_SLD	11
T_JUDGE_ALL	426
TTM_EACHPAIRS	80
TTM_SCR_TAP	147500
TTM_SCR_BRK	15600
TTM_SCR_HLD	28000
TTM_SCR_SLD	16500
TTM_SCR_ALL	207600
TTM_SCR_S	200800
TTM_SCR_SS	207000
TTM_RAT_ACV	10028

