VERSION	0.00.00	1.03.00
FES_MODE	0
BPM_DEF	196.000	196.000	196.000	196.000
MET_DEF	4	4
RESOLUTION	384
CLK_DEF	384
COMPATIBLE_CODE	MA2

BPM	0	0	196.000
MET	0	0	4	4

HLD	5	0	0	384
HLD	7	0	7	384
TAP	9	0	0
TAP	10	0	0
TAP	11	0	7
BRK	12	0	0
BRK	12	0	7
TAP	13	0	0
TAP	13	192	0
TAP	14	0	0
TAP	15	0	1
TAP	15	192	1
TAP	16	0	1
TAP	17	0	2
TAP	17	192	2
TAP	18	0	2
TAP	19	0	3
TAP	19	192	3
TAP	20	0	3
TAP	20	0	4
TTP	21	0	4	B	0	L1
TTP	22	0	5	B	0	L1
TTP	23	0	6	B	0	L1
TTP	24	0	7	B	0	L1
TTP	25	0	0	B	0	L1
TTP	26	0	1	B	0	L1
THO	27	0	0	336	C	1	L1
XTP	29	0	0
XTP	29	96	0
XTP	29	192	0
XTP	30	0	7
XTP	30	96	7
XTP	30	192	7
TAP	31	0	6
TAP	31	96	6
TAP	31	192	5
TAP	31	288	5
HLD	32	0	4	192
XTP	33	0	3
XTP	33	96	3
XTP	33	192	3
XTP	34	0	4
XTP	34	96	4
XTP	34	192	4
TAP	35	0	3
TAP	35	96	3
TAP	35	192	2
TAP	35	288	2
HLD	36	0	0	192
HLD	36	0	1	192
TAP	37	0	0
TAP	37	192	0
TAP	38	0	7
TAP	38	192	7
STR	39	0	0
SI_	39	0	0	96	288	4
TAP	41	0	7
TAP	41	192	7
TAP	42	0	0
TAP	42	192	0
STR	43	0	7
SI_	43	0	7	96	288	3
TAP	45	0	4
TAP	45	96	4
TAP	45	192	4
TAP	46	0	3
TAP	46	96	3
BRK	46	192	3
BRK	46	192	4
TAP	47	0	5
TAP	47	192	5
TAP	48	0	6
TAP	48	96	6
TAP	48	192	6
TAP	49	0	7
TAP	49	96	7
TAP	49	192	7
TAP	50	0	0
TAP	50	96	7
TAP	50	192	0
TAP	51	0	1
TAP	51	192	1
TAP	52	0	2
TAP	52	96	2
TAP	52	192	2
TAP	53	0	3
TAP	53	96	3
TAP	53	192	3
TAP	54	0	4
TAP	54	96	3
XTP	54	192	4
XHO	55	0	3	192
XHO	56	0	2	192
XHO	56	0	3	192
XHO	57	0	4	192
XHO	58	0	4	192
XHO	58	0	5	192
XHO	59	0	2	192
XHO	59	0	4	192
XHO	60	0	3	192
XHO	60	0	5	192
TAP	61	0	3
TAP	61	96	4
TAP	61	192	3
XTP	62	0	2
XTP	62	0	5
TTP	63	0	3	B	0	L1
TTP	64	0	2	B	0	L1
TTP	65	0	1	B	0	L1
TTP	66	0	0	B	0	L1
TTP	67	0	7	B	0	L1
TTP	68	0	6	B	0	L1
THO	69	0	0	336	C	1	L1
XTP	71	0	7
XTP	71	96	7
XTP	71	192	7
XTP	72	0	0
XTP	72	96	0
XTP	72	192	0
TAP	73	0	1
TAP	73	96	1
TAP	73	192	2
TAP	73	288	2
TAP	74	0	3
TAP	74	96	3
TAP	74	192	3
TAP	74	192	4
XTP	75	0	4
XTP	75	96	4
XTP	75	192	4
XTP	76	0	3
XTP	76	96	3
XTP	76	192	3
TAP	77	0	4
TAP	77	96	4
TAP	77	192	5
TAP	77	288	5
HLD	78	0	6	192
HLD	78	0	7	192
TAP	79	0	7
TAP	79	192	7
TAP	80	0	0
TAP	80	192	0
STR	81	0	7
SI_	81	0	7	96	288	3
TAP	83	0	0
TAP	83	192	0
TAP	84	0	7
TAP	84	192	7
STR	85	0	0
SI_	85	0	0	96	288	4
TAP	87	0	3
TAP	87	96	3
XTP	87	192	2
XTP	87	192	3
TAP	88	0	4
TAP	88	96	4
XTP	88	192	4
XTP	88	192	5
TAP	89	0	3
TAP	89	96	3
XTP	89	192	2
XTP	89	192	4
TAP	90	0	4
TAP	90	96	4
XTP	90	192	3
XTP	90	192	5
TAP	91	0	6
TAP	91	96	6
TAP	91	192	6
TAP	92	0	5
TAP	92	96	5
TAP	92	192	5
TAP	93	0	4
TAP	93	96	4
TAP	93	192	4
TAP	94	0	3
TAP	94	96	4
TAP	94	192	3
TAP	95	0	2
TAP	95	96	2
TAP	95	192	2
TAP	96	0	1
TAP	96	96	1
TAP	96	192	1
TAP	97	0	0
TAP	97	96	0
TAP	97	192	0
TAP	98	0	7
TAP	98	96	0
TAP	98	192	7
STR	99	0	0
SI_	99	0	0	96	288	4

T_REC_TAP	113
T_REC_BRK	4
T_REC_XTP	35
T_REC_HLD	7
T_REC_XHO	10
T_REC_STR	5
T_REC_BST	0
T_REC_XST	0
T_REC_TTP	12
T_REC_THO	2
T_REC_SLD	5
T_REC_ALL	193
T_NUM_TAP	165
T_NUM_BRK	4
T_NUM_HLD	19
T_NUM_SLD	5
T_NUM_ALL	193
T_JUDGE_TAP	169
T_JUDGE_HLD	90
T_JUDGE_SLD	5
T_JUDGE_ALL	264
TTM_EACHPAIRS	15
TTM_SCR_TAP	82500
TTM_SCR_BRK	10400
TTM_SCR_HLD	19000
TTM_SCR_SLD	7500
TTM_SCR_ALL	119400
TTM_SCR_S	115450
TTM_SCR_SS	119000
TTM_RAT_ACV	10033

