VERSION	0.00.00	1.03.00
FES_MODE	0
BPM_DEF	131.000	170.000	170.000	131.000
MET_DEF	4	4
RESOLUTION	384
CLK_DEF	384
COMPATIBLE_CODE	MA2

BPM	0	0	131.000
BPM	3	0	140.000
BPM	3	192	170.000
MET	0	0	4	4

HLD	1	0	2	1200
HLD	1	0	4	1416
STR	6	0	3
SXR	6	0	3	96	288	3
TAP	6	192	6
TAP	6	288	6
STR	7	0	7
SXR	7	0	7	96	288	7
TAP	7	192	2
TAP	7	288	2
STR	8	0	3
SXL	8	0	3	96	288	3
SXR	8	0	3	96	288	3
TAP	9	192	0
TAP	9	192	7
TAP	9	288	1
TAP	9	288	6
STR	10	0	2
SXR	10	0	2	96	288	3
TAP	10	0	5
TAP	10	192	6
TAP	10	288	5
STR	11	0	4
SXL	11	0	4	96	288	3
TAP	11	192	0
TAP	11	288	1
STR	12	0	2
SUR	12	0	2	96	288	5
STR	12	288	7
SCL	12	288	7	96	384	0
TAP	14	192	3
TAP	14	216	4
TAP	14	240	3
TAP	14	264	4
TAP	14	288	3
STR	15	0	2
SI_	15	0	2	96	48	6
TAP	15	0	3
STR	15	96	5
SI_	15	96	5	96	48	2
TAP	15	192	1
TAP	15	240	1
TAP	15	288	0
TAP	15	288	1
TAP	16	0	2
TAP	16	48	3
TAP	16	96	1
TAP	16	96	4
TAP	16	144	2
TAP	16	192	4
TAP	16	240	5
XTP	16	288	6
XST	16	288	7
SV_	16	288	7	96	48	4
SV_	16	288	7	96	48	5
XST	17	96	0
SV_	17	96	0	96	48	2
SV_	17	96	0	96	48	3
XTP	17	96	1
XTP	17	288	3
XST	17	288	4
SV_	17	288	4	96	48	1
XST	18	0	2
SUL	18	0	2	96	48	6
XTP	18	96	6
TAP	18	192	5
TAP	18	216	4
TAP	18	240	5
BRK	18	288	3
BRK	18	288	6
TAP	19	0	6
TAP	19	48	3
TAP	19	48	6
TAP	19	96	5
TAP	19	120	4
TAP	19	168	3
TAP	19	168	4
TAP	19	216	2
TAP	19	216	3
TAP	19	264	1
TAP	19	288	0
TAP	19	336	2
TAP	19	336	7
TAP	20	0	1
TAP	20	48	1
TAP	20	48	4
TAP	20	96	2
TAP	20	120	3
TAP	20	168	3
TAP	20	168	4
TAP	20	216	4
TAP	20	216	5
TAP	20	264	6
TAP	20	288	7
TAP	20	336	0
TAP	20	336	5
TAP	21	0	6
TAP	21	48	3
TAP	21	48	6
TAP	21	96	5
TAP	21	120	4
TAP	21	168	3
TAP	21	168	4
TAP	21	216	2
TAP	21	216	3
TAP	21	264	1
XTP	21	288	0
XTP	21	288	1
STR	22	0	4
SI_	22	0	4	96	48	1
TAP	22	0	5
XTP	22	144	7
TAP	22	192	2
STR	22	192	3
SI_	22	192	3	96	48	6
XTP	22	336	0
TAP	23	0	0
TAP	23	48	1
TAP	23	48	4
TAP	23	96	2
TAP	23	120	3
TAP	23	168	3
TAP	23	168	4
TAP	23	216	4
TAP	23	216	5
TAP	23	264	6
TAP	23	288	7
TAP	23	336	0
TAP	23	336	5
TAP	24	0	6
TAP	24	48	3
TAP	24	48	6
TAP	24	96	5
TAP	24	120	4
TAP	24	168	3
TAP	24	168	4
TAP	24	216	2
TAP	24	216	5
TAP	24	264	0
BRK	24	288	7
XTP	25	0	3
XTP	25	0	6
TAP	25	48	5
TAP	25	72	4
TAP	25	96	5
TAP	25	144	1
XTP	25	192	1
XTP	25	192	4
TAP	25	240	2
TAP	25	264	3
STR	25	288	2
SCL	25	288	2	96	144	5
TAP	25	336	3
TAP	26	0	4
BRK	26	240	0
BRK	26	240	6
BRK	26	288	0
BRK	26	288	6
STR	27	0	6
SCL	27	0	6	96	48	3
TAP	27	96	7
STR	27	192	0
SCR	27	192	0	96	48	3
TAP	27	288	7
STR	28	0	6
SCL	28	0	6	96	48	3
STR	28	96	0
SCR	28	96	0	96	48	3
STR	28	192	7
SI_	28	192	7	96	48	3
TAP	28	288	1
STR	29	0	2
SI_	29	0	2	96	48	7
TAP	29	0	4
TAP	29	96	6
TAP	29	192	3
STR	29	192	5
SI_	29	192	5	96	48	0
TAP	29	288	1
XST	30	0	2
SI_	30	0	2	96	48	0
XTP	30	0	4
XST	30	96	3
SCR	30	96	3	96	96	7
XTP	30	192	0
TAP	30	336	0
STR	31	0	0
SCR	31	0	0	96	48	3
TTP	31	96	0	C	0	M1
STR	31	192	6
SCL	31	192	6	96	48	3
TTP	31	288	0	C	0	M1
STR	32	0	0
SCR	32	0	0	96	48	3
TTP	32	96	0	C	0	M1
TAP	32	192	6
XTP	32	240	6
XTP	32	288	6
XTP	32	288	7
STR	33	0	1
SI_	33	0	1	96	48	4
STR	33	96	6
SI_	33	96	6	96	48	3
STR	33	192	1
SUR	33	192	1	96	48	5
STR	33	288	6
SUL	33	288	6	96	48	2
STR	34	0	0
SUR	34	0	0	96	48	5
STR	34	96	7
SUL	34	96	7	96	48	2
TTP	34	192	0	C	1	M1
STR	35	0	0
SCR	35	0	0	96	48	3
TAP	35	48	0
TAP	35	96	3
STR	35	192	7
SCL	35	192	7	96	48	4
TAP	35	240	7
TAP	35	288	4
STR	36	0	1
SCR	36	0	1	96	48	4
TAP	36	48	1
TAP	36	96	4
STR	36	192	6
SCL	36	192	6	96	48	3
TAP	36	240	6
TAP	36	288	3
STR	37	0	0
SCR	37	0	0	96	48	3
TAP	37	48	0
TTP	37	96	4	B	0	M1
TTP	37	96	5	B	0	M1
STR	37	192	7
SCL	37	192	7	96	48	4
TAP	37	240	7
TTP	37	288	1	B	0	M1
TTP	37	288	2	B	0	M1
XST	38	0	0
SCL	38	0	0	96	48	5
SCR	38	0	0	96	48	3
XST	38	96	0
SF_	38	96	0	96	48	4
XTP	38	192	0
TAP	38	336	4
TAP	38	336	6
HLD	39	0	4	72
HLD	39	0	6	72
TAP	39	96	4
TAP	39	96	6
TAP	39	144	5
HLD	39	192	1	72
HLD	39	192	3	72
TAP	39	288	1
TAP	39	288	3
TAP	39	336	2
STR	40	0	3
SI_	40	0	3	96	48	0
STR	40	96	4
SCR	40	96	4	96	96	1
TAP	40	192	1
TAP	40	336	2
TAP	40	336	4
HLD	41	0	2	72
HLD	41	0	4	72
TAP	41	96	2
TAP	41	96	4
TAP	41	144	1
TAP	41	144	5
HLD	41	192	3	72
HLD	41	192	5	72
TAP	41	288	3
TAP	41	288	5
TAP	41	336	2
TAP	41	336	6
TAP	42	0	1
TAP	42	0	7
TAP	42	48	1
TAP	42	96	5
TAP	42	120	4
TAP	42	144	5
TAP	42	192	2
TAP	42	216	3
TAP	42	240	2
TAP	42	264	3
BRK	42	288	1
TAP	43	0	7
TAP	43	48	6
TAP	43	96	0
STR	43	96	5
SUL	43	96	5	96	96	2
TAP	43	192	1
STR	44	0	1
SI_	44	0	1	96	48	6
TAP	44	48	1
STR	44	96	5
SI_	44	96	5	96	48	2
TAP	44	144	5
HLD	44	192	0	96
BRK	44	288	7
BRK	45	48	2
BRK	45	96	3
BRK	45	144	2
BRK	45	192	1
BRK	45	288	0
BRK	45	336	0
TTP	46	0	6	B	0	M1
TTP	46	0	7	E	0	M1
TTP	46	48	0	B	0	M1
TTP	46	48	1	E	0	M1
TTP	46	96	4	B	0	M1
TTP	46	96	5	E	0	M1
TTP	46	144	2	B	0	M1
TTP	46	144	3	E	0	M1
TTP	46	192	0	C	1	M1
STR	47	0	1
SI_	47	0	1	96	48	4
TAP	47	48	1
STR	47	96	0
SXR	47	96	0	96	96	4
TAP	47	144	0
HLD	47	192	2	96
TAP	48	0	1
TAP	48	24	3
TAP	48	48	2
TAP	48	96	6
TAP	48	120	4
TAP	48	144	5
TAP	48	192	2
TAP	48	216	3
TAP	48	240	2
TAP	48	264	3
TAP	48	288	0
XST	49	0	3
SUL	49	0	3	96	48	6
XST	49	0	4
SUL	49	0	4	96	48	6
XST	49	192	3
SUR	49	192	3	96	48	1
XST	49	192	4
SUR	49	192	4	96	48	1
BRK	50	0	2
XTP	50	24	3
BRK	50	48	2
XTP	50	72	3
BST	50	96	2
SCL	50	96	2	96	96	5
XTP	50	120	3
BRK	50	144	2
XTP	50	168	3
BRK	50	192	2
THO	51	0	0	384	C	0	M1
TTP	51	0	1	B	0	M1
TTP	51	0	2	B	0	M1
TTP	51	0	5	B	0	M1
TTP	51	0	6	B	0	M1
TTP	52	96	0	E	0	M1
TTP	52	96	4	E	0	M1
TTP	52	192	0	C	1	M1
TTP	52	192	2	E	0	M1
TTP	52	192	6	E	0	M1
BRK	53	0	1
BRK	53	0	7
TAP	53	48	2
TAP	53	72	3
TAP	53	96	2
TAP	53	144	1
TAP	53	144	4
TAP	53	192	2
TAP	53	192	5
TAP	53	240	6
XST	53	288	0
SI_	53	288	0	96	48	2
XST	53	288	7
SI_	53	288	7	96	48	3
XST	54	0	0
SI_	54	0	0	96	48	4
XST	54	0	7
SI_	54	0	7	96	48	5
XTP	54	96	0
XTP	54	96	7
XTP	54	192	3
XTP	54	192	6
TAP	54	240	1
TAP	54	264	0
TAP	54	288	1
TAP	54	336	0
TAP	54	336	7
TAP	55	0	1
STR	55	0	6
SCL	55	0	6	96	96	2
STR	55	96	2
SCL	55	96	2	96	96	6
TAP	55	192	6
TTP	55	288	0	C	0	M1
HLD	56	0	5	72
TAP	56	72	4
TAP	56	96	5
TAP	56	144	3
TAP	56	144	6
TAP	56	192	0
TAP	56	192	1
TAP	56	240	6
TAP	56	240	7
XTP	56	288	0
XTP	56	288	5
XST	57	0	2
SI_	57	0	2	96	48	0
XST	57	0	7
SI_	57	0	7	96	48	3
XST	57	192	0
SI_	57	192	0	96	48	4
XST	57	192	3
SI_	57	192	3	96	48	7
XST	58	0	4
SI_	58	0	4	96	48	0
XST	58	0	7
SI_	58	0	7	96	48	5
XTP	58	192	0
XTP	58	192	5
TTP	58	288	0	C	0	M1
TTP	58	288	1	B	0	M1
TTP	58	288	2	B	0	M1
TTP	58	288	2	E	0	M1
TTP	58	288	5	B	0	M1
TTP	58	288	6	E	0	M1
TTP	58	288	6	B	0	M1
XST	59	0	3
SCR	59	0	3	96	48	6
XST	59	0	4
SI_	59	0	4	96	48	7
XTP	59	96	3
XTP	59	96	4
XST	59	192	3
SI_	59	192	3	96	48	0
XST	59	192	4
SCL	59	192	4	96	48	1
XTP	59	288	3
XTP	59	288	4
XST	60	0	0
SI_	60	0	0	96	48	4
XST	60	0	7
SI_	60	0	7	96	48	3
XTP	60	96	0
XTP	60	96	7
TTP	60	108	0	B	0	M1
TTP	60	108	7	B	0	M1
TTP	60	120	0	C	0	M1
TTP	60	132	3	B	0	M1
TTP	60	132	4	B	0	M1
XTP	60	192	2
XTP	60	192	5
XTP	60	240	0
XTP	60	240	7
BRK	60	288	1
BRK	60	288	6
STR	61	0	6
SCL	61	0	6	96	48	3
TAP	61	72	7
TAP	61	96	6
TAP	61	144	0
STR	61	192	1
SCR	61	192	1	96	48	4
TAP	61	264	0
TAP	61	288	1
TAP	61	336	7
TAP	62	0	0
HLD	62	0	7	72
TAP	62	72	0
TAP	62	96	7
TAP	62	144	1
TAP	62	144	6
XTP	62	192	6
XTP	62	224	5
XTP	62	256	4
XTP	62	288	3
XTP	62	320	2
XTP	62	352	1
XST	63	0	0
SCR	63	0	0	96	48	3
XST	63	0	7
SCL	63	0	7	96	48	4
TTP	63	108	1	E	0	M1
TTP	63	108	7	E	0	M1
TTP	63	120	2	E	0	M1
TTP	63	120	6	E	0	M1
TTP	63	132	3	E	0	M1
TTP	63	132	5	E	0	M1
TAP	63	192	0
TAP	63	192	7
TAP	63	240	1
TAP	63	240	6
TAP	63	288	2
TAP	63	288	5
TAP	63	336	2
TAP	63	336	5
XTP	64	0	1
TAP	64	24	3
TAP	64	48	2
XTP	64	72	4
TAP	64	96	3
TAP	64	120	5
XTP	64	144	4
TAP	64	168	6
TAP	64	192	1
XTP	64	216	0
TAP	64	240	1
TAP	64	264	0
BRK	64	288	2
BRK	64	288	7
STR	65	0	1
SCL	65	0	1	96	192	6
STR	65	0	5
SUR	65	0	5	96	192	2
STR	66	0	2
SSL	66	0	2	96	192	6
STR	66	0	5
SSR	66	0	5	96	192	1
TAP	67	0	0
HLD	67	0	7	288
XTP	67	96	6
XTP	67	192	6
XTP	67	288	6
TTP	68	0	0	B	0	M1
TTP	68	0	0	E	0	M1
TTP	68	0	0	C	1	M1
TTP	68	0	3	B	0	M1
TTP	68	0	4	B	0	M1
TTP	68	0	4	E	0	M1
TTP	68	0	7	B	0	M1
TAP	68	192	0
TAP	68	192	7
STR	68	288	2
SXR	68	288	2	96	288	4
STR	68	288	5
SXL	68	288	5	96	288	3
XTP	69	0	2
XTP	69	0	5
TTP	70	0	0	E	0	M1
TTP	70	12	1	E	0	M1
TTP	70	24	2	E	0	M1
TTP	70	36	3	E	0	M1
TTP	70	48	4	E	0	M1
TTP	70	60	5	E	0	M1
TTP	70	72	6	E	0	M1
TTP	70	84	7	E	0	M1
TTP	70	96	0	E	0	M1
TTP	70	108	1	E	0	M1
TTP	70	120	2	E	0	M1
TTP	70	132	3	E	0	M1
TTP	70	144	4	E	0	M1
TTP	70	156	5	E	0	M1
TTP	70	168	6	E	0	M1
TTP	70	180	7	E	0	M1
TTP	70	192	0	E	0	M1
TTP	70	204	1	E	0	M1
TTP	70	216	2	E	0	M1
TTP	70	228	3	E	0	M1
TTP	70	240	4	E	0	M1
TTP	70	252	5	E	0	M1
TTP	70	264	6	E	0	M1
TTP	70	276	7	E	0	M1
TTP	70	288	0	E	0	M1
TAP	71	0	0
TAP	71	48	1
TAP	71	48	4
TAP	71	96	2
TAP	71	120	3
TAP	71	168	6
TAP	71	192	4
XTP	71	240	1
XTP	71	288	0
XTP	71	288	1
TAP	72	0	7
TAP	72	48	3
TAP	72	48	6
TAP	72	96	5
TAP	72	120	4
TAP	72	168	1
TAP	72	192	3
XTP	72	240	7
TAP	72	288	4
TAP	72	288	6
XTP	72	336	0
TAP	73	0	4
TAP	73	48	0
TAP	73	48	5
TAP	73	96	6
TAP	73	120	7
TAP	73	168	1
TAP	73	192	0
XTP	73	240	2
XTP	73	240	7
BRK	73	288	2
BRK	73	288	7
STR	74	0	4
SCL	74	0	4	96	48	1
HLD	74	0	5	72
XTP	74	144	7
HLD	74	192	2	72
STR	74	192	3
SCR	74	192	3	96	48	6
XTP	74	336	0
TAP	75	0	7
TAP	75	48	3
TAP	75	48	6
TAP	75	96	5
TAP	75	120	4
TAP	75	168	2
TAP	75	192	3
XTP	75	240	1
XTP	75	240	4
XTP	75	288	0
XTP	75	288	5
TAP	76	0	3
TAP	76	48	2
TAP	76	48	7
TAP	76	96	1
TAP	76	120	0
TAP	76	168	6
TAP	76	192	7
XTP	76	240	0
XTP	76	240	5
BRK	76	288	1
BRK	76	288	4
XTP	77	0	2
XTP	77	0	7
TAP	77	48	1
TAP	77	72	0
TAP	77	96	1
TAP	77	144	2
XTP	77	192	0
XTP	77	192	5
TAP	77	240	6
TAP	77	264	7
STR	77	288	6
SCL	77	288	6	96	144	1
TAP	77	336	7
TAP	78	0	0
BRK	78	240	1
BRK	78	240	7
BRK	78	288	1
BRK	78	288	7
STR	79	0	2
SCL	79	0	2	96	48	7
TAP	79	0	3
STR	79	96	6
SCL	79	96	6	96	48	3
TAP	79	192	0
TAP	79	240	1
TAP	79	288	2
TAP	79	288	7
TAP	80	0	1
TAP	80	0	4
TAP	80	48	2
TAP	80	72	3
TAP	80	96	2
TAP	80	144	3
TAP	80	144	4
TAP	80	192	4
TAP	80	192	5
TAP	80	240	6
TAP	80	288	0
STR	80	288	7
SI_	80	288	7	96	48	3
SV_	80	288	7	96	48	5
XTP	81	0	7
STR	81	96	0
SI_	81	96	0	96	48	4
SV_	81	96	0	96	48	2
TAP	81	96	7
XTP	81	192	0
STR	81	288	0
SI_	81	288	0	96	48	4
STR	81	288	7
SI_	81	288	7	96	48	5
XST	82	0	0
SI_	82	0	0	96	48	2
XST	82	0	7
SI_	82	0	7	96	48	3
XTP	82	96	0
XTP	82	96	7
BRK	82	192	0
BST	82	192	5
SI_	82	192	5	384	480	2

T_REC_TAP	284
T_REC_BRK	34
T_REC_XTP	78
T_REC_HLD	17
T_REC_XHO	0
T_REC_STR	60
T_REC_BST	2
T_REC_XST	32
T_REC_TTP	77
T_REC_THO	1
T_REC_SLD	100
T_REC_ALL	685
T_NUM_TAP	531
T_NUM_BRK	36
T_NUM_HLD	18
T_NUM_SLD	100
T_NUM_ALL	685
T_JUDGE_TAP	567
T_JUDGE_HLD	97
T_JUDGE_SLD	100
T_JUDGE_ALL	764
TTM_EACHPAIRS	126
TTM_SCR_TAP	265500
TTM_SCR_BRK	93600
TTM_SCR_HLD	18000
TTM_SCR_SLD	150000
TTM_SCR_ALL	527100
TTM_SCR_S	507800
TTM_SCR_SS	523500
TTM_RAT_ACV	10068

