VERSION	0.00.00	1.03.00
FES_MODE	0
BPM_DEF	131.000	170.000	170.000	131.000
MET_DEF	4	4
RESOLUTION	384
CLK_DEF	384
COMPATIBLE_CODE	MA2

BPM	0	0	131.000
BPM	3	0	140.000
BPM	3	192	170.000
MET	0	0	4	4

HLD	1	0	2	1536
HLD	1	0	4	1536
HLD	6	0	3	576
TTP	6	192	4	B	0	M1
TTP	7	0	3	B	0	M1
TTP	7	192	2	B	0	M1
HLD	8	0	4	576
TTP	8	192	3	B	0	M1
TTP	9	0	4	B	0	M1
TTP	9	192	5	B	0	M1
HLD	10	0	2	576
TTP	10	192	2	B	0	M1
TTP	11	0	0	C	0	M1
TTP	11	192	6	B	0	M1
HLD	12	0	5	768
TTP	12	192	3	B	0	M1
TTP	12	192	4	B	0	M1
THO	13	0	0	384	C	0	M1
TAP	15	0	3
TAP	15	0	5
TAP	15	96	2
TAP	15	96	4
TAP	15	192	1
TAP	15	192	7
TAP	15	240	1
TAP	15	240	7
BRK	15	288	1
BRK	15	288	7
TAP	16	0	4
TAP	16	0	5
TAP	16	96	2
TAP	16	96	3
TAP	16	192	0
TAP	16	192	6
TAP	16	240	0
TAP	16	240	6
BRK	16	288	0
BRK	16	288	6
HLD	17	0	5	96
TAP	17	96	7
HLD	17	192	2	96
TAP	17	288	0
TAP	18	0	4
TAP	18	0	6
TAP	18	96	1
TAP	18	96	3
TAP	18	192	3
TAP	18	192	4
BRK	18	288	1
BRK	18	288	6
TAP	19	0	3
TAP	19	0	5
TAP	19	96	6
TAP	19	96	7
TAP	19	192	5
TAP	19	240	4
TAP	19	288	5
TAP	20	0	2
TAP	20	0	4
TAP	20	96	0
TAP	20	96	1
TAP	20	192	0
TAP	20	192	6
TAP	20	240	0
TAP	20	240	6
TAP	20	336	3
TAP	20	336	5
TAP	21	0	3
TAP	21	0	5
TAP	21	96	6
TAP	21	96	7
TAP	21	192	5
TAP	21	240	4
BRK	21	288	5
XHO	22	0	1	72
XHO	22	0	3	72
XHO	22	192	4	72
XHO	22	192	6	72
TAP	23	0	3
TAP	23	0	5
TAP	23	96	6
TAP	23	96	7
TAP	23	192	5
TAP	23	240	4
TAP	23	288	5
TAP	24	0	2
TAP	24	0	4
TAP	24	96	0
TAP	24	96	1
TAP	24	192	2
TAP	24	240	3
TAP	24	288	2
STR	25	0	1
SI_	25	0	1	96	48	4
TAP	25	0	7
TAP	25	192	0
STR	25	192	6
SI_	25	192	6	96	48	3
HLD	26	0	2	144
HLD	26	0	5	144
BRK	26	240	0
BRK	26	240	7
BRK	26	288	0
BRK	26	288	7
HLD	27	0	5	192
TAP	27	96	4
TAP	27	192	4
TAP	27	288	3
TAP	27	288	6
HLD	28	0	2	192
TAP	28	96	3
TAP	28	192	3
TAP	28	288	1
TAP	28	288	4
HLD	29	0	5	96
TAP	29	96	4
HLD	29	192	2	96
TAP	29	288	3
TTP	30	0	6	B	0	M1
TTP	30	0	7	B	0	M1
TTP	30	0	7	E	0	M1
TTP	30	96	0	B	0	M1
TTP	30	96	1	E	0	M1
TTP	30	96	1	B	0	M1
TTP	30	192	0	C	1	M1
TTP	30	192	2	B	0	M1
TTP	30	192	5	B	0	M1
HLD	31	0	6	288
TAP	31	96	4
TAP	31	192	4
TAP	31	288	5
HLD	32	0	1	288
TAP	32	96	3
TAP	32	192	3
TAP	32	288	2
HLD	33	0	4	96
TAP	33	96	5
HLD	33	192	3	96
TAP	33	288	2
STR	34	0	1
SI_	34	0	1	96	96	6
STR	34	0	5
SI_	34	0	5	96	96	2
BRK	34	288	1
BRK	34	288	5
TAP	35	0	2
TAP	35	48	2
TAP	35	96	4
TAP	35	144	3
TAP	35	192	5
TAP	35	288	4
TAP	35	288	6
TAP	36	0	5
TAP	36	48	5
TAP	36	96	3
TAP	36	144	4
TAP	36	192	2
TAP	36	288	1
TAP	36	288	3
TAP	37	0	5
TAP	37	48	4
TAP	37	96	6
TAP	37	192	2
TAP	37	240	3
TAP	37	288	1
TTP	38	0	4	B	0	M1
TTP	38	0	5	B	0	M1
TTP	38	0	5	E	0	M1
TTP	38	96	2	B	0	M1
TTP	38	96	3	B	0	M1
TTP	38	96	3	E	0	M1
TTP	38	192	0	C	1	M1
TTP	38	192	1	B	0	M1
TTP	38	192	6	B	0	M1
HLD	39	0	7	96
TAP	39	96	5
HLD	39	192	0	96
TAP	39	288	2
HLD	40	0	7	96
TAP	40	96	4
HLD	40	192	0	96
TAP	40	288	3
TAP	41	0	5
TAP	41	48	3
TAP	41	96	4
TAP	41	144	2
TAP	41	192	1
TAP	41	192	6
TAP	41	288	3
TAP	41	288	4
TAP	42	0	0
TAP	42	0	7
TAP	42	96	1
TAP	42	96	6
TAP	42	144	1
TAP	42	144	6
BRK	42	192	1
BRK	42	192	6
STR	43	0	4
SI_	43	0	4	96	48	1
TAP	43	0	5
STR	43	192	7
SI_	43	192	7	96	48	2
STR	44	0	0
SI_	44	0	0	96	48	4
HLD	44	192	5	96
HLD	44	288	0	144
XTP	45	48	7
XTP	45	96	7
XTP	45	144	2
HLD	45	192	4	96
XTP	45	288	1
TTP	46	0	5	B	0	M1
TTP	46	0	6	E	0	M1
TTP	46	0	6	B	0	M1
TTP	46	96	1	B	0	M1
TTP	46	96	2	E	0	M1
TTP	46	96	2	B	0	M1
TTP	46	192	0	C	1	M1
TTP	46	192	3	E	0	M1
TTP	46	192	3	B	0	M1
TTP	46	192	4	B	0	M1
TTP	46	192	5	E	0	M1
STR	47	0	0
SI_	47	0	0	96	48	5
TAP	47	0	1
STR	47	192	3
SI_	47	192	3	96	48	6
STR	48	0	4
SI_	48	0	4	96	48	0
HLD	48	192	1	96
TAP	48	288	5
BRK	49	0	0
BRK	49	48	0
BRK	49	96	0
BRK	49	192	1
BRK	49	240	1
BRK	49	288	1
BRK	50	0	2
BRK	50	96	2
BRK	50	144	2
BRK	50	192	2
HLD	51	0	5	96
TAP	51	96	4
HLD	51	192	2	96
TAP	51	288	3
TAP	52	0	4
TAP	52	0	5
TAP	52	96	2
TAP	52	96	3
TAP	52	192	3
TAP	52	192	4
STR	53	0	0
SI_	53	0	0	96	48	4
STR	53	0	1
SI_	53	0	1	96	48	3
TAP	53	192	1
TAP	53	240	1
TAP	53	288	0
TAP	53	288	2
STR	54	0	6
SI_	54	0	6	96	48	4
STR	54	0	7
SI_	54	0	7	96	48	3
BRK	54	192	1
BRK	54	192	5
TAP	54	336	3
TAP	54	336	4
TAP	55	0	3
TAP	55	0	4
STR	55	96	0
SUL	55	96	0	96	96	3
TAP	55	96	1
STR	56	0	0
SI_	56	0	0	96	48	4
TAP	56	0	7
BRK	56	192	2
BRK	56	192	6
TAP	57	0	2
HLD	57	0	5	192
HLD	57	192	7	96
HLD	57	288	0	96
HLD	58	0	2	96
TAP	58	96	5
TAP	58	192	3
TAP	58	192	4
BRK	58	288	1
BRK	58	288	6
STR	59	0	4
SI_	59	0	4	96	48	7
STR	59	0	5
SI_	59	0	5	96	48	7
STR	59	192	2
SI_	59	192	2	96	48	0
STR	59	192	3
SI_	59	192	3	96	48	0
BRK	60	0	3
BRK	60	0	4
BRK	60	96	1
BRK	60	96	6
BST	60	144	1
SI_	60	144	1	96	48	5
BRK	60	144	6
BRK	60	192	1
BRK	60	192	6
STR	61	0	0
SI_	61	0	0	96	48	4
STR	61	0	7
SI_	61	0	7	96	48	5
TAP	61	192	2
TAP	61	240	2
TAP	61	288	1
TAP	61	288	3
TAP	62	0	0
TAP	62	0	7
TAP	62	96	2
TAP	62	96	5
XTP	62	192	4
XTP	62	224	3
XTP	62	256	4
XTP	62	288	3
XTP	62	320	4
XTP	62	352	3
XST	63	0	4
SUR	63	0	4	96	96	3
STR	63	288	1
SXR	63	288	1	96	192	4
TAP	63	288	6
BRK	64	288	1
BRK	64	288	6
TAP	65	0	3
HLD	65	0	4	384
HLD	66	0	3	384
TAP	67	0	4
TTP	67	96	6	B	0	M1
TTP	67	192	1	B	0	M1
TTP	67	288	4	E	0	M1
TTP	68	0	0	C	1	M1
HLD	69	0	5	96
TAP	69	96	7
HLD	69	192	2	96
TAP	69	288	0
STR	70	0	1
SLR	70	0	1	96	144	0
STR	70	0	6
SLL	70	0	6	96	144	7
BRK	70	288	1
BRK	70	288	6
TAP	71	0	2
TAP	71	0	4
TAP	71	96	0
TAP	71	96	1
TAP	71	192	2
TAP	71	240	3
TAP	71	288	2
TAP	72	0	3
TAP	72	0	5
TAP	72	96	6
TAP	72	96	7
TAP	72	192	1
TAP	72	192	7
TAP	72	240	1
TAP	72	240	7
TAP	72	336	2
TAP	72	336	4
TAP	73	0	2
TAP	73	0	4
TAP	73	96	0
TAP	73	96	1
TAP	73	192	2
TAP	73	240	3
BRK	73	288	2
XHO	74	0	4	72
XHO	74	0	6	72
XHO	74	192	1	72
XHO	74	192	3	72
TAP	75	0	2
TAP	75	0	4
TAP	75	96	0
TAP	75	96	1
TAP	75	192	2
TAP	75	240	3
TAP	75	288	2
TAP	76	0	3
TAP	76	0	5
TAP	76	96	6
TAP	76	96	7
TAP	76	192	5
TAP	76	240	4
TAP	76	288	5
TAP	77	0	0
STR	77	0	6
SI_	77	0	6	96	48	3
STR	77	192	1
SI_	77	192	1	96	48	4
TAP	77	192	7
HLD	78	0	2	144
HLD	78	0	5	144
BRK	78	240	0
BRK	78	240	7
BRK	78	288	0
BRK	78	288	7
TAP	79	0	4
TAP	79	0	5
TAP	79	96	2
TAP	79	96	3
TAP	79	192	0
TAP	79	192	6
TAP	79	240	0
TAP	79	240	6
BRK	79	288	0
BRK	79	288	6
TAP	80	0	1
TAP	80	0	3
TAP	80	96	4
TAP	80	96	6
TAP	80	192	1
TAP	80	192	7
TAP	80	240	1
TAP	80	240	7
BRK	80	288	1
BRK	80	288	7
HLD	81	0	1	96
TAP	81	96	3
HLD	81	192	6	96
TAP	81	288	4
TAP	82	0	5
TAP	82	0	7
TAP	82	96	0
TAP	82	96	2
TAP	82	192	1
STR	82	192	6
SI_	82	192	6	96	1056	1

T_REC_TAP	219
T_REC_BRK	51
T_REC_XTP	10
T_REC_HLD	40
T_REC_XHO	8
T_REC_STR	28
T_REC_BST	1
T_REC_XST	1
T_REC_TTP	44
T_REC_THO	1
T_REC_SLD	30
T_REC_ALL	433
T_NUM_TAP	302
T_NUM_BRK	52
T_NUM_HLD	49
T_NUM_SLD	30
T_NUM_ALL	433
T_JUDGE_TAP	354
T_JUDGE_HLD	239
T_JUDGE_SLD	30
T_JUDGE_ALL	623
TTM_EACHPAIRS	112
TTM_SCR_TAP	151000
TTM_SCR_BRK	135200
TTM_SCR_HLD	49000
TTM_SCR_SLD	45000
TTM_SCR_ALL	380200
TTM_SCR_S	363750
TTM_SCR_SS	375000
TTM_RAT_ACV	10138

