VERSION	0.00.00	1.03.00
FES_MODE	0
BPM_DEF	131.000	170.000	170.000	131.000
MET_DEF	4	4
RESOLUTION	384
CLK_DEF	384
COMPATIBLE_CODE	MA2

BPM	0	0	131.000
BPM	3	0	140.000
BPM	3	192	170.000
MET	0	0	4	4

XHO	1	0	7	1920
TTP	7	0	1	E	0	L1
TTP	7	0	7	E	0	L1
TTP	8	0	2	E	0	L1
TTP	8	0	6	E	0	L1
TTP	9	0	3	E	0	L1
TTP	9	0	5	E	0	L1
TTP	10	0	4	E	0	L1
TTP	11	0	3	B	0	L1
TTP	11	0	4	B	0	L1
TTP	12	0	2	B	0	L1
TTP	12	0	5	B	0	L1
THO	13	0	0	384	C	0	L1
XTP	15	0	2
XTP	15	0	3
XTP	15	96	2
XTP	15	96	3
XTP	15	192	1
XTP	15	192	4
XTP	16	0	4
XTP	16	0	5
XTP	16	96	4
XTP	16	96	5
XTP	16	192	3
XTP	16	192	6
TAP	17	0	5
TAP	17	96	4
TAP	17	192	3
TAP	17	288	2
XHO	18	0	3	96
XHO	18	0	4	96
BRK	18	192	2
BRK	18	192	5
TAP	19	0	1
TAP	19	96	1
TAP	19	192	2
TAP	19	288	3
TAP	20	0	4
TAP	20	0	5
TAP	20	96	4
TAP	20	96	5
TAP	20	192	3
TAP	20	192	6
TAP	21	0	5
TAP	21	96	5
TAP	21	192	6
TAP	21	288	7
XTP	22	0	0
XTP	22	0	1
XTP	22	96	2
XTP	22	96	7
XTP	22	192	3
XTP	22	192	6
TAP	23	0	4
TAP	23	96	4
TAP	23	192	3
TAP	23	288	2
TAP	24	0	1
TAP	24	96	0
XTP	24	192	2
XTP	24	192	7
TAP	25	0	6
TAP	25	96	7
XTP	25	192	0
XTP	25	192	5
XHO	26	0	2	192
XHO	26	0	5	192
XTP	26	288	1
XTP	26	288	6
HLD	27	0	5	96
HLD	27	192	3	96
HLD	27	192	4	96
HLD	28	0	2	96
TAP	28	192	2
TAP	28	288	2
HLD	29	0	2	96
HLD	29	0	3	96
HLD	29	192	4	96
HLD	29	192	5	96
XTP	30	0	6
XTP	30	96	6
XTP	30	192	6
HLD	31	0	4	96
HLD	31	0	5	96
HLD	31	192	3	96
HLD	31	192	4	96
HLD	32	0	2	96
HLD	32	0	3	96
XTP	32	192	1
XTP	32	192	4
HLD	33	0	2	96
HLD	33	0	3	96
HLD	33	192	3	96
HLD	33	192	4	96
TAP	34	0	3
TAP	34	0	4
TAP	34	96	3
TAP	34	96	4
XTP	34	192	2
XTP	34	192	5
HLD	35	0	2	192
TAP	35	96	3
TAP	35	192	3
HLD	36	0	5	192
TAP	36	96	4
TAP	36	192	4
HLD	37	0	1	192
TAP	37	96	0
TAP	37	192	0
XTP	38	0	7
XTP	38	96	7
XTP	38	192	0
XTP	38	192	6
HLD	39	0	5	192
TAP	39	96	4
TAP	39	192	3
HLD	40	0	2	192
TAP	40	96	3
TAP	40	192	4
TAP	41	0	5
TAP	41	96	4
TAP	41	192	3
TAP	41	288	2
TAP	41	288	5
HLD	42	0	2	96
HLD	42	0	5	96
XTP	42	192	3
XTP	42	192	4
STR	43	0	4
SI_	43	0	4	96	192	7
STR	44	0	0
SI_	44	0	0	96	192	3
STR	45	0	4
SCR	45	0	4	96	192	7
XTP	46	0	0
XTP	46	0	1
XTP	46	96	0
XTP	46	96	1
XTP	46	192	2
XTP	46	192	7
STR	47	0	6
SI_	47	0	6	96	192	3
STR	48	0	2
SI_	48	0	2	96	192	7
STR	49	0	6
SCL	49	0	6	96	192	3
XTP	50	0	2
XTP	50	96	2
XTP	50	192	1
XTP	50	192	3
TTP	51	0	5	B	0	L1
TTP	51	0	6	B	0	L1
TTP	51	192	1	B	0	L1
TTP	51	192	2	B	0	L1
THO	52	0	0	192	C	1	L1
XTP	53	0	0
XTP	53	96	0
TAP	53	192	1
TAP	53	192	7
TAP	53	288	1
TAP	53	288	7
TAP	54	0	3
TAP	54	0	5
TAP	54	96	2
TAP	54	96	4
XTP	54	192	1
XTP	54	192	6
TAP	55	0	2
TAP	55	96	1
TAP	55	192	0
TAP	55	192	7
TAP	55	288	1
TAP	55	288	6
TAP	56	0	5
TAP	56	96	3
TAP	56	96	4
XTP	56	192	2
XTP	56	192	5
HLD	57	0	1	96
HLD	57	0	3	96
TAP	57	192	1
TAP	57	192	3
TAP	57	288	2
HLD	58	0	3	96
HLD	58	0	4	96
TAP	58	192	2
TAP	58	192	5
XTP	58	288	0
XTP	58	288	7
XHO	59	0	4	96
XHO	59	0	6	96
XHO	59	192	1	96
XHO	59	192	3	96
BRK	60	0	0
BRK	60	0	7
BRK	60	96	1
BRK	60	96	6
BRK	60	192	2
BRK	60	192	5
TAP	61	0	2
TAP	61	0	3
TAP	61	96	1
TAP	61	96	4
TAP	61	192	0
TAP	61	240	0
XTP	61	288	0
TAP	62	0	6
TAP	62	0	7
TAP	62	96	0
TAP	62	96	5
XTP	62	192	1
XTP	62	192	4
TAP	63	0	4
TAP	63	0	5
TAP	63	96	3
TAP	63	96	6
TAP	63	192	7
TAP	63	240	7
XTP	63	288	7
TAP	64	0	0
TAP	64	0	1
TAP	64	96	2
TAP	64	96	7
BRK	64	192	3
BRK	64	192	6
TTP	65	0	5	E	0	L1
TTP	65	192	4	B	0	L1
TTP	66	0	3	B	0	L1
TTP	66	192	2	B	0	L1
TTP	66	192	5	B	0	L1
THO	67	0	0	384	C	1	L1
XTP	69	0	0
XTP	69	0	7
XTP	69	96	1
XTP	69	96	6
XTP	69	192	2
XTP	69	192	5
XST	69	288	3
SXR	69	288	3	96	288	0
XST	69	288	4
SXL	69	288	4	96	288	7
XTP	71	0	1
TAP	71	96	2
TAP	71	96	4
TAP	71	192	3
TAP	71	240	3
XTP	71	288	3
TAP	72	0	3
TAP	72	0	4
TAP	72	96	5
TAP	72	192	6
TAP	72	240	6
XTP	72	288	6
TAP	73	0	1
TAP	73	0	7
TAP	73	96	2
TAP	73	192	0
TAP	73	192	6
XTP	73	288	5
XHO	74	0	4	96
XHO	74	0	5	96
XHO	74	192	2	96
XHO	74	192	3	96
TAP	75	0	5
TAP	75	96	0
TAP	75	96	6
TAP	75	192	7
TAP	75	240	7
XTP	75	288	7
TAP	76	0	0
TAP	76	0	7
TAP	76	96	1
TAP	76	192	2
TAP	76	240	2
BRK	76	288	2
XHO	77	0	1	96
XHO	77	0	3	96
XHO	77	192	4	96
XHO	77	192	6	96
XHO	78	0	3	192
XHO	78	0	4	192
XTP	78	288	1
XTP	78	288	6
TAP	79	0	5
TAP	79	96	4
TAP	79	192	5
TAP	79	288	4
TAP	79	288	6
TAP	80	0	2
TAP	80	96	3
TAP	80	192	2
TAP	80	288	1
TAP	80	288	3
HLD	81	0	2	96
HLD	81	0	4	96
HLD	81	192	3	96
HLD	81	192	5	96
TTP	82	0	4	E	0	L1
TTP	82	96	3	E	0	L1
TTP	82	96	5	E	0	L1
TTP	82	192	0	C	1	L1

T_REC_TAP	123
T_REC_BRK	11
T_REC_XTP	72
T_REC_HLD	33
T_REC_XHO	19
T_REC_STR	6
T_REC_BST	0
T_REC_XST	2
T_REC_TTP	24
T_REC_THO	3
T_REC_SLD	8
T_REC_ALL	301
T_NUM_TAP	227
T_NUM_BRK	11
T_NUM_HLD	55
T_NUM_SLD	8
T_NUM_ALL	301
T_JUDGE_TAP	238
T_JUDGE_HLD	180
T_JUDGE_SLD	8
T_JUDGE_ALL	426
TTM_EACHPAIRS	87
TTM_SCR_TAP	113500
TTM_SCR_BRK	28600
TTM_SCR_HLD	55000
TTM_SCR_SLD	12000
TTM_SCR_ALL	209100
TTM_SCR_S	201800
TTM_SCR_SS	208000
TTM_RAT_ACV	10052

