VERSION	0.00.00	1.03.00
FES_MODE	0
BPM_DEF	131.000	170.000	170.000	131.000
MET_DEF	4	4
RESOLUTION	384
CLK_DEF	384
COMPATIBLE_CODE	MA2

BPM	0	0	131.000
BPM	3	0	140.000
BPM	3	192	170.000
MET	0	0	4	4

XHO	6	0	3	384
XHO	8	0	4	384
TAP	10	0	3
TAP	11	0	4
TAP	12	0	3
TAP	12	0	4
XHO	13	0	2	384
XHO	13	0	5	384
TAP	15	0	3
TAP	15	192	3
TAP	16	0	4
TAP	16	192	4
TAP	17	0	3
TAP	17	0	4
TAP	17	192	2
TAP	17	192	5
XTP	18	0	3
XTP	18	96	4
XTP	18	192	3
TAP	19	0	4
TAP	19	192	4
TAP	20	0	5
TAP	20	192	5
TAP	21	0	6
TAP	21	192	6
HLD	22	0	0	192
HLD	22	0	7	192
TAP	23	0	0
TAP	23	192	0
TAP	24	0	1
TAP	24	192	1
TAP	25	0	2
TAP	25	192	2
XHO	26	0	3	192
XHO	26	0	4	192
TAP	27	0	4
TAP	27	192	4
TAP	28	0	3
TAP	28	192	3
TAP	29	0	4
TAP	29	96	4
TAP	29	192	4
XTP	30	0	3
XTP	30	96	3
BRK	30	192	3
TAP	31	0	2
TAP	31	192	2
TAP	32	0	1
TAP	32	192	1
TAP	33	0	0
TAP	33	192	0
XTP	34	0	7
XTP	34	96	7
BRK	34	192	7
STR	35	0	0
SI_	35	0	0	96	288	4
TAP	37	0	5
TAP	37	192	5
XTP	38	0	6
XTP	38	96	6
XTP	38	192	6
STR	39	0	6
SI_	39	0	6	96	288	2
TAP	41	0	3
TAP	41	0	4
TAP	41	192	3
TAP	41	192	4
HLD	42	0	3	192
HLD	42	0	4	192
TTP	43	0	3	B	0	L1
TTP	43	0	4	B	0	L1
TTP	44	0	2	B	0	L1
TTP	44	0	5	B	0	L1
THO	45	0	0	384	C	1	L1
TTP	47	0	0	B	0	L1
TTP	47	0	7	B	0	L1
TTP	48	0	1	B	0	L1
TTP	48	0	6	B	0	L1
THO	49	0	0	384	C	1	L1
HLD	51	0	3	384
HLD	51	0	4	384
TAP	53	0	2
TAP	53	96	2
TAP	53	192	2
XTP	54	0	2
XTP	54	0	3
XTP	54	96	2
XTP	54	96	3
XTP	54	192	2
XTP	54	192	3
TAP	55	0	1
TAP	55	96	1
TAP	55	192	1
XTP	56	0	0
XTP	56	0	1
XTP	56	96	0
XTP	56	96	1
XTP	56	192	0
XTP	56	192	1
HLD	57	0	0	192
HLD	57	0	7	192
HLD	58	0	1	192
HLD	58	0	6	192
TAP	59	0	1
TAP	59	0	7
TAP	59	192	0
TAP	59	192	6
XTP	60	0	7
XTP	60	96	0
BRK	60	192	7
TAP	61	0	6
TAP	61	96	6
TAP	61	192	6
XTP	62	0	6
XTP	62	0	7
XTP	62	96	6
XTP	62	96	7
XTP	62	192	6
XTP	62	192	7
TAP	63	0	5
TAP	63	96	5
TAP	63	192	5
XTP	64	0	4
XTP	64	0	5
XTP	64	96	4
XTP	64	96	5
BRK	64	192	4
BRK	64	192	5
HLD	65	0	3	192
HLD	66	0	4	192
TAP	67	0	3
XTP	67	96	4
XTP	67	192	4
XTP	67	288	4
BRK	68	0	4
STR	69	0	3
SI_	69	0	3	96	288	0
STR	69	0	4
SI_	69	0	4	96	288	7
TAP	71	0	0
TAP	71	96	0
TAP	71	192	0
TAP	72	0	1
TAP	72	96	1
TAP	72	192	1
TAP	73	0	2
TAP	73	96	2
TAP	73	192	2
XTP	74	0	2
XTP	74	0	3
XTP	74	192	2
XTP	74	192	3
TAP	75	0	4
TAP	75	96	4
TAP	75	192	4
TAP	76	0	5
TAP	76	96	5
TAP	76	192	5
XTP	77	0	6
XTP	77	0	7
XTP	77	192	6
XTP	77	192	7
TAP	78	0	0
TAP	78	96	7
BRK	78	192	0
TAP	79	0	7
TAP	79	96	7
XTP	79	192	0
XTP	79	192	6
TAP	80	0	0
TAP	80	96	0
XTP	80	192	1
XTP	80	192	7
TAP	81	0	0
TAP	81	0	6
TAP	81	192	1
TAP	81	192	7
XTP	82	0	0
XTP	82	0	7
XTP	82	96	0
XTP	82	96	7
BRK	82	192	1
BRK	82	192	6

T_REC_TAP	85
T_REC_BRK	9
T_REC_XTP	53
T_REC_HLD	12
T_REC_XHO	6
T_REC_STR	4
T_REC_BST	0
T_REC_XST	0
T_REC_TTP	8
T_REC_THO	2
T_REC_SLD	4
T_REC_ALL	183
T_NUM_TAP	150
T_NUM_BRK	9
T_NUM_HLD	20
T_NUM_SLD	4
T_NUM_ALL	183
T_JUDGE_TAP	159
T_JUDGE_HLD	112
T_JUDGE_SLD	4
T_JUDGE_ALL	275
TTM_EACHPAIRS	38
TTM_SCR_TAP	75000
TTM_SCR_BRK	23400
TTM_SCR_HLD	20000
TTM_SCR_SLD	6000
TTM_SCR_ALL	124400
TTM_SCR_S	119800
TTM_SCR_SS	123500
TTM_RAT_ACV	10072

