VERSION	0.00.00	1.04.00
FES_MODE	0
BPM_DEF	135.000	135.000	135.000	135.000
MET_DEF	4	4
RESOLUTION	384
CLK_DEF	384
COMPATIBLE_CODE	MA2

BPM	0	0	135.000
MET	0	0	4	4

NMSTR	2	0	4
NMSF_	2	0	4	96	288	0
NMTAP	2	0	5
NMTAP	3	288	1
NMTAP	3	288	7
NMTAP	4	0	2
NMSTR	4	0	3
NMSF_	4	0	3	96	288	7
NMTAP	5	288	0
NMTAP	5	288	6
NMTAP	6	0	4
NMSTR	6	0	5
NMSF_	6	0	5	96	288	1
NMTAP	7	288	0
NMTAP	7	288	1
NMSTR	8	0	2
NMSF_	8	0	2	96	288	6
NMTAP	8	0	3
BRTAP	9	288	0
NMHLD	10	0	6	192
NMTTP	10	96	4	B	0	M1
NMTTP	10	96	4	A	0	M1
NMTTP	10	96	5	E	0	M1
NMHLD	10	192	1	192
NMTTP	10	288	3	B	0	M1
NMTTP	10	288	3	E	0	M1
NMTTP	10	288	3	A	0	M1
NMHLD	11	0	7	192
NMTTP	11	96	5	B	0	M1
NMTTP	11	96	5	E	0	M1
NMTTP	11	96	5	A	0	M1
NMHLD	11	192	0	192
NMTTP	11	288	2	B	0	M1
NMTTP	11	288	2	A	0	M1
NMTTP	11	288	3	E	0	M1
NMHLD	12	0	6	192
NMTTP	12	96	4	B	0	M1
NMTTP	12	96	4	A	0	M1
NMTTP	12	96	5	E	0	M1
NMHLD	12	192	1	192
NMTTP	12	288	3	B	0	M1
NMTTP	12	288	3	E	0	M1
NMTTP	12	288	3	A	0	M1
NMSTR	13	0	7
NMSF_	13	0	7	96	48	3
NMTAP	13	192	2
NMTAP	13	192	4
NMTAP	13	264	3
NMTAP	13	264	5
NMTAP	13	336	2
NMTAP	13	336	6
NMTTP	14	0	3	B	0	M1
NMTTP	14	0	4	B	1	M1
NMTTP	14	0	5	B	0	M1
BRTAP	14	96	1
BRTAP	14	96	7
NMTAP	14	192	5
NMTAP	14	240	4
NMTAP	14	288	3
NMHLD	14	336	2	96
NMTAP	15	48	0
NMTAP	15	96	0
NMTAP	15	192	0
NMTAP	15	192	1
NMTAP	15	264	0
NMTAP	15	264	7
NMTAP	15	336	6
NMTAP	15	336	7
NMTAP	16	0	6
NMTAP	16	0	7
NMTAP	16	72	4
NMTAP	16	72	6
NMTAP	16	144	3
NMTAP	16	144	4
NMTAP	16	192	0
NMTAP	16	192	1
NMTAP	16	264	1
NMTAP	16	264	3
NMTAP	16	336	3
NMTAP	16	336	4
NMTAP	17	48	5
NMTAP	17	72	4
NMTAP	17	120	2
NMTAP	17	144	3
NMTAP	17	192	3
NMTAP	17	192	4
NMTAP	17	288	2
NMTAP	17	288	5
BRTAP	18	0	1
BRTAP	18	0	4
NMTTP	18	96	2	B	0	M1
NMTTP	18	96	3	E	0	M1
NMTTP	18	96	3	D	0	M1
NMTTP	18	288	2	B	0	M1
NMTTP	18	288	2	E	0	M1
NMTTP	18	288	2	D	0	M1
NMTAP	19	0	1
NMTAP	19	0	3
NMTTP	19	96	2	B	0	M1
NMTTP	19	96	3	E	0	M1
NMTTP	19	96	3	D	0	M1
NMTTP	19	288	4	B	0	M1
NMTTP	19	288	5	E	0	M1
NMTTP	19	288	5	D	0	M1
NMTAP	20	0	3
NMTAP	20	0	6
NMTTP	20	96	5	B	0	M1
NMTTP	20	96	5	E	0	M1
NMTTP	20	96	5	D	0	M1
NMTTP	20	288	5	B	0	M1
NMTTP	20	288	6	E	0	M1
NMTTP	20	288	6	D	0	M1
NMTAP	21	0	4
NMTAP	21	0	6
NMTAP	21	96	4
NMTAP	21	96	6
NMSTR	21	192	5
NMSF_	21	192	5	96	48	1
NMSTR	22	0	3
BRSF_	22	0	3	96	48	7
NMSTR	22	192	2
NMSF_	22	192	2	96	48	6
NMSTR	23	0	4
BRSF_	23	0	4	96	48	0
NMTAP	23	192	5
NMTAP	23	288	3
NMTAP	23	288	6
NMHLD	23	336	3	96
NMHLD	23	336	6	96
NMTAP	24	96	0
NMTAP	24	96	7
NMTAP	24	192	1
NMTAP	24	192	4
NMTAP	24	288	2
NMTAP	24	288	5
NMHLD	24	336	2	240
NMTAP	24	336	5
NMTTP	25	192	0	A	0	M1
NMTTP	25	192	1	A	0	M1
NMTTP	25	192	1	D	0	M1
NMTTP	25	288	6	A	0	M1
NMTTP	25	288	7	A	0	M1
NMTTP	25	288	7	D	0	M1
NMTAP	26	0	3
NMTAP	26	0	6
NMTTP	26	96	5	B	0	M1
NMTTP	26	96	5	E	0	M1
NMTTP	26	96	5	D	0	M1
NMTAP	26	192	4
NMTTP	26	288	7	B	0	M1
NMTTP	26	288	7	E	0	M1
NMTTP	26	288	7	D	0	M1
NMTAP	27	0	4
NMTAP	27	0	6
NMTTP	27	96	5	B	0	M1
NMTTP	27	96	5	E	0	M1
NMTTP	27	96	5	D	0	M1
NMTAP	27	192	4
NMTTP	27	288	3	B	0	M1
NMTTP	27	288	3	E	0	M1
NMTTP	27	288	3	D	0	M1
NMTAP	28	0	1
NMTAP	28	0	4
NMTTP	28	96	2	B	0	M1
NMTTP	28	96	3	E	0	M1
NMTTP	28	96	3	D	0	M1
NMTAP	28	192	3
NMTTP	28	288	0	B	0	M1
NMTTP	28	288	1	E	0	M1
NMTTP	28	288	1	D	0	M1
NMTAP	29	0	1
NMTAP	29	0	3
NMTAP	29	96	1
NMTAP	29	96	3
NMSTR	29	192	2
NMSF_	29	192	2	96	48	6
NMSTR	30	0	4
BRSF_	30	0	4	96	48	0
NMSTR	30	192	5
NMSF_	30	192	5	96	48	1
NMSTR	31	0	3
BRSF_	31	0	3	96	48	7
NMTAP	31	192	2
NMTAP	31	288	1
NMTAP	31	288	4
NMTAP	31	336	1
NMTAP	31	336	4
NMTAP	32	48	3
NMTAP	32	48	6
NMTAP	32	96	3
NMTAP	32	96	6
NMTAP	32	192	2
NMTAP	32	192	5
NMTHO	32	288	0	288	C	1	M1
NMTTP	32	288	1	B	0	M1
NMTTP	32	288	6	B	0	M1
NMTAP	34	0	0
NMTAP	34	0	7
NMTAP	34	96	0
NMTAP	34	96	7
NMTAP	34	192	0
NMTAP	34	192	1
NMTAP	34	288	6
NMHLD	34	288	7	480
NMTTP	35	96	4	B	0	M1
NMTTP	35	96	5	E	0	M1
NMTTP	35	96	5	D	0	M1
NMTTP	35	192	7	B	0	M1
NMTTP	35	192	7	E	0	M1
NMTTP	35	192	7	D	0	M1
NMTTP	35	288	5	B	0	M1
NMTTP	35	288	6	E	0	M1
NMTTP	35	288	6	D	0	M1
NMTAP	36	96	0
NMTAP	36	96	7
NMTAP	36	192	6
NMTAP	36	192	7
NMHLD	36	288	0	480
NMTAP	36	288	1
NMTTP	37	96	3	B	0	M1
NMTTP	37	96	3	E	0	M1
NMTTP	37	96	3	D	0	M1
NMTTP	37	192	0	B	0	M1
NMTTP	37	192	1	E	0	M1
NMTTP	37	192	1	D	0	M1
NMTTP	37	288	2	B	0	M1
NMTTP	37	288	2	E	0	M1
NMTTP	37	288	2	D	0	M1
NMTAP	38	96	0
NMTAP	38	96	7
NMTAP	38	192	2
NMTAP	38	192	5
NMTAP	38	288	3
NMTAP	38	288	4
NMTAP	38	336	3
NMHLD	38	336	4	96
NMTAP	39	48	7
NMHLD	39	144	3	96
NMTAP	39	144	4
NMTAP	39	240	0
NMTAP	39	336	0
NMTAP	39	336	7
NMTAP	40	48	5
NMTAP	40	96	5
NMTAP	40	144	3
NMTAP	40	144	4
NMTAP	40	192	2
NMTAP	40	216	3
NMTAP	40	240	2
NMTAP	40	288	2
NMTAP	40	288	3
NMTAP	40	336	1
NMTAP	40	336	4
NMTAP	41	48	0
NMTAP	41	48	7
NMTAP	41	120	4
NMTAP	41	120	6
NMTAP	41	192	1
NMTAP	41	192	3
NMTAP	41	264	3
NMTAP	41	264	4
NMTAP	41	336	1
NMTAP	41	336	7
BRTAP	42	0	2
BRTAP	42	0	6
NMSTR	42	96	0
NMSF_	42	96	0	96	48	4
NMTAP	42	96	4
NMTAP	42	144	0
NMSTR	42	144	4
NMSF_	42	144	4	96	48	0
NMTAP	43	0	1
NMTAP	43	0	7
NMTAP	43	48	1
NMTAP	43	48	7
NMTAP	43	96	2
NMTAP	43	96	6
NMTAP	43	144	3
NMHLD	43	144	5	96
NMTAP	43	240	4
NMTAP	43	288	7
NMTTP	44	0	5	A	0	M1
NMTTP	44	0	6	E	0	M1
NMTTP	44	0	6	A	0	M1
NMTAP	44	96	3
NMSTR	44	96	7
NMSF_	44	96	7	96	48	3
NMSTR	44	144	3
NMSF_	44	144	3	96	48	7
NMTAP	44	144	7
NMTAP	45	0	0
NMTAP	45	0	6
NMTAP	45	48	0
NMTAP	45	48	6
NMTAP	45	96	1
NMTAP	45	96	5
NMHLD	45	144	2	96
NMTAP	45	144	4
NMTAP	45	240	3
NMTAP	45	288	0
NMTTP	46	0	0	A	0	M1
NMTTP	46	0	0	D	0	M1
NMTTP	46	0	7	A	0	M1
NMTAP	46	96	2
NMTAP	46	144	1
NMTAP	46	192	0
NMTAP	46	240	7
NMTAP	46	288	6
NMTAP	46	336	5
NMHLD	47	0	5	72
NMHLD	47	72	6	72
NMTAP	47	144	7
NMHLD	47	192	2	72
NMHLD	47	264	1	72
NMSTR	47	336	0
NMSF_	47	336	0	96	144	4
NMTAP	48	0	0
NMTAP	48	288	3
NMTAP	48	288	5
NMTTP	49	0	1	B	0	M1
NMTTP	49	0	1	A	0	M1
NMTTP	49	0	2	E	0	M1
NMTTP	49	96	6	B	0	M1
NMTTP	49	96	6	E	0	M1
NMTTP	49	96	6	A	0	M1
NMTTP	49	192	0	A	0	M1
NMTTP	49	192	0	D	0	M1
NMTTP	49	192	7	A	0	M1
EXTAP	49	288	3
EXTAP	49	288	4
BRTAP	50	0	0
BRSTR	50	0	7
BRSF_	50	0	7	96	480	3
NMTAP	51	288	2
NMTAP	51	288	4
NMTAP	52	0	0
NMTAP	52	0	1
NMTAP	52	96	2
NMTAP	52	96	3
NMTAP	52	192	4
NMTAP	52	192	5
NMTAP	52	288	6
NMTAP	52	288	7
NMTAP	53	0	0
NMTAP	53	0	1
NMTAP	53	96	2
NMTAP	53	96	3
NMTAP	53	144	2
NMTAP	53	144	3
NMSTR	53	240	1
NMSF_	53	240	1	96	48	5
NMTAP	53	240	4
BRTAP	53	336	1
NMTAP	54	96	4
NMTAP	54	96	5
NMTAP	54	192	2
NMTAP	54	192	3
NMTAP	54	288	0
NMTAP	54	288	1
NMTAP	55	0	6
NMTAP	55	0	7
NMTAP	55	96	4
NMTAP	55	96	5
NMTAP	55	144	4
NMTAP	55	144	5
NMTAP	55	240	3
NMSTR	55	240	6
NMSF_	55	240	6	96	48	2
BRTAP	55	336	6
NMTAP	56	96	2
NMTAP	56	96	3
NMTAP	56	192	4
NMTAP	56	192	5
NMTAP	56	288	6
NMTAP	56	288	7
NMTAP	57	0	0
NMTAP	57	0	1
NMTAP	57	96	2
NMTAP	57	96	4
NMTAP	57	144	2
NMTAP	57	144	4
NMHLD	57	240	5	96
NMTAP	57	336	7
NMHLD	58	0	7	96
NMTAP	58	96	0
NMHLD	58	144	0	96
NMTAP	58	240	2
NMTAP	58	288	2
NMSTR	59	0	3
NMSF_	59	0	3	96	48	7
NMTTP	59	96	3	A	1	M1
NMTTP	59	96	3	D	0	M1
NMTTP	59	96	4	D	0	M1
NMSTR	59	192	4
BRSF_	59	192	4	96	48	0
NMTTP	59	288	4	A	1	M1
NMTTP	59	288	4	D	0	M1
NMTTP	59	288	5	D	0	M1
BXTAP	60	0	1
BXTAP	60	0	7
NMTAP	60	96	6
NMTAP	60	144	5
NMTAP	60	192	4
NMTAP	60	240	3
NMTAP	60	288	2
NMTAP	60	336	1
NMHLD	61	0	1	96
NMTAP	61	96	3
NMHLD	61	144	3	96
NMTAP	61	240	4
NMTAP	61	288	4
EXTAP	62	0	4
EXSTR	62	0	5
NMSF_	62	0	5	96	48	1
EXSTR	62	192	2
NMSF_	62	192	2	96	48	6
EXTAP	62	192	3
EXTAP	63	0	4
EXSTR	63	0	5
NMSF_	63	0	5	96	48	1
EXSTR	63	192	2
NMSF_	63	192	2	96	48	6
EXTAP	63	192	3
EXTAP	64	0	4
EXTAP	64	0	5
BRTAP	64	96	7
NMTAP	64	192	0
NMTAP	64	192	6
NMTAP	64	240	0
NMTAP	64	240	6
NMTAP	64	288	0
NMTAP	64	288	6
NMSTR	65	0	4
BRSF_	65	0	4	96	48	0
NMTAP	65	0	5
EXTAP	65	192	1
EXTAP	65	192	7
EXTAP	65	240	1
EXTAP	65	240	7
EXTAP	65	288	1
EXTAP	65	288	7
NMHLD	66	0	2	288
NMTAP	66	0	4
NMTTP	66	96	5	E	0	M1
NMTTP	66	96	5	A	0	M1
NMTTP	66	96	5	D	0	M1
NMTTP	66	192	6	B	0	M1
NMTTP	66	192	6	E	0	M1
NMTTP	66	192	6	A	0	M1
NMTTP	66	288	0	E	0	M1
NMTTP	66	288	0	D	0	M1
NMTTP	66	288	7	A	0	M1
NMTAP	67	48	4
NMTAP	67	48	6
NMTAP	67	120	1
NMTAP	67	120	3
NMHLD	67	192	0	72
NMHLD	67	192	7	144
EXSTR	68	0	4
NMSF_	68	0	4	96	288	0
NMTTP	69	192	0	A	0	M1
NMTTP	69	192	0	D	0	M1
NMTTP	69	192	1	D	0	M1
NMTAP	69	288	1
NMTAP	69	288	7
NMTAP	70	0	2
NMSTR	70	0	3
NMSF_	70	0	3	96	288	7
NMTTP	71	192	0	D	0	M1
NMTTP	71	192	7	A	0	M1
NMTTP	71	192	7	D	0	M1
NMTAP	71	288	0
NMTAP	71	288	6
NMTAP	72	0	4
NMSTR	72	0	5
NMSF_	72	0	5	96	288	1
NMTTP	73	192	0	A	0	M1
NMTTP	73	192	1	A	0	M1
NMTTP	73	192	1	D	0	M1
NMTAP	73	288	1
NMTAP	73	288	2
NMSTR	74	0	2
NMSF_	74	0	2	96	288	6
NMTAP	74	0	3
NMTAP	75	192	4
NMTAP	75	192	6
NMTAP	75	264	0
NMTAP	75	264	7
NMTAP	75	336	1
NMTAP	75	336	3
BRSTR	76	96	0
NMSF_	76	96	0	96	48	4
BRTAP	76	96	3
BRTAP	76	144	0
BRSTR	76	144	3
NMSF_	76	144	3	96	48	7
NMTAP	77	0	1
NMTAP	77	0	7
NMTAP	77	48	1
NMTAP	77	48	7
NMTAP	77	96	2
NMTAP	77	144	3
NMSTR	77	144	6
NMSF_	77	144	6	96	48	2
NMSTR	77	192	3
NMSF_	77	192	3	96	48	7
NMTAP	77	192	6
BXTAP	78	0	0
BXTAP	78	0	6
NMSTR	78	96	4
NMSF_	78	96	4	96	48	0
NMTAP	78	96	7
NMTAP	78	144	4
NMSTR	78	144	7
NMSF_	78	144	7	96	48	3
NMTAP	79	0	0
NMTAP	79	0	6
NMTAP	79	48	0
NMTAP	79	48	6
NMTAP	79	96	5
NMSTR	79	144	1
NMSF_	79	144	1	96	48	5
NMTAP	79	144	4
NMTAP	79	192	1
NMSTR	79	192	4
NMSF_	79	192	4	96	48	0
BXTAP	80	0	1
BXTAP	80	0	7
NMTAP	80	96	2
NMTAP	80	144	1
NMTAP	80	192	0
NMTAP	80	240	7
NMTAP	80	288	6
NMTAP	80	336	5
NMHLD	81	0	5	72
NMHLD	81	72	6	72
NMTAP	81	144	7
NMHLD	81	192	2	72
NMHLD	81	264	1	72
NMSTR	81	336	0
NMSF_	81	336	0	96	144	4
NMTAP	82	0	0
NMTAP	82	288	3
NMTAP	82	288	5
NMTTP	83	0	1	B	0	M1
NMTTP	83	0	1	A	0	M1
NMTTP	83	0	2	E	0	M1
NMTTP	83	96	6	B	0	M1
NMTTP	83	96	6	E	0	M1
NMTTP	83	96	6	A	0	M1
NMTTP	83	192	0	A	0	M1
NMTTP	83	192	0	D	0	M1
NMTTP	83	192	7	A	0	M1
EXTAP	83	288	3
EXTAP	83	288	4
BRTAP	84	0	0
BRHLD	84	0	7	288
NMTAP	85	48	6
NMTAP	85	72	4
NMTAP	85	120	1
NMTAP	85	144	3
NMTAP	85	192	3
NMTAP	85	192	4
BRSTR	85	288	0
NMSF_	85	288	0	96	576	4
NMSF_	85	288	0	96	576	4
BRTAP	85	288	7

T_REC_TAP	280
T_REC_BRK	15
T_REC_XTP	16
T_REC_BXX	6
T_REC_HLD	32
T_REC_XHO	0
T_REC_BHO	1
T_REC_BXH	0
T_REC_STR	33
T_REC_BST	4
T_REC_XST	5
T_REC_XBS	0
T_REC_TTP	131
T_REC_THO	1
T_REC_SLD	36
T_REC_BSL	7
T_REC_ALL	567
T_NUM_TAP	465
T_NUM_BRK	33
T_NUM_HLD	33
T_NUM_SLD	36
T_NUM_ALL	567
T_JUDGE_TAP	490
T_JUDGE_HLD	112
T_JUDGE_SLD	43
T_JUDGE_ALL	645
TTM_EACHPAIRS	147
TTM_SCR_TAP	232500
TTM_SCR_BRK	85800
TTM_SCR_HLD	33000
TTM_SCR_SLD	54000
TTM_SCR_ALL	405300
TTM_SCR_S	389950
TTM_SCR_SS	402000
TTM_RAT_ACV	10082

