VERSION	0.00.00	1.03.00
FES_MODE	0
BPM_DEF	135.000	135.000	135.000	135.000
MET_DEF	4	4
RESOLUTION	384
CLK_DEF	384
COMPATIBLE_CODE	MA2

BPM	0	0	135.000
MET	0	0	4	4
CLK	0	0
CLK	0	96
CLK	0	192
CLK	0	288

XST	2	0	3
SXL	2	0	3	96	96	5
SXR	2	0	3	96	96	1
HLD	3	0	4	288
TAP	3	192	5
TAP	3	288	6
STR	4	0	4
SXL	4	0	4	96	96	6
SXR	4	0	4	96	96	2
TAP	4	0	7
HLD	5	0	3	288
TAP	5	192	2
TAP	5	288	1
TAP	6	0	0
STR	6	0	3
SXL	6	0	3	96	96	5
SXR	6	0	3	96	96	1
TTP	7	0	0	C	0	M1
TTP	7	0	6	B	0	M1
TTP	7	0	7	B	0	M1
TTP	7	192	0	B	0	M1
TTP	7	192	0	C	0	M1
TTP	7	192	1	B	0	M1
THO	8	0	0	288	C	0	M1
TTP	8	0	2	E	0	M1
TTP	8	0	6	E	0	M1
HLD	9	0	0	192
HLD	9	0	7	192
TAP	9	288	2
TAP	9	288	5
XHO	10	0	0	288
XST	10	0	3
SCL	10	0	3	96	192	4
TAP	11	0	0
TAP	11	0	7
TAP	11	96	1
TAP	11	96	6
TAP	11	192	5
TAP	11	240	2
TAP	11	288	3
TAP	11	288	4
TAP	12	0	4
TAP	12	0	5
HLD	12	96	2	192
TAP	12	96	3
TAP	12	192	1
TAP	12	240	1
TAP	12	288	1
TAP	13	0	2
TAP	13	0	3
TAP	13	96	3
TAP	13	96	4
TTP	13	192	6	B	0	M1
TTP	13	192	7	E	0	M1
TTP	13	192	7	B	0	M1
TTP	13	264	0	B	0	M1
TTP	13	264	1	E	0	M1
TTP	13	264	1	B	0	M1
TAP	13	336	3
TAP	13	336	4
TAP	14	0	3
STR	14	0	4
SI_	14	0	4	96	48	0
XTP	14	96	4
XTP	14	96	5
TAP	14	192	1
TAP	14	240	2
TAP	14	288	3
TAP	14	336	4
TAP	15	0	5
TAP	15	0	6
TAP	15	96	1
TAP	15	96	2
HLD	15	192	4	72
HLD	15	264	5	72
TAP	15	336	6
BRK	16	0	1
BRK	16	0	6
TAP	16	72	2
TAP	16	72	5
TAP	16	144	3
TAP	16	144	4
XTP	16	192	0
XTP	16	192	4
XTP	16	264	2
XTP	16	264	6
BST	16	336	0
SXL	16	336	0	96	144	3
BST	16	336	4
SXL	16	336	4	96	144	7
TAP	17	288	1
TAP	17	288	6
TAP	18	0	3
TAP	18	48	3
TAP	18	96	4
TAP	18	144	4
HLD	18	192	2	288
TAP	18	192	5
TAP	18	288	3
TAP	18	336	3
TAP	19	48	1
TAP	19	96	1
TAP	19	192	0
HLD	19	192	4	96
TAP	19	240	1
TAP	19	288	2
TAP	19	336	3
TAP	20	0	4
TAP	20	48	4
TAP	20	96	3
TAP	20	144	3
TAP	20	192	2
HLD	20	192	5	288
TAP	20	288	4
TAP	20	336	4
TAP	21	48	6
TAP	21	96	6
TAP	21	192	2
TAP	21	192	5
TAP	21	288	2
TAP	21	288	3
HLD	21	336	2	192
TAP	21	336	3
TTP	22	96	1	B	0	M1
TTP	22	144	2	B	0	M1
TAP	22	288	4
TAP	22	288	5
TAP	22	336	4
HLD	22	336	5	192
TTP	23	96	6	B	0	M1
TTP	23	144	5	B	0	M1
TAP	23	288	3
TAP	23	288	4
BRK	23	336	1
BRK	23	336	6
TAP	24	48	0
STR	24	96	0
SCR	24	96	0	96	96	3
STR	24	192	3
SCR	24	192	3	96	96	6
STR	24	288	6
SCR	24	288	6	96	96	1
STR	25	144	7
SSR	25	144	7	96	96	3
TAP	25	192	7
XTP	26	0	0
TAP	26	48	1
TAP	26	96	2
TAP	26	144	3
TAP	26	192	3
HLD	26	192	4	288
TAP	26	288	7
TAP	26	336	7
TAP	27	48	3
STR	27	96	3
SXL	27	96	3	96	96	5
SXR	27	96	3	96	96	1
TAP	28	0	7
TAP	28	48	6
TAP	28	96	5
TAP	28	144	4
HLD	28	192	3	384
TAP	28	192	4
TAP	28	288	0
TAP	28	336	0
TAP	29	48	4
TAP	29	96	5
TAP	29	144	6
TAP	29	192	7
TAP	29	288	0
TAP	29	288	1
TAP	29	336	0
HLD	29	336	1	192
TTP	30	96	0	C	0	M1
TTP	30	144	4	E	0	M1
TAP	30	288	6
TAP	30	288	7
HLD	30	336	6	192
TAP	30	336	7
TTP	31	96	0	C	0	M1
TTP	31	144	4	E	0	M1
TAP	31	288	2
TAP	31	288	3
TAP	31	336	1
HLD	31	336	4	144
TAP	32	48	3
TAP	32	96	3
TAP	32	192	2
TAP	32	192	5
STR	32	288	3
SXR	32	288	3	96	288	0
STR	32	288	4
SXL	32	288	4	96	288	7
TAP	32	336	3
TAP	32	336	4
TAP	34	0	3
HLD	34	0	4	288
TTP	34	96	6	B	0	M1
TTP	34	96	7	E	0	M1
TTP	34	192	0	E	0	M1
TTP	34	192	0	B	0	M1
TTP	34	192	7	B	0	M1
TTP	34	288	1	B	0	M1
TTP	34	288	1	E	0	M1
STR	35	0	5
SLL	35	0	5	96	96	7
TAP	35	96	2
TAP	35	144	1
TAP	35	192	0
TAP	35	288	4
TAP	35	336	3
STR	36	0	2
SI_	36	0	2	96	96	0
STR	36	96	0
SI_	36	96	0	96	96	5
STR	36	192	5
SI_	36	192	5	96	96	2
TAP	36	288	2
TAP	37	0	7
TAP	37	96	0
TAP	37	144	0
TAP	37	192	1
TAP	37	192	6
TAP	37	288	3
TAP	37	336	4
HLD	38	0	1	336
TAP	38	0	5
TAP	38	96	3
TAP	38	144	3
TAP	38	192	4
TAP	38	240	4
TAP	38	288	5
STR	38	336	5
SI_	38	336	5	96	48	7
STR	39	48	2
SI_	39	48	2	96	48	7
STR	39	144	4
SI_	39	144	4	96	48	7
STR	39	240	0
SCR	39	240	0	96	384	6
TAP	39	288	0
THO	39	336	0	384	C	1	M1
TAP	41	48	7
TAP	41	120	2
TAP	41	120	5
TTP	41	192	0	C	0	M1
BST	42	0	3
SCL	42	0	3	96	48	1
BRK	42	0	7
STR	42	96	5
SCR	42	96	5	96	48	7
TAP	42	144	5
STR	42	192	2
SCL	42	192	2	96	48	0
TAP	42	240	2
HLD	42	288	4	384
TTP	43	0	6	B	0	M1
TTP	43	0	7	B	0	M1
TTP	43	96	0	B	0	M1
TTP	43	96	1	B	0	M1
TAP	43	192	3
TAP	43	240	3
STR	43	288	3
SI_	43	288	3	96	48	0
STR	44	0	7
SCL	44	0	7	96	48	5
STR	44	96	0
SCR	44	96	0	96	48	2
TAP	44	144	0
STR	44	192	6
SCL	44	192	6	96	48	4
TAP	44	240	6
HLD	44	288	3	384
TTP	45	0	0	B	0	M1
TTP	45	0	1	B	0	M1
TTP	45	96	6	B	0	M1
TTP	45	96	7	B	0	M1
TAP	45	192	4
TAP	45	240	4
STR	45	288	4
SI_	45	288	4	96	48	7
HLD	46	0	2	288
TAP	46	96	7
TAP	46	144	6
TAP	46	192	5
TAP	46	240	4
TAP	46	288	3
TAP	46	336	2
HLD	47	0	1	72
HLD	47	72	2	72
TAP	47	144	3
HLD	47	192	6	72
HLD	47	264	5	72
TAP	47	336	4
STR	48	0	3
SCL	48	0	3	96	96	0
STR	48	0	4
SCR	48	0	4	96	96	7
STR	48	288	3
SCL	48	288	3	96	48	0
TAP	48	288	4
STR	49	0	4
SCR	49	0	4	96	48	7
STR	49	96	3
SI_	49	96	3	96	48	0
HLD	49	192	4	768
TTP	50	0	7	E	0	M1
TTP	50	96	1	E	0	M1
TTP	50	192	6	E	0	M1
TTP	50	288	2	E	0	M1
TTP	51	0	0	B	0	M1
TTP	51	0	7	B	0	M1
TTP	51	96	0	C	0	M1
TTP	51	192	3	B	0	M1
TTP	51	192	4	B	0	M1
TTP	51	288	0	C	0	M1
TTP	51	288	2	B	0	M1
TTP	51	288	5	B	0	M1
XHO	52	0	1	384
TAP	52	96	4
TAP	52	192	3
TAP	52	288	2
TAP	53	0	0
TAP	53	96	4
HLD	53	144	3	96
TAP	53	240	4
XTP	53	336	1
XHO	53	336	6	432
TTP	54	96	6	B	0	M1
TTP	54	96	7	B	0	M1
TTP	54	192	4	B	0	M1
TTP	54	192	5	B	0	M1
TTP	54	288	2	B	0	M1
TTP	54	288	3	B	0	M1
TTP	55	0	0	B	0	M1
TTP	55	0	1	B	0	M1
TAP	55	96	4
TAP	55	96	5
TAP	55	144	3
TAP	55	144	6
TAP	55	240	1
TAP	55	240	4
XST	55	336	6
SCL	55	336	6	96	48	3
TTP	56	96	0	C	0	M1
STR	56	192	0
SCR	56	192	0	96	48	3
TTP	56	288	0	C	0	M1
STR	57	0	5
SI_	57	0	5	96	96	7
STR	57	96	7
SI_	57	96	7	96	96	2
STR	57	192	2
SI_	57	192	2	96	96	5
TAP	57	288	5
TAP	58	0	0
TAP	58	96	1
TAP	58	96	6
HLD	58	144	1	144
HLD	58	144	6	144
TTP	59	0	4	E	0	M1
TTP	59	96	2	E	0	M1
TTP	59	96	6	E	0	M1
TTP	59	192	0	E	0	M1
TTP	59	192	4	E	0	M1
TTP	59	288	0	C	0	M1
TTP	59	288	2	B	0	M1
TTP	59	288	5	B	0	M1
XTP	60	0	0
XTP	60	0	7
TAP	60	96	2
STR	60	96	4
SI_	60	96	4	96	48	6
TAP	60	144	1
TAP	60	192	0
STR	60	288	3
SI_	60	288	3	96	48	1
TAP	60	288	5
TAP	60	336	6
TAP	61	0	7
TAP	61	96	2
TAP	61	96	4
TAP	61	144	2
HLD	61	144	4	96
HLD	61	240	3	96
TAP	61	336	4
STR	62	0	4
SCL	62	0	4	96	48	0
SUL	62	0	4	96	48	0
STR	62	192	3
SCR	62	192	3	96	48	7
SUR	62	192	3	96	48	7
STR	63	0	4
SCL	63	0	4	96	48	1
TAP	63	96	0
TAP	63	144	7
TAP	63	192	6
TAP	63	240	4
TAP	63	240	5
TAP	64	0	2
HLD	64	0	4	96
TAP	64	48	1
HLD	64	96	0	192
TTP	64	192	4	E	0	M1
TTP	64	240	0	C	0	M1
TTP	64	288	0	E	0	M1
TAP	65	0	3
HLD	65	0	6	192
TAP	65	48	4
STR	65	96	5
SI_	65	96	5	96	48	1
TAP	65	288	0
TAP	65	288	7
STR	65	336	1
SLR	65	336	1	96	288	0
TAP	65	336	6
THO	66	96	0	240	C	1	M1
TAP	67	48	0
TAP	67	48	1
TAP	67	120	4
TAP	67	120	5
TTP	67	192	0	C	0	M1
XST	68	0	3
SI_	68	0	3	96	192	0
XHO	68	0	4	384
STR	69	0	3
SCL	69	0	3	96	192	0
SCR	69	0	3	96	192	6
STR	70	0	3
SI_	70	0	3	96	192	0
HLD	70	0	4	384
STR	71	0	3
SXL	71	0	3	96	192	3
SXR	71	0	3	96	192	3
STR	72	0	3
SI_	72	0	3	96	192	0
HLD	72	0	4	384
STR	73	0	3
SXL	73	0	3	96	192	4
SXR	73	0	3	96	192	2
TTP	74	0	0	C	0	M1
STR	74	192	3
SLR	74	192	3	96	96	0
HLD	74	192	4	192
TAP	75	192	5
TAP	75	192	6
TAP	75	264	1
TAP	75	264	2
STR	75	336	1
SLR	75	336	1	96	48	7
STR	75	336	6
SLL	75	336	6	96	48	0
TTP	76	84	0	C	1	M1
TAP	76	192	1
TAP	76	192	6
TAP	76	240	2
TAP	76	240	5
TAP	76	288	3
HLD	76	288	4	384
TTP	77	0	0	B	0	M1
TTP	77	0	7	B	0	M1
TTP	77	96	1	B	0	M1
TTP	77	96	2	B	0	M1
TAP	77	192	3
TAP	77	240	3
STR	77	288	3
SI_	77	288	3	96	48	0
STR	78	0	7
SCL	78	0	7	96	48	5
STR	78	96	0
SCR	78	96	0	96	48	2
TAP	78	144	0
STR	78	192	6
SCL	78	192	6	96	48	4
TAP	78	240	6
HLD	78	288	3	384
TTP	79	0	1	B	0	M1
TTP	79	0	2	B	0	M1
TTP	79	96	5	B	0	M1
TTP	79	96	6	B	0	M1
TAP	79	192	4
TAP	79	240	4
STR	79	288	4
SI_	79	288	4	96	48	7
HLD	80	0	2	288
TAP	80	96	7
TAP	80	144	6
TAP	80	192	5
TAP	80	240	4
TAP	80	288	3
TAP	80	336	2
HLD	81	0	1	72
HLD	81	72	2	72
TAP	81	144	3
HLD	81	192	6	72
HLD	81	264	5	72
TAP	81	336	4
STR	82	0	3
SCL	82	0	3	96	96	0
STR	82	0	4
SCR	82	0	4	96	96	7
STR	82	288	3
SCL	82	288	3	96	48	0
TAP	82	288	4
STR	83	0	4
SCR	83	0	4	96	48	7
STR	83	96	3
SI_	83	96	3	96	48	0
HLD	83	192	4	768
TTP	84	0	7	E	0	M1
TTP	84	96	1	E	0	M1
TTP	84	192	6	E	0	M1
TTP	84	288	2	E	0	M1
TTP	85	0	5	E	0	M1
TTP	85	96	3	E	0	M1
TTP	85	192	4	E	0	M1
TTP	85	288	0	C	0	M1
TTP	85	288	2	B	0	M1
TTP	85	288	5	B	0	M1
TAP	86	0	1
TAP	86	0	6

T_REC_TAP	220
T_REC_BRK	5
T_REC_XTP	10
T_REC_HLD	46
T_REC_XHO	4
T_REC_STR	59
T_REC_BST	3
T_REC_XST	4
T_REC_TTP	92
T_REC_THO	3
T_REC_SLD	75
T_REC_ALL	521
T_NUM_TAP	385
T_NUM_BRK	8
T_NUM_HLD	53
T_NUM_SLD	75
T_NUM_ALL	521
T_JUDGE_TAP	393
T_JUDGE_HLD	272
T_JUDGE_SLD	75
T_JUDGE_ALL	740
TTM_EACHPAIRS	83
TTM_SCR_TAP	192500
TTM_SCR_BRK	20800
TTM_SCR_HLD	53000
TTM_SCR_SLD	112500
TTM_SCR_ALL	378800
TTM_SCR_S	366700
TTM_SCR_SS	378000
TTM_RAT_ACV	10021

