VERSION	0.00.00	1.03.00
FES_MODE	0
BPM_DEF	135.000	135.000	135.000	135.000
MET_DEF	4	4
RESOLUTION	384
CLK_DEF	384
COMPATIBLE_CODE	MA2

BPM	0	0	135.000
MET	0	0	4	4

STR	2	0	1
SCR	2	0	1	96	192	5
HLD	3	0	6	288
TAP	3	288	4
STR	4	0	6
SCL	4	0	6	96	192	2
HLD	5	0	1	288
TAP	5	288	3
TAP	6	0	1
TAP	6	96	2
TAP	6	96	4
TAP	6	288	2
TAP	6	288	4
TAP	7	96	3
TAP	7	96	5
TAP	7	288	3
TAP	7	288	5
STR	8	0	3
SCL	8	0	3	96	144	0
STR	8	0	4
SCR	8	0	4	96	144	7
THO	9	0	0	192	C	1	M1
TAP	10	0	0
TAP	10	96	1
TAP	10	96	7
TAP	10	192	2
TAP	10	288	2
TAP	10	288	3
TAP	11	0	4
TAP	11	96	3
TAP	11	96	5
TAP	11	192	6
TAP	11	288	6
TAP	11	288	7
TAP	12	0	1
TAP	12	96	0
TAP	12	96	1
TAP	12	192	6
TAP	12	288	6
TAP	12	288	7
HLD	13	0	1	96
HLD	13	0	6	96
XTP	13	192	3
XTP	13	192	4
XTP	13	264	3
XTP	13	264	4
XTP	13	336	2
XTP	13	336	5
BRK	14	96	0
BRK	14	96	7
TAP	14	192	6
TAP	14	288	4
TAP	14	288	5
TAP	15	0	3
TAP	15	96	2
TAP	15	96	4
TAP	15	192	5
TAP	15	288	3
TAP	15	288	6
XTP	16	0	2
XTP	16	0	3
XTP	16	72	2
XTP	16	72	3
XTP	16	144	3
XTP	16	144	4
XTP	16	192	4
XTP	16	192	5
XTP	16	264	4
XTP	16	264	5
XST	16	336	3
SCL	16	336	3	96	144	0
XST	16	336	4
SCR	16	336	4	96	144	7
BRK	17	288	1
BRK	17	288	6
HLD	18	0	2	288
TAP	18	96	3
TAP	18	288	3
TTP	19	0	1	B	0	M1
TTP	19	0	4	B	0	M1
TTP	19	96	0	B	0	M1
TTP	19	96	5	B	0	M1
TTP	19	192	0	E	0	M1
TTP	19	192	6	E	0	M1
HLD	20	0	5	288
TAP	20	96	4
TAP	20	288	4
TTP	21	0	3	B	0	M1
TTP	21	0	6	B	0	M1
TTP	21	96	2	B	0	M1
TTP	21	96	7	B	0	M1
TTP	21	192	0	E	0	M1
TTP	21	192	2	E	0	M1
TTP	21	288	0	B	0	M1
TTP	21	288	1	B	0	M1
TTP	22	96	0	E	0	M1
TTP	22	288	6	B	0	M1
TTP	22	288	7	B	0	M1
TTP	23	96	0	C	0	M1
XTP	23	288	0
XST	23	288	7
SXR	23	288	7	96	216	3
XTP	23	336	0
XTP	23	336	7
TAP	24	288	1
TAP	24	288	6
STR	24	336	1
SCR	24	336	1	96	144	6
TAP	24	336	6
BRK	25	288	0
BRK	25	288	7
TAP	26	0	1
TAP	26	96	1
TAP	26	96	3
TAP	26	192	1
TAP	26	288	1
TAP	26	288	3
TAP	27	0	1
TAP	27	96	0
STR	27	96	1
SCL	27	96	1	96	144	5
TAP	28	0	6
TAP	28	96	4
TAP	28	96	6
TAP	28	192	6
TAP	28	288	4
TAP	28	288	6
TAP	29	0	6
TAP	29	96	6
TAP	29	96	7
TAP	29	192	0
TAP	29	192	7
TAP	29	288	1
HLD	29	336	1	192
TAP	30	96	3
HLD	30	144	3	144
TAP	30	288	4
HLD	30	336	4	192
TAP	31	96	6
HLD	31	144	6	144
TAP	31	288	7
TAP	32	0	0
TAP	32	0	7
TAP	32	96	1
TAP	32	96	6
TAP	32	192	2
TAP	32	192	5
TAP	32	288	3
STR	32	288	4
SCR	32	288	4	96	288	3
TAP	32	336	3
TAP	32	336	4
STR	34	0	0
SXL	34	0	0	96	144	0
TAP	34	0	7
HLD	35	0	6	96
HLD	35	0	7	96
TAP	35	144	6
TAP	35	144	7
TAP	35	240	6
TAP	35	240	7
TAP	35	336	4
STR	35	336	5
SXR	35	336	5	96	168	7
HLD	37	0	0	96
HLD	37	0	1	96
TAP	37	144	0
TAP	37	144	1
TAP	37	240	0
TAP	37	240	1
TAP	37	336	2
TAP	37	336	3
TAP	38	0	2
TAP	38	0	3
TAP	38	96	1
TAP	38	192	0
TAP	38	288	7
TAP	39	0	6
TAP	39	96	5
TAP	39	192	4
STR	39	288	3
SCL	39	288	3	96	264	4
XTP	39	336	3
XTP	41	48	0
XTP	41	48	7
XTP	41	120	0
XTP	41	120	7
XTP	41	192	4
XTP	41	192	5
XTP	41	264	2
XTP	41	264	3
XTP	41	336	3
XTP	41	336	4
BRK	42	0	1
BRK	42	0	6
TAP	42	96	0
TAP	42	96	7
TAP	42	144	0
TAP	42	192	6
TAP	42	240	6
HLD	42	288	2	96
TAP	43	0	3
TAP	43	48	3
TAP	43	96	0
HLD	43	144	0	96
STR	43	240	1
SUL	43	240	1	96	72	5
TAP	44	96	4
TAP	44	144	4
TAP	44	192	2
TAP	44	240	2
HLD	44	288	7	96
TAP	45	0	0
TAP	45	48	0
TAP	45	96	4
HLD	45	144	4	96
STR	45	240	5
SI_	45	240	5	96	72	0
TAP	46	96	1
TAP	46	96	7
TAP	46	192	5
TAP	46	240	5
TAP	46	288	4
TAP	46	288	6
HLD	47	0	1	72
HLD	47	72	2	72
XTP	47	144	3
HLD	47	192	4	72
HLD	47	264	5	72
XST	47	336	6
SCR	47	336	6	96	240	5
XTP	48	0	6
BRK	49	0	1
BST	49	0	6
SI_	49	0	6	96	192	2
STR	49	288	0
SSL	49	288	0	96	576	4
HLD	52	0	4	336
HLD	52	0	6	480
TAP	53	0	4
XTP	53	144	4
XTP	53	144	6
XTP	53	240	3
XTP	53	240	4
HLD	53	336	1	528
HLD	53	336	3	384
TAP	55	0	3
XTP	55	144	1
XTP	55	144	3
XTP	55	240	3
XTP	55	240	4
HLD	55	336	2	240
TAP	55	336	5
HLD	56	192	3	192
HLD	57	0	4	192
HLD	57	192	5	192
HLD	58	0	7	192
HLD	58	192	0	192
XTP	59	0	2
XTP	59	96	3
XTP	59	96	4
XTP	59	192	5
XTP	59	288	1
XTP	59	288	6
TAP	60	0	2
TAP	60	96	2
TAP	60	96	4
TAP	60	192	2
TAP	60	288	2
TAP	60	288	3
TAP	61	0	2
TAP	61	96	2
TAP	61	96	4
TAP	61	192	2
TAP	61	288	3
TAP	61	288	4
TAP	62	0	5
TAP	62	96	3
TAP	62	96	5
TAP	62	192	5
TAP	62	288	4
TAP	62	288	5
TAP	63	0	5
TAP	63	96	3
TAP	63	96	5
TAP	63	192	6
TAP	63	288	0
TAP	63	288	7
HLD	64	0	1	96
TAP	64	48	0
TAP	64	96	0
HLD	64	192	1	96
TAP	64	240	3
TAP	64	288	3
HLD	65	0	6	96
TAP	65	48	7
TAP	65	96	7
HLD	65	192	6	96
TAP	65	240	4
STR	65	288	4
SSL	65	288	4	96	336	0
XTP	67	48	2
XTP	67	48	5
XTP	67	120	2
XTP	67	120	5
BRK	67	192	0
BRK	67	264	7
BRK	67	336	0
TTP	68	192	1	B	0	M1
TTP	69	0	2	B	0	M1
TTP	69	192	3	B	0	M1
TTP	70	0	4	B	0	M1
TTP	70	192	5	B	0	M1
TTP	71	0	6	B	0	M1
TTP	71	192	7	B	0	M1
THO	72	0	0	1152	C	0	M1
TTP	72	192	0	E	0	M1
TTP	73	0	7	E	0	M1
TTP	73	192	1	E	0	M1
TTP	74	0	7	B	0	M1
TTP	74	192	0	B	0	M1
XTP	75	192	6
XTP	75	192	7
XTP	75	264	0
XTP	75	264	1
HLD	75	336	2	48
HLD	75	336	5	48
BRK	76	96	0
BRK	76	96	7
TAP	76	192	1
TAP	76	240	1
HLD	76	288	5	96
TAP	77	0	4
TAP	77	48	4
TAP	77	96	7
HLD	77	144	7	96
STR	77	240	6
SUR	77	240	6	96	72	2
TAP	78	96	3
TAP	78	144	3
TAP	78	192	5
TAP	78	240	5
HLD	78	288	0	96
TAP	79	0	7
TAP	79	48	7
TAP	79	96	3
HLD	79	144	3	96
STR	79	240	2
SI_	79	240	2	96	72	7
TAP	80	96	0
TAP	80	96	6
TAP	80	192	2
TAP	80	240	2
TAP	80	288	1
TAP	80	288	3
HLD	81	0	6	72
HLD	81	72	5	72
XTP	81	144	4
HLD	81	192	3	72
HLD	81	264	2	72
XST	81	336	1
SCL	81	336	1	96	240	2
XTP	82	0	1
BRK	83	0	1
BST	83	0	6
SI_	83	0	6	96	192	2
STR	83	288	0
SSL	83	288	0	96	576	4
BRK	86	0	2
BRK	86	0	5

T_REC_TAP	171
T_REC_BRK	17
T_REC_XTP	56
T_REC_HLD	46
T_REC_XHO	0
T_REC_STR	17
T_REC_BST	2
T_REC_XST	5
T_REC_TTP	30
T_REC_THO	2
T_REC_SLD	24
T_REC_ALL	370
T_NUM_TAP	279
T_NUM_BRK	19
T_NUM_HLD	48
T_NUM_SLD	24
T_NUM_ALL	370
T_JUDGE_TAP	298
T_JUDGE_HLD	181
T_JUDGE_SLD	24
T_JUDGE_ALL	503
TTM_EACHPAIRS	90
TTM_SCR_TAP	139500
TTM_SCR_BRK	49400
TTM_SCR_HLD	48000
TTM_SCR_SLD	36000
TTM_SCR_ALL	272900
TTM_SCR_S	262900
TTM_SCR_SS	271000
TTM_RAT_ACV	10070

