VERSION	0.00.00	1.03.00
FES_MODE	0
BPM_DEF	135.000	135.000	135.000	135.000
MET_DEF	4	4
RESOLUTION	384
CLK_DEF	384
COMPATIBLE_CODE	MA2

BPM	0	0	135.000
MET	0	0	4	4

XHO	2	0	5	384
HLD	3	0	4	384
HLD	4	0	3	384
TAP	5	0	2
XTP	5	192	2
XTP	5	192	3
HLD	6	0	2	384
HLD	7	0	3	384
HLD	8	0	4	384
TAP	9	0	5
XTP	9	192	4
XTP	9	192	6
TAP	10	0	5
TAP	10	96	6
TAP	10	192	7
TAP	10	288	0
TAP	10	288	1
TAP	11	0	2
TAP	11	96	1
TAP	11	192	0
TAP	11	288	6
TAP	11	288	7
TAP	12	0	6
TAP	12	96	6
TAP	12	192	7
TAP	12	288	7
TAP	13	0	0
TAP	13	0	7
TAP	13	96	0
TAP	13	96	7
XTP	13	192	1
XTP	13	192	6
TAP	14	0	2
TAP	14	96	1
TAP	14	192	0
TAP	14	288	6
TAP	14	288	7
TAP	15	0	5
TAP	15	96	6
TAP	15	192	7
TAP	15	288	0
TAP	15	288	1
TAP	16	0	1
TAP	16	96	1
TAP	16	192	0
TAP	16	288	0
TAP	17	0	0
TAP	17	0	7
TAP	17	96	0
TAP	17	96	7
XTP	17	192	1
XTP	17	192	6
HLD	18	0	5	192
TAP	18	192	4
TAP	18	288	3
HLD	19	0	2	192
TAP	19	192	3
TAP	19	288	3
HLD	20	0	4	192
TAP	20	192	3
TAP	20	288	4
TAP	21	0	5
TAP	21	96	5
XTP	21	192	4
XTP	21	192	5
HLD	22	0	5	192
TAP	22	192	4
HLD	23	0	2	192
TAP	23	192	3
HLD	24	0	5	192
TAP	24	192	4
TAP	24	288	3
TAP	25	0	3
TAP	25	0	4
TAP	25	96	2
TAP	25	96	5
XTP	25	192	1
XTP	25	192	6
HLD	26	0	2	192
TAP	26	192	3
TAP	26	288	4
HLD	27	0	5	192
TAP	27	192	4
TAP	27	288	4
HLD	28	0	3	192
TAP	28	192	4
TAP	28	288	3
TAP	29	0	2
TAP	29	96	2
XTP	29	192	2
XTP	29	192	3
HLD	30	0	2	192
TAP	30	192	3
HLD	31	0	5	192
TAP	31	192	4
TAP	32	0	2
TAP	32	96	2
TAP	32	192	1
TAP	32	288	1
TAP	33	0	0
TAP	33	0	7
TAP	33	96	1
TAP	33	96	6
XTP	33	192	2
XTP	33	192	5
TTP	34	0	2	B	0	L1
TTP	34	192	4	B	0	L1
TTP	35	0	6	B	0	L1
TTP	36	0	5	B	0	L1
TTP	36	192	3	B	0	L1
TTP	37	0	1	B	0	L1
TTP	38	0	2	B	0	L1
TTP	38	192	3	B	0	L1
TTP	38	192	4	B	0	L1
TTP	39	0	2	B	0	L1
TTP	39	0	5	B	0	L1
TTP	39	192	1	B	0	L1
TTP	39	192	6	B	0	L1
THO	40	0	0	336	C	1	L1
XTP	42	0	1
XTP	42	96	0
XTP	42	96	1
TAP	42	192	7
TAP	42	288	0
TAP	42	288	1
TAP	43	0	2
TAP	43	96	2
TAP	43	96	3
XTP	43	192	1
XTP	43	192	4
TAP	44	0	6
TAP	44	96	6
TAP	44	96	7
TAP	44	192	0
TAP	44	288	6
TAP	44	288	7
TAP	45	0	5
TAP	45	96	4
TAP	45	96	5
XTP	45	192	3
XTP	45	192	6
HLD	46	0	2	192
TAP	46	96	3
TAP	46	192	4
TAP	46	288	3
TAP	46	288	5
HLD	47	0	6	96
TAP	47	96	7
BRK	47	192	0
BRK	47	192	6
TAP	48	0	6
TAP	48	96	6
TAP	48	192	7
TAP	48	288	7
TAP	49	0	0
TAP	49	96	0
TAP	49	192	0
TAP	49	192	7
TAP	49	288	0
TAP	49	288	7
XHO	50	0	1	576
XHO	50	0	6	384
STR	52	0	1
SCR	52	0	1	96	144	4
STR	53	0	5
SV_	53	0	5	96	144	2
STR	54	0	1
SI_	54	0	1	96	144	5
TAP	55	0	6
TAP	55	96	6
XTP	55	192	0
XTP	55	192	7
STR	56	0	6
SCL	56	0	6	96	144	3
STR	57	0	2
SV_	57	0	2	96	144	5
STR	58	0	6
SI_	58	0	6	96	144	2
TAP	59	0	1
TAP	59	96	1
XTP	59	192	0
XTP	59	192	7
STR	60	0	6
SI_	60	0	6	96	144	4
STR	60	0	7
SI_	60	0	7	96	144	3
STR	61	0	0
SI_	61	0	0	96	144	4
STR	61	0	1
SI_	61	0	1	96	144	3
STR	62	0	1
SI_	62	0	1	96	144	4
STR	62	0	6
SI_	62	0	6	96	144	3
TAP	63	0	2
TAP	63	96	2
XTP	63	192	3
XTP	63	192	4
STR	64	0	2
SI_	64	0	2	96	144	0
STR	64	0	3
SI_	64	0	3	96	144	7
STR	65	0	4
SI_	65	0	4	96	144	0
STR	65	0	5
SI_	65	0	5	96	144	7
STR	66	0	3
SXR	66	0	3	96	432	0
STR	66	0	4
SXL	66	0	4	96	432	7
TTP	68	0	2	B	0	L1
TTP	68	192	4	B	0	L1
TTP	69	0	3	B	0	L1
TTP	70	0	5	B	0	L1
TTP	70	192	3	B	0	L1
TTP	71	0	4	B	0	L1
TTP	72	0	2	B	0	L1
TTP	72	192	4	B	0	L1
TTP	73	0	3	B	0	L1
TTP	73	192	5	B	0	L1
TTP	74	0	3	B	0	L1
TTP	74	0	4	B	0	L1
TTP	74	192	2	B	0	L1
TTP	74	192	5	B	0	L1
THO	75	0	0	192	C	1	L1
TAP	76	96	0
TAP	76	96	1
TAP	76	192	7
TAP	76	288	6
TAP	76	288	7
TAP	77	0	5
TAP	77	96	4
TAP	77	96	5
XTP	77	192	3
XTP	77	192	6
TAP	78	0	5
TAP	78	96	6
TAP	78	96	7
TAP	78	192	0
TAP	78	288	0
TAP	78	288	1
TAP	79	0	2
TAP	79	96	2
TAP	79	96	3
XTP	79	192	1
XTP	79	192	4
HLD	80	0	5	192
TAP	80	96	4
TAP	80	192	3
TAP	80	288	2
TAP	80	288	3
HLD	81	0	1	96
TAP	81	96	0
BRK	81	192	2
BRK	81	192	7
TAP	82	0	1
TAP	82	96	2
TAP	82	192	3
TAP	82	288	4
TAP	83	0	5
TAP	83	96	6
TAP	83	192	7
XTP	83	288	0
XTP	83	288	7
XHO	84	0	1	576
XHO	84	0	6	768

T_REC_TAP	137
T_REC_BRK	4
T_REC_XTP	35
T_REC_HLD	20
T_REC_XHO	5
T_REC_STR	18
T_REC_BST	0
T_REC_XST	0
T_REC_TTP	27
T_REC_THO	2
T_REC_SLD	18
T_REC_ALL	266
T_NUM_TAP	217
T_NUM_BRK	4
T_NUM_HLD	27
T_NUM_SLD	18
T_NUM_ALL	266
T_JUDGE_TAP	221
T_JUDGE_HLD	163
T_JUDGE_SLD	18
T_JUDGE_ALL	402
TTM_EACHPAIRS	54
TTM_SCR_TAP	108500
TTM_SCR_BRK	10400
TTM_SCR_HLD	27000
TTM_SCR_SLD	27000
TTM_SCR_ALL	172900
TTM_SCR_S	167350
TTM_SCR_SS	172500
TTM_RAT_ACV	10023

