VERSION	0.00.00	1.03.00
FES_MODE	0
BPM_DEF	135.000	135.000	135.000	135.000
MET_DEF	4	4
RESOLUTION	384
CLK_DEF	384
COMPATIBLE_CODE	MA2

BPM	0	0	135.000
MET	0	0	4	4

XTP	10	0	7
TAP	10	192	7
TAP	11	0	0
TAP	11	192	0
TAP	12	0	1
TAP	12	192	1
HLD	13	0	2	192
TAP	14	0	2
TAP	14	192	2
TAP	15	0	3
TAP	15	192	3
TAP	16	0	4
TAP	16	192	4
XTP	17	0	3
XTP	17	0	4
TAP	18	0	5
TAP	18	192	5
TAP	19	0	5
TAP	20	0	6
TAP	20	192	6
TAP	21	0	6
TAP	22	0	7
TAP	22	192	7
TAP	23	0	7
TAP	24	0	0
TAP	24	192	0
TAP	25	0	7
BRK	25	192	7
TAP	26	0	0
TAP	26	192	0
TAP	27	0	0
TAP	28	0	1
TAP	28	192	1
TAP	29	0	1
TAP	30	0	2
TAP	30	192	2
TAP	31	0	2
TAP	32	0	3
TAP	32	192	3
BRK	33	0	3
BRK	33	0	4
TTP	34	0	2	B	0	L1
TTP	35	0	1	B	0	L1
TTP	36	0	0	B	0	L1
TTP	37	0	7	B	0	L1
TTP	38	0	6	B	0	L1
TTP	39	0	5	B	0	L1
THO	40	0	0	384	C	1	L1
TAP	42	0	7
TAP	42	96	7
TAP	42	192	7
TAP	43	0	6
TAP	43	96	6
TAP	43	192	6
TAP	44	0	5
TAP	44	96	5
TAP	44	192	5
TAP	45	0	4
TAP	45	96	4
TAP	45	192	4
TAP	46	0	3
TAP	46	96	3
TAP	46	192	3
TAP	47	0	2
TAP	47	96	2
TAP	47	192	2
HLD	48	0	1	192
TAP	49	0	0
TAP	49	0	7
TAP	49	192	0
TAP	49	192	7
STR	50	0	0
SI_	50	0	0	96	288	3
TAP	52	0	5
TAP	52	192	5
TAP	53	0	5
TAP	54	0	4
TAP	54	192	4
TAP	55	0	4
TAP	56	0	3
TAP	56	192	3
TAP	57	0	3
HLD	58	0	2	384
TAP	60	0	1
TAP	60	192	1
TAP	61	0	1
TAP	61	192	1
TAP	62	0	0
TAP	62	192	0
TAP	63	0	0
TAP	63	192	0
XTP	64	0	7
TAP	64	192	7
XTP	65	0	7
TAP	65	192	7
HLD	66	0	6	384
STR	68	0	6
SI_	68	0	6	96	288	2
STR	70	0	1
SI_	70	0	1	96	288	5
TAP	72	0	6
TAP	72	192	6
TAP	73	0	7
TAP	73	192	7
TAP	74	0	0
TAP	74	192	0
BRK	75	0	0
BRK	75	0	7
XHO	75	192	0	288
XHO	75	192	7	288
TAP	77	0	0
TAP	77	96	0
TAP	77	192	0
TAP	78	0	1
TAP	78	96	1
TAP	78	192	1
TAP	79	0	2
TAP	79	96	2
TAP	79	192	2
TAP	80	0	3
TAP	80	96	3
TAP	80	192	3
TAP	81	0	4
TAP	81	96	4
TAP	81	192	4
HLD	82	0	3	192
HLD	82	0	4	192
TAP	83	0	2
TAP	83	0	5
TAP	83	192	1
TAP	83	192	6
STR	84	0	0
SI_	84	0	0	96	288	3
STR	84	0	7
SI_	84	0	7	96	288	4
XTP	86	0	2
XTP	86	0	5

T_REC_TAP	100
T_REC_BRK	5
T_REC_XTP	7
T_REC_HLD	6
T_REC_XHO	2
T_REC_STR	5
T_REC_BST	0
T_REC_XST	0
T_REC_TTP	6
T_REC_THO	1
T_REC_SLD	5
T_REC_ALL	137
T_NUM_TAP	118
T_NUM_BRK	5
T_NUM_HLD	9
T_NUM_SLD	5
T_NUM_ALL	137
T_JUDGE_TAP	123
T_JUDGE_HLD	52
T_JUDGE_SLD	5
T_JUDGE_ALL	180
TTM_EACHPAIRS	11
TTM_SCR_TAP	59000
TTM_SCR_BRK	13000
TTM_SCR_HLD	9000
TTM_SCR_SLD	7500
TTM_SCR_ALL	88500
TTM_SCR_S	85400
TTM_SCR_SS	88000
TTM_RAT_ACV	10056

