VERSION	0.00.00	1.04.00
FES_MODE	0
BPM_DEF	164.000	190.000	190.000	164.000
MET_DEF	4	4
RESOLUTION	384
CLK_DEF	384
COMPATIBLE_CODE	MA2

BPM	0	0	164.000
BPM	15	0	190.000
MET	0	0	4	4

NMSTR	2	0	2
NMSI_	2	0	2	96	672	5
NMSTR	4	0	6
NMSI_	4	0	6	96	672	1
NMHLD	6	0	2	192
NMHLD	6	192	3	192
NMSTR	7	0	4
NMSCR	7	0	4	96	96	6
NMSTR	7	96	6
NMSCR	7	96	6	96	96	0
NMSTR	7	192	0
NMSCR	7	192	0	96	96	2
NMSTR	7	288	2
NMSCR	7	288	2	96	96	4
NMTAP	8	0	4
NMTAP	8	96	6
NMSTR	8	144	6
NMSUL	8	144	6	96	96	2
NMSTR	8	240	2
NMSUR	8	240	2	96	240	4
NMHLD	8	336	0	240
NMTAP	10	0	5
NMTAP	10	96	4
NMTAP	10	96	5
NMTAP	10	192	3
NMTAP	10	240	3
NMTAP	10	336	5
NMTAP	11	0	4
NMTAP	11	48	4
NMTAP	11	144	4
NMTAP	11	144	6
NMTAP	11	240	3
NMTAP	11	288	3
NMTAP	12	0	2
NMTAP	12	96	2
NMTAP	12	96	3
NMTAP	12	192	4
NMTAP	12	240	4
NMTAP	12	288	3
NMTAP	13	0	1
NMTAP	13	48	1
NMTAP	13	96	3
NMTAP	13	144	2
NMTAP	13	240	5
NMTAP	13	288	4
NMTAP	13	288	5
NMTTP	14	0	1	A	0	M1
NMTTP	14	0	3	A	0	M1
NMTTP	14	96	2	A	0	M1
NMTTP	14	192	4	A	0	M1
NMTTP	14	192	6	A	0	M1
NMTTP	14	288	5	A	0	M1
NMTTP	15	0	0	A	0	M1
NMTTP	15	0	1	A	0	M1
NMTTP	15	0	1	D	0	M1
NMTTP	15	96	3	A	0	M1
NMTTP	15	96	4	A	0	M1
NMTTP	15	96	4	D	0	M1
NMTTP	15	192	6	A	0	M1
NMTTP	15	192	7	A	0	M1
NMTTP	15	192	7	D	0	M1
NMTTP	15	288	3	E	0	M1
NMTTP	15	288	4	E	1	M1
NMTTP	15	288	5	E	0	M1
EXTAP	16	0	0
EXTAP	16	0	1
NMTAP	16	48	2
NMTAP	16	96	3
EXTAP	16	144	6
EXTAP	16	144	7
NMTAP	16	192	5
NMTAP	16	240	4
BRTAP	16	288	0
BRTAP	16	288	7
NMSTR	17	0	1
NMSI_	17	0	1	96	48	4
NMTAP	17	96	1
NMSTR	17	144	6
NMSI_	17	144	6	96	48	3
NMTAP	17	240	6
NMHLD	17	336	2	96
NMTAP	17	336	4
NMTAP	18	48	0
NMTAP	18	96	7
NMTAP	18	144	6
NMSTR	18	192	4
NMSI_	18	192	4	96	48	0
NMTAP	18	192	5
NMTAP	18	288	4
NMSTR	19	0	6
NMSI_	19	0	6	96	48	3
NMTAP	19	96	6
NMSTR	19	144	1
NMSI_	19	144	1	96	48	4
NMTAP	19	240	1
NMTAP	19	336	3
NMHLD	19	336	5	96
NMTAP	20	48	7
NMSTR	20	96	0
NMSCR	20	96	0	96	48	3
NMSTR	20	192	7
NMSCL	20	192	7	96	48	4
NMTAP	20	288	0
NMHLD	21	0	2	96
NMTAP	21	96	3
NMTAP	21	144	1
NMTAP	21	144	4
NMTAP	21	240	3
NMSTR	21	240	6
NMSI_	21	240	6	96	48	2
NMSTR	21	336	1
NMSI_	21	336	1	96	48	5
NMHLD	22	48	7	96
NMTAP	22	144	0
BRTAP	22	192	1
BRTAP	22	192	6
NMTTP	23	0	4	E	0	M1
NMTTP	23	96	3	E	0	M1
NMTTP	23	192	2	E	0	M1
NMTTP	23	288	1	E	0	M1
NMTTP	24	0	0	E	0	M1
NMTTP	24	96	7	E	0	M1
NMTTP	24	192	6	E	0	M1
NMTTP	24	288	5	E	0	M1
NMTAP	24	336	3
NMTAP	25	0	3
NMTTP	25	96	5	D	0	M1
NMTTP	25	192	6	D	0	M1
NMTTP	25	288	7	D	0	M1
NMTTP	26	0	0	D	0	M1
NMTTP	26	96	1	D	0	M1
NMTTP	26	192	2	D	0	M1
NMTTP	26	288	3	D	0	M1
NMTAP	26	336	4
NMTAP	27	0	4
NMTAP	27	96	3
NMTAP	27	96	5
NMTAP	27	192	2
NMTAP	27	192	4
NMSTR	27	288	6
NMSI_	27	288	6	96	48	3
NMSTR	28	0	1
NMSI_	28	0	1	96	48	4
NMHLD	28	96	7	96
NMTAP	28	192	0
NMTAP	28	240	1
NMTAP	28	240	7
NMTAP	28	288	2
NMTAP	28	288	6
NMTAP	29	0	4
NMTAP	29	0	5
NMTAP	29	96	0
NMTAP	29	96	1
NMSTR	29	144	2
NMSI_	29	144	2	96	48	6
NMTAP	29	144	7
NMSTR	29	240	4
NMSI_	29	240	4	96	48	7
NMTAP	29	336	0
NMTAP	30	48	2
NMTAP	30	48	3
NMTAP	30	96	1
NMTAP	30	96	4
NMTAP	30	192	6
NMTAP	30	192	7
NMTAP	30	240	6
NMTAP	30	240	7
NMSTR	30	288	0
NMSI_	30	288	0	96	48	4
NMTAP	30	288	5
NMTAP	31	0	7
NMTAP	31	96	6
NMTAP	31	144	6
NMTAP	31	192	4
NMTAP	31	240	5
NMTAP	31	288	0
NMTAP	31	336	0
NMTAP	32	0	1
NMTAP	32	0	7
NMSTR	32	48	2
NMSI_	32	48	2	96	48	7
NMSTR	32	48	6
NMSI_	32	48	6	96	48	3
NMTAP	32	144	2
NMTAP	32	144	6
NMTAP	32	240	1
NMTAP	32	240	5
NMTAP	32	288	2
NMTAP	32	288	4
NMTAP	32	336	3
NMSTR	33	0	7
NMSCL	33	0	7	96	48	4
NMTAP	33	96	7
NMSTR	33	144	2
NMSCL	33	144	2	96	48	7
NMTAP	33	240	2
NMTAP	33	288	5
NMTAP	34	0	4
NMSTR	34	0	6
NMSI_	34	0	6	96	96	2
NMTAP	34	96	2
NMTAP	34	192	0
CNSI_	34	192	2	0	96	4
NMSTR	34	288	1
NMSCR	34	288	1	96	144	4
CNSI_	34	288	4	0	48	0
NMHLD	35	0	7	192
NMTAP	35	192	5
NMSTR	35	288	6
NMSCL	35	288	6	96	144	3
NMHLD	36	0	0	192
NMTAP	36	192	2
NMSTR	36	288	1
NMSUR	36	288	1	96	192	4
NMTAP	37	0	7
NMSTR	37	192	6
NMSI_	37	192	6	96	48	3
NMTAP	37	288	6
NMTAP	37	288	7
NMSTR	38	0	0
NMSI_	38	0	0	96	48	3
NMSTR	38	0	1
NMSI_	38	0	1	96	48	3
NMTAP	38	96	0
NMTAP	38	96	1
NMTAP	38	192	5
NMTAP	38	216	4
NMTAP	38	240	5
BRTAP	38	288	2
BRTAP	38	288	6
EXTAP	39	0	0
EXTAP	39	0	1
EXHLD	39	48	2	144
EXHLD	39	48	7	144
NMSTR	39	240	2
NMSI_	39	240	2	96	48	0
NMSTR	39	240	7
NMSI_	39	240	7	96	48	3
EXTAP	39	336	2
EXTAP	39	336	7
NMTAP	40	48	5
NMTAP	40	96	4
NMTAP	40	96	6
NMTAP	40	192	4
NMTAP	40	240	2
NMTAP	40	288	1
NMTAP	40	288	3
EXTAP	41	0	6
EXTAP	41	0	7
EXHLD	41	48	0	144
EXHLD	41	48	5	144
NMSTR	41	240	0
NMSI_	41	240	0	96	48	4
NMSTR	41	240	5
NMSI_	41	240	5	96	48	7
EXTAP	41	336	0
EXTAP	41	336	5
NMTAP	42	48	2
NMTAP	42	96	1
NMTAP	42	96	3
NMTAP	42	192	3
NMTAP	42	240	5
NMTAP	42	288	4
NMSTR	42	288	6
NMSI_	42	288	6	96	48	0
NMSTR	43	0	2
NMSI_	43	0	2	96	48	4
NMTAP	43	0	6
NMTAP	43	96	2
NMTAP	43	96	5
NMTAP	43	192	6
NMTAP	43	216	7
NMTAP	43	240	6
NMTAP	43	288	1
NMTAP	43	312	0
NMTAP	43	336	1
NMTTP	44	0	0	C	1	M1
NMTTP	44	0	2	B	0	M1
NMTTP	44	0	2	A	0	M1
NMTTP	44	0	6	B	0	M1
NMTTP	44	0	6	A	0	M1
NMTAP	45	0	0
NMSTR	45	0	1
NMSI_	45	0	1	192	48	5
NMTAP	45	96	6
NMTAP	45	96	7
NMTAP	45	192	1
NMTAP	45	288	7
NMSTR	46	0	0
NMSV_	46	0	0	192	48	3
NMSTR	46	0	6
NMSV_	46	0	6	192	48	3
NMTAP	46	96	2
NMTAP	46	96	4
NMTAP	46	192	0
NMTAP	46	192	6
NMSTR	47	0	1
NMSCL	47	0	1	192	144	3
NMTAP	47	96	2
NMTAP	47	96	3
NMTAP	47	192	7
NMSTR	48	0	6
NMSCR	48	0	6	192	144	4
NMTAP	48	96	4
NMTAP	48	96	5
NMTAP	48	192	0
NMTAP	49	0	4
NMTAP	49	0	5
NMTAP	49	96	2
NMTAP	49	96	3
NMSTR	49	192	0
NMSI_	49	192	0	192	48	4
NMTAP	49	192	1
NMTAP	49	288	6
NMSTR	49	288	7
NMSI_	49	288	7	192	48	3
NMSTR	50	0	0
NMSCR	50	0	0	192	48	3
NMSTR	50	96	7
NMSCL	50	96	7	192	48	4
NMTAP	50	192	0
NMTAP	50	288	7
EXHLD	51	0	1	96
EXHLD	51	0	3	96
EXSTR	51	144	0
NMSV_	51	144	0	192	48	3
EXSTR	51	144	7
NMSV_	51	144	7	192	48	4
EXTAP	51	240	4
EXTAP	51	240	6
BXTAP	51	336	0
BXTAP	51	336	7
CNSI_	52	0	3	0	48	1
CNSI_	52	0	4	0	48	6
EXTAP	52	192	0
NMTAP	52	216	7
NMTAP	52	240	0
NMTAP	52	264	7
NMTAP	52	288	0
NMTAP	52	312	7
NMTAP	52	336	0
NMTAP	52	360	7
BRSTR	53	0	1
NMSI_	53	0	1	96	48	5
NMTAP	53	96	1
NMSTR	53	144	6
NMSI_	53	144	6	96	48	2
NMTAP	53	240	6
NMHLD	53	336	1	96
NMTAP	53	336	3
NMTAP	54	48	0
NMTAP	54	96	7
NMTAP	54	144	6
NMSTR	54	192	1
NMSI_	54	192	1	96	48	4
NMSTR	54	192	5
NMSI_	54	192	5	96	48	0
NMTAP	54	288	1
NMTAP	54	288	5
NMTAP	55	0	2
NMTAP	55	0	6
NMTAP	55	48	5
NMTAP	55	96	3
NMTAP	55	144	1
NMTAP	55	144	7
NMSTR	55	240	0
NMSCR	55	240	0	96	144	6
NMTAP	55	240	6
NMTAP	55	288	0
NMTAP	55	288	6
NMTAP	56	48	7
NMTAP	56	96	7
NMTAP	56	192	0
NMTAP	56	240	0
NMTAP	56	288	1
NMTAP	56	288	7
NMHLD	57	0	6	96
NMTAP	57	96	4
NMHLD	57	144	4	96
NMHLD	57	240	3	96
NMTAP	57	336	1
NMSTR	58	0	1
NMSI_	58	0	1	96	48	7
NMSTR	58	96	5
NMSI_	58	96	5	96	48	3
NMSTR	58	192	2
NMSI_	58	192	2	96	48	6
NMSTR	58	288	4
NMSCR	58	288	4	96	1152	3
NMTTP	59	0	0	C	1	M1
NMTAP	62	48	2
NMTAP	62	96	2
NMTAP	62	192	4
NMTAP	62	240	4
NMTAP	62	288	3
NMTAP	62	288	5
NMTAP	63	0	4
NMTAP	63	48	4
NMTAP	63	144	2
NMTAP	63	192	2
NMTAP	63	240	3
NMTAP	63	336	1
NMTAP	63	336	5
NMTAP	64	48	3
NMTAP	64	96	3
NMTAP	64	144	4
NMTAP	64	192	0
NMTAP	64	240	0
NMTAP	64	288	1
NMTAP	64	288	7
NMTAP	65	0	4
NMTAP	65	0	5
NMTAP	65	48	3
NMTAP	65	48	6
NMTAP	65	144	2
NMHLD	65	192	2	96
NMTAP	65	288	0
NMTAP	65	336	1
NMTAP	65	336	7
NMTAP	66	48	5
NMSTR	66	96	5
NMSI_	66	96	5	96	48	3
NMSTR	66	192	1
NMSI_	66	192	1	96	48	7
NMTAP	66	288	6
NMTAP	67	0	2
NMTAP	67	0	3
NMTAP	67	48	1
NMTAP	67	48	4
NMTAP	67	144	5
NMHLD	67	192	5	96
NMTAP	67	288	7
NMTAP	67	336	0
NMTAP	67	336	6
NMTAP	68	48	1
NMSTR	68	96	1
NMSCR	68	96	1	96	48	3
NMTAP	68	192	5
NMTAP	68	240	5
NMTAP	68	288	4
NMTAP	69	0	2
NMTAP	69	0	3
NMTAP	69	96	1
NMTAP	69	192	0
NMTAP	69	192	7
NMTAP	69	288	6
NMSTR	70	0	4
NMSCL	70	0	4	96	96	2
NMTAP	70	0	5
NMSTR	70	96	2
NMSCL	70	96	2	96	96	0
NMSTR	70	192	0
NMSCL	70	192	0	96	96	6
NMSTR	70	288	6
NMSCL	70	288	6	96	96	3
NMSTR	71	0	3
NMSCL	71	0	3	96	96	0
NMSTR	71	96	0
NMSCL	71	96	0	96	96	5
NMSTR	71	192	5
NMSCL	71	192	5	96	96	2
NMSTR	71	288	2
NMSCL	71	288	2	96	192	4
NMTAP	72	0	7
NMSTR	72	192	3
NMSI_	72	192	3	96	48	7
NMTAP	73	0	1
NMTAP	73	96	1
NMTAP	73	192	2
NMTAP	73	240	4
NMTAP	73	288	2
NMTAP	74	0	3
NMHLD	74	96	3	96
NMTAP	74	192	4
NMTAP	74	240	3
NMHLD	74	288	4	96
NMTAP	75	0	5
NMTAP	75	96	5
NMTAP	75	192	6
NMTAP	75	240	4
NMTAP	75	288	6
EXSTR	75	336	3
NMSCL	75	336	3	96	48	0
EXSTR	75	336	7
NMSCL	75	336	7	96	48	4
EXSTR	76	144	0
NMSCR	76	144	0	96	48	3
EXSTR	76	144	4
NMSCR	76	144	4	96	48	7
NMTAP	77	0	4
NMTAP	77	0	6
NMTAP	77	96	3
NMTAP	77	96	4
NMSTR	77	192	1
NMSI_	77	192	1	96	48	5
NMTAP	77	192	3
NMTAP	77	288	1
NMSTR	77	288	6
NMSI_	77	288	6	96	48	2
NMSTR	78	0	0
NMSCR	78	0	0	96	48	3
NMTAP	78	0	6
NMTAP	78	96	0
NMSTR	78	96	7
NMSCL	78	96	7	96	48	4
NMSTR	78	192	0
NMSI_	78	192	0	96	48	4
NMTAP	78	192	7
NMTAP	78	288	0
NMTAP	78	288	7
NMTAP	79	0	6
NMTAP	79	32	4
NMTAP	79	64	5
NMTAP	79	96	1
NMTAP	79	128	3
NMTAP	79	160	2
NMTAP	79	192	5
NMTAP	79	224	4
NMTAP	79	256	5
NMTAP	79	288	2
NMTAP	79	320	3
NMTAP	79	352	2
NMTTP	80	0	0	C	1	M1
BRSTR	81	0	1
BRSI_	81	0	1	192	1152	5
NMTAP	84	192	6
NMTAP	84	240	6
NMTAP	84	288	4
NMSTR	85	0	5
NMSI_	85	0	5	192	48	3
NMTAP	85	48	5
NMTAP	85	144	2
NMTAP	85	192	2
NMTAP	85	336	1
NMSTR	86	0	1
NMSI_	86	0	1	192	48	3
NMTAP	86	96	4
NMTAP	86	192	1
NMTAP	86	288	5
NMSTR	87	0	6
NMSI_	87	0	6	192	48	3
NMTAP	87	48	6
NMTAP	87	144	2
NMTAP	87	192	2
NMTAP	88	0	1
NMTAP	88	24	7
NMTAP	88	48	1
NMTAP	88	72	7
NMTAP	88	96	2
NMTAP	88	120	6
NMTAP	88	144	2
NMTAP	88	168	6
NMTAP	88	192	3
NMTAP	88	216	5
NMTAP	88	240	3
NMTAP	88	264	5
NMSTR	88	288	0
NMSI_	88	288	0	96	48	4
BRTAP	89	0	0
BRTAP	89	0	7
NMTAP	89	96	2
NMTAP	89	96	6
NMSTR	89	144	2
NMSI_	89	144	2	96	48	7
NMSTR	89	144	6
NMSI_	89	144	6	96	48	3
NMTAP	89	240	2
NMTAP	89	240	6
NMTAP	89	336	1
NMHLD	89	336	5	96
NMSTR	90	48	7
NMSCL	90	48	7	96	48	4
NMSTR	90	96	0
NMSCR	90	96	0	96	48	3
NMTAP	90	144	7
NMTAP	90	192	0
NMTAP	90	288	6
NMTAP	90	288	7
NMTAP	91	0	1
NMTAP	91	0	5
NMTAP	91	48	2
NMTAP	91	96	4
NMTAP	91	144	0
NMTAP	91	144	6
NMTAP	91	240	1
NMSTR	91	240	7
NMSCL	91	240	7	96	144	1
NMTAP	91	288	1
NMTAP	91	288	7
NMTAP	92	48	0
NMTAP	92	96	0
NMTAP	92	192	7
NMTAP	92	240	7
NMTAP	92	288	0
NMTAP	92	288	6
NMHLD	93	0	1	96
NMTAP	93	96	3
NMHLD	93	144	3	96
NMHLD	93	240	4	96
NMTAP	93	336	6
NMSTR	94	0	6
NMSI_	94	0	6	96	48	2
NMSTR	94	96	2
NMSI_	94	96	2	96	48	6
NMSTR	94	192	0
NMSI_	94	192	0	96	48	4
NMTAP	94	288	0
NMTAP	94	288	7
NMTAP	95	0	3
NMTAP	95	0	5
NMTAP	95	96	0
NMTAP	95	96	1
NMTAP	95	192	5
NMTAP	95	240	4
NMTAP	95	288	6
NMTAP	95	288	7
NMTAP	96	0	1
NMTAP	96	0	3
NMTAP	96	96	4
NMTAP	96	96	6
NMTAP	96	192	2
NMTAP	96	240	3
NMTAP	96	288	4
NMSTR	96	288	7
NMSCL	96	288	7	96	48	4
NMSTR	97	0	0
NMSCR	97	0	0	96	48	3
NMTAP	97	0	7
NMTAP	97	96	0
NMTAP	97	96	3
NMTAP	97	192	6
NMTAP	97	216	7
NMTAP	97	240	6
NMSTR	97	288	1
NMSI_	97	288	1	96	48	5
NMTAP	97	288	5
EXTAP	98	0	1
BRHLD	98	0	3	960
NMTAP	100	0	5
NMTAP	100	96	5
NMTTP	100	192	5	D	0	M1
NMTTP	100	208	6	D	0	M1
NMTTP	100	224	7	D	0	M1
NMTTP	100	240	0	D	0	M1
NMTTP	100	256	1	D	0	M1
NMTTP	100	272	2	D	0	M1
NMTTP	100	288	3	D	1	M1
BRTAP	100	288	7
NMTAP	101	0	4
NMSTR	101	0	6
NMSI_	101	0	6	96	48	2
NMTAP	101	96	6
NMSTR	101	144	0
NMSCR	101	144	0	96	48	3
NMTAP	101	240	0
NMTAP	101	240	7
NMHLD	101	336	6	96
NMTAP	101	336	7
NMTAP	102	48	4
NMTAP	102	96	3
NMTAP	102	96	5
NMTAP	102	144	2
NMTAP	102	192	0
NMTAP	102	192	1
NMTAP	102	288	2
NMTAP	102	336	3
NMTAP	103	0	0
NMSTR	103	0	4
NMSCR	103	0	4	96	48	7
NMTAP	103	96	4
NMSTR	103	144	1
NMSI_	103	144	1	96	48	5
NMTAP	103	240	1
NMSTR	103	240	6
NMSI_	103	240	6	96	48	2
NMHLD	103	336	0	96
NMTAP	103	336	6
NMTAP	104	48	7
NMSTR	104	96	1
NMSI_	104	96	1	96	48	4
NMSTR	104	96	6
NMSI_	104	96	6	96	48	3
NMTAP	104	192	1
NMTAP	104	192	6
NMTAP	104	288	0
NMTAP	104	288	7
NMHLD	105	0	5	96
NMTAP	105	96	4
NMSTR	105	144	3
NMSCL	105	144	3	96	48	0
NMSTR	105	144	7
NMSCL	105	144	7	96	48	4
NMTAP	105	240	3
NMTAP	105	240	7
EXSTR	105	336	1
NMSI_	105	336	1	96	48	3
EXTAP	105	336	5
NMTAP	106	48	1
NMSTR	106	48	7
NMSI_	106	48	7	96	48	5
NMSTR	106	144	0
NMSI_	106	144	0	96	48	4
NMTAP	106	144	7
NMTAP	106	240	0
NMTAP	106	240	7
NMTAP	106	336	2
NMTAP	106	336	6
NMTAP	107	0	2
NMTAP	107	0	6
NMTAP	107	96	1
NMTAP	107	96	7
NMTAP	107	144	1
NMTAP	107	144	7
NMTAP	107	192	6
NMSTR	107	240	4
NMSI_	107	240	4	96	48	0
NMTAP	107	288	2
EXTAP	107	336	0
NMTAP	108	48	1
NMTAP	108	48	7
NMTAP	108	96	2
NMTAP	108	96	6
NMTAP	108	144	3
NMTAP	108	144	5
NMTAP	108	192	0
NMTAP	108	192	1
NMTAP	108	264	3
NMTAP	108	264	4
NMTAP	108	336	6
NMTAP	108	336	7
BRSTR	109	96	3
NMSI_	109	96	3	96	864	7
BRTAP	109	96	4
NMTAP	111	288	5
NMTAP	111	320	4
NMTAP	111	352	3
NMTAP	112	0	2

T_REC_TAP	404
T_REC_BRK	10
T_REC_XTP	18
T_REC_BXX	2
T_REC_HLD	25
T_REC_XHO	6
T_REC_BHO	1
T_REC_BXH	0
T_REC_STR	100
T_REC_BST	3
T_REC_XST	7
T_REC_XBS	0
T_REC_TTP	47
T_REC_THO	0
T_REC_SLD	109
T_REC_BSL	1
T_REC_ALL	733
T_NUM_TAP	576
T_NUM_BRK	17
T_NUM_HLD	31
T_NUM_SLD	109
T_NUM_ALL	733
T_JUDGE_TAP	591
T_JUDGE_HLD	97
T_JUDGE_SLD	110
T_JUDGE_ALL	798
TTM_EACHPAIRS	144
TTM_SCR_TAP	288000
TTM_SCR_BRK	44200
TTM_SCR_HLD	31000
TTM_SCR_SLD	163500
TTM_SCR_ALL	526700
TTM_SCR_S	509250
TTM_SCR_SS	525000
TTM_RAT_ACV	10032

