VERSION	0.00.00	1.03.00
FES_MODE	0
BPM_DEF	164.000	190.000	190.000	164.000
MET_DEF	4	4
RESOLUTION	384
CLK_DEF	384
COMPATIBLE_CODE	MA2

BPM	0	0	164.000
BPM	15	0	190.000
MET	0	0	4	4
CLK	0	0
CLK	0	96
CLK	0	192
CLK	0	288

STR	2	0	1
SCR	2	0	1	96	192	5
HLD	2	0	6	576
TTP	3	0	5	B	0	M1
TTP	3	192	2	B	0	M1
HLD	4	0	1	576
STR	4	0	6
SCL	4	0	6	96	192	2
TTP	5	0	2	B	0	M1
TTP	5	192	5	B	0	M1
TAP	6	0	3
HLD	6	0	4	192
HLD	6	192	5	192
HLD	7	0	6	192
HLD	7	192	7	192
STR	8	0	0
SLR	8	0	0	96	192	4
HLD	9	0	3	96
HLD	9	0	4	96
XTP	9	192	1
XTP	9	192	6
HLD	10	0	1	768
TAP	10	96	3
TAP	10	192	3
TAP	10	288	3
TAP	11	0	2
TAP	11	96	4
TAP	11	192	6
TAP	11	288	5
HLD	12	0	6	768
TAP	12	96	4
TAP	12	192	4
TAP	12	288	4
TAP	13	0	5
TAP	13	96	3
TAP	13	192	1
TAP	13	288	2
HLD	14	0	1	288
TAP	14	96	0
TAP	14	192	7
TAP	14	288	6
XTP	15	0	4
XTP	15	0	5
XTP	15	96	2
XTP	15	96	7
XTP	15	192	2
XTP	15	192	3
XTP	15	288	0
XTP	15	288	5
XTP	16	0	1
XTP	16	48	3
XTP	16	96	4
XTP	16	144	6
XTP	16	192	4
XTP	16	240	3
BRK	16	288	1
BST	16	288	7
SI_	16	288	7	96	48	2
STR	17	0	1
SI_	17	0	1	96	48	4
STR	17	96	5
SI_	17	96	5	96	48	0
STR	17	192	2
SI_	17	192	2	96	48	7
TAP	17	288	6
HLD	17	336	6	96
TAP	18	48	7
TAP	18	96	0
TAP	18	144	1
TAP	18	192	3
STR	18	192	4
SUR	18	192	4	96	48	0
STR	19	0	1
SI_	19	0	1	96	48	4
TAP	19	96	1
STR	19	144	6
SI_	19	144	6	96	48	3
TAP	19	240	6
HLD	19	336	2	96
TAP	20	48	0
HLD	20	96	0	96
TAP	20	192	4
XTP	20	288	2
XTP	20	288	6
TAP	21	0	0
TAP	21	0	7
TAP	21	96	2
TAP	21	144	1
TAP	21	144	3
TAP	21	240	5
TAP	21	288	4
TAP	21	288	6
TAP	21	336	3
TAP	21	336	7
TAP	22	48	0
TAP	22	96	1
TAP	22	96	7
TAP	22	144	2
TAP	22	144	6
TAP	22	192	3
TAP	22	192	5
BRK	22	288	1
BRK	22	288	6
TTP	23	0	3	B	0	M1
TTP	23	0	4	B	0	M1
TTP	23	96	6	E	0	M1
TTP	23	192	5	B	0	M1
TTP	23	288	4	B	0	M1
TTP	24	0	3	B	0	M1
TTP	24	96	2	B	0	M1
TTP	24	192	2	E	0	M1
TTP	24	288	0	C	0	M1
TTP	25	0	0	B	0	M1
TTP	25	0	7	B	0	M1
TTP	25	96	2	E	0	M1
TTP	25	192	2	B	0	M1
TTP	25	288	3	B	0	M1
TTP	26	0	4	B	0	M1
TTP	26	96	5	B	0	M1
TTP	26	192	6	E	0	M1
TTP	26	288	0	C	0	M1
TTP	27	0	3	E	0	M1
TTP	27	0	3	B	0	M1
TTP	27	96	2	E	0	M1
TTP	27	192	1	B	0	M1
TTP	27	288	0	B	0	M1
TTP	28	0	7	E	0	M1
TTP	28	0	7	B	0	M1
TTP	28	96	6	E	0	M1
TTP	28	192	5	B	0	M1
TAP	28	288	3
TAP	28	288	4
STR	29	0	2
SI_	29	0	2	96	48	7
TAP	29	0	3
TAP	29	96	6
STR	29	144	6
SI_	29	144	6	96	48	3
TAP	29	240	2
HLD	29	336	1	240
TAP	30	48	0
TAP	30	96	0
TAP	30	192	6
TAP	30	240	6
XTP	30	288	1
XTP	30	288	5
TAP	31	0	2
TAP	31	96	1
TAP	31	96	3
TAP	31	192	5
TAP	31	240	5
TAP	31	288	3
TAP	31	288	6
TAP	32	0	1
TAP	32	96	3
TAP	32	96	5
STR	32	144	3
SI_	32	144	3	96	48	7
TAP	32	144	5
TAP	33	0	0
TAP	33	0	6
XTP	33	96	1
XTP	33	96	3
XTP	33	144	1
XTP	33	144	3
XTP	33	240	4
XTP	33	240	6
XTP	33	288	4
STR	33	288	6
SCR	33	288	6	96	96	2
HLD	34	96	3	96
HLD	34	192	5	96
XTP	34	288	7
HLD	35	0	2	144
TAP	35	0	3
STR	35	144	0
SI_	35	144	0	96	48	4
TAP	35	192	0
TAP	36	0	4
HLD	36	0	5	144
STR	36	144	7
SI_	36	144	7	96	48	3
TAP	36	192	7
HLD	37	0	2	96
TAP	37	0	3
TAP	37	96	0
TAP	37	192	4
HLD	37	192	5	96
TAP	37	288	7
STR	38	0	0
SCR	38	0	0	96	48	3
STR	38	0	7
SCL	38	0	7	96	48	4
BRK	38	192	1
BRK	38	192	6
TAP	39	0	1
TAP	39	0	3
HLD	39	48	1	144
HLD	39	48	3	144
TAP	39	288	3
TAP	39	288	4
TAP	39	336	3
HLD	39	336	4	336
TAP	40	96	5
TAP	40	192	6
TAP	40	288	7
TAP	41	0	4
TAP	41	0	6
HLD	41	48	4	144
HLD	41	48	6	144
TAP	41	288	3
TAP	41	288	4
HLD	41	336	3	336
TAP	41	336	4
TAP	42	96	2
TAP	42	192	1
TAP	42	288	0
TTP	43	0	1	B	0	M1
TTP	43	0	1	E	0	M1
TTP	43	96	7	E	0	M1
TTP	43	96	7	B	0	M1
TTP	43	192	3	B	0	M1
TTP	43	192	3	E	0	M1
TTP	43	288	5	E	0	M1
TTP	43	288	5	B	0	M1
THO	44	0	0	192	C	1	M1
TAP	45	0	4
TAP	45	0	6
TAP	45	96	0
TAP	45	96	1
STR	45	144	0
SI_	45	144	0	96	48	5
STR	45	144	1
SI_	45	144	1	96	48	4
TAP	45	336	3
HLD	45	336	6	96
TAP	46	48	7
TAP	46	96	0
TAP	46	144	1
STR	46	192	2
SI_	46	192	2	96	48	6
TAP	46	192	3
TAP	47	0	5
TAP	47	0	7
TAP	47	96	2
TAP	47	96	3
STR	47	144	2
SUL	47	144	2	96	48	5
TAP	47	144	3
STR	47	240	4
SCR	47	240	4	96	192	3
HLD	47	336	0	192
XTP	48	240	1
BRK	48	288	1
BRK	48	288	5
HLD	49	0	6	384
TTP	49	96	7	B	0	M1
TTP	49	192	0	C	0	M1
TTP	49	288	3	B	0	M1
HLD	50	0	2	384
TTP	50	96	1	B	0	M1
TTP	50	192	0	C	0	M1
TTP	50	288	5	B	0	M1
TAP	51	0	6
TAP	51	96	1
TAP	51	144	0
TAP	51	144	1
TAP	51	240	5
TAP	51	240	7
BRK	51	336	2
BRK	51	336	6
TAP	52	48	0
TAP	52	48	1
TAP	52	96	0
TAP	52	96	1
TAP	52	192	4
TAP	52	216	3
TAP	52	240	4
BRK	52	288	1
BRK	52	288	6
TAP	53	0	2
TAP	53	0	3
TAP	53	96	6
TAP	53	96	7
STR	53	144	6
SI_	53	144	6	96	48	3
STR	53	144	7
SI_	53	144	7	96	48	2
HLD	53	336	1	96
TAP	53	336	4
TAP	54	48	0
TAP	54	96	7
TAP	54	144	6
TAP	54	192	4
STR	54	192	5
SI_	54	192	5	96	48	1
TAP	55	0	0
TAP	55	0	2
TAP	55	96	4
TAP	55	96	5
TAP	55	144	4
HLD	55	144	5	144
TAP	55	240	7
STR	55	288	7
SCL	55	288	7	96	192	0
SUL	55	288	7	96	192	0
BRK	56	288	1
BRK	56	288	6
TAP	57	0	0
TAP	57	0	1
STR	57	96	1
SUR	57	96	1	96	96	6
TAP	57	96	5
TAP	57	144	1
TAP	57	144	5
HLD	58	0	5	96
HLD	58	96	4	96
HLD	58	192	3	96
TAP	58	288	2
HLD	59	0	2	1200
HLD	59	0	5	1200
TAP	62	96	2
TAP	62	96	5
TAP	62	192	4
TAP	62	240	3
TAP	62	288	2
TAP	62	288	5
TAP	63	0	3
TAP	63	96	3
TAP	63	96	4
HLD	63	144	4	144
TAP	63	288	5
HLD	63	336	5	144
TAP	64	48	6
STR	64	96	6
SUR	64	96	6	96	96	3
TAP	65	0	1
TAP	65	0	3
HLD	65	48	1	432
HLD	65	48	3	192
TAP	65	336	2
TAP	66	48	3
TAP	66	96	3
TAP	66	192	2
TAP	66	192	4
TAP	66	288	2
TAP	66	288	5
TAP	67	0	4
TAP	67	0	6
HLD	67	48	4	192
HLD	67	48	6	432
TAP	67	336	5
TAP	68	48	4
TAP	68	96	4
STR	68	192	1
SI_	68	192	1	96	48	3
STR	68	192	6
SI_	68	192	6	96	48	4
TAP	69	0	3
STR	69	96	4
SCL	69	96	4	96	96	1
TAP	69	96	5
TAP	69	192	6
TAP	70	0	3
TAP	70	0	5
TAP	70	96	2
STR	70	96	3
SCR	70	96	3	96	96	6
TAP	70	192	1
TAP	71	0	4
TAP	71	0	5
STR	71	96	3
SCL	71	96	3	96	96	0
STR	71	96	6
SCL	71	96	6	96	96	3
TAP	72	0	0
TAP	72	0	7
TAP	72	96	1
TAP	72	96	6
TTP	72	192	3	E	0	M1
TTP	72	192	3	B	0	M1
TTP	72	192	4	B	0	M1
TTP	72	192	5	E	0	M1
HLD	73	0	5	864
TTP	73	96	6	E	0	M1
TTP	73	192	5	B	0	M1
TTP	73	288	4	B	0	M1
TTP	74	0	3	B	0	M1
TTP	74	96	2	B	0	M1
TTP	74	192	2	E	0	M1
TTP	74	288	1	B	0	M1
TTP	75	0	0	B	0	M1
TTP	75	96	0	C	0	M1
TAP	75	192	6
TAP	75	192	7
TAP	75	240	6
TAP	75	240	7
STR	75	336	1
SI_	75	336	1	96	48	4
STR	75	336	5
SI_	75	336	5	96	48	0
BRK	76	144	2
BRK	76	144	6
TAP	76	288	3
TAP	76	288	4
TAP	77	0	3
TAP	77	0	5
TAP	77	96	4
STR	77	96	6
SUL	77	96	6	96	96	1
TAP	77	192	3
TAP	78	0	2
TAP	78	0	4
STR	78	96	1
SUR	78	96	1	96	96	6
TAP	78	96	3
TAP	78	192	4
TAP	79	0	0
TAP	79	0	7
TAP	79	96	1
TAP	79	96	6
XTP	79	192	5
XTP	79	224	3
XTP	79	256	5
XTP	79	288	2
XTP	79	320	4
XTP	79	352	2
XTP	80	0	1
HLD	80	0	6	384
THO	81	0	0	1344	C	0	M1
TTP	81	192	5	B	0	M1
TTP	82	192	4	B	0	M1
TTP	83	192	6	B	0	M1
TTP	84	192	7	B	0	M1
TAP	85	0	6
TTP	85	192	0	B	0	M1
TTP	85	192	5	B	0	M1
TAP	86	0	2
TTP	86	192	1	B	0	M1
TTP	86	192	4	B	0	M1
TAP	87	0	3
TAP	87	0	5
TTP	87	192	1	B	0	M1
TTP	87	192	6	B	0	M1
TAP	88	0	2
TAP	88	0	5
TAP	88	96	6
TAP	88	144	4
TAP	88	192	3
TAP	88	240	1
BRK	88	288	0
BRK	88	288	7
TAP	89	0	3
TAP	89	0	4
TAP	89	96	0
TAP	89	96	1
STR	89	144	0
SCL	89	144	0	96	48	5
STR	89	144	1
SCR	89	144	1	96	48	4
TAP	89	336	3
HLD	89	336	6	96
TAP	90	48	7
TAP	90	96	0
TAP	90	144	1
STR	90	192	2
SI_	90	192	2	96	48	6
TAP	90	192	4
TAP	91	0	5
TAP	91	0	7
TAP	91	96	1
TAP	91	96	3
STR	91	144	1
SI_	91	144	1	96	48	5
TAP	91	144	3
TAP	91	240	4
STR	91	288	4
SCR	91	288	4	96	192	3
SUL	91	288	4	96	192	3
BRK	92	288	2
BRK	92	288	5
TAP	93	0	6
TAP	93	0	7
STR	93	96	2
SUL	93	96	2	96	96	5
TAP	93	96	4
TAP	93	144	2
TAP	93	144	4
HLD	94	0	6	96
HLD	94	96	0	96
HLD	94	192	2	96
XTP	94	288	4
HLD	95	0	5	96
TAP	95	96	4
TAP	95	192	2
TAP	95	240	2
TAP	95	288	1
TAP	95	288	3
HLD	95	336	0	240
TAP	96	48	7
TAP	96	96	7
TAP	96	144	7
TAP	96	192	7
TAP	96	288	1
TAP	96	288	6
TAP	97	0	4
TAP	97	0	5
TAP	97	96	1
TAP	97	96	7
STR	97	144	1
SCL	97	144	1	96	96	5
TAP	97	144	7
TTP	98	0	5	B	0	M1
TTP	98	0	5	E	0	M1
TTP	98	96	3	B	0	M1
TTP	98	96	3	E	0	M1
TTP	98	192	7	E	0	M1
TTP	98	192	7	B	0	M1
TTP	98	288	1	E	0	M1
TTP	98	288	1	B	0	M1
TTP	99	0	0	C	1	M1
BRK	100	0	7
BRK	100	96	0
BRK	100	192	7
TTP	100	288	0	C	1	M1
TTP	100	288	2	B	0	M1
TTP	100	288	3	B	0	M1
TTP	100	288	4	B	0	M1
TTP	100	288	5	B	0	M1
STR	101	0	7
SI_	101	0	7	96	48	2
STR	101	96	1
SI_	101	96	1	96	48	4
STR	101	192	5
SI_	101	192	5	96	48	0
TAP	101	288	1
HLD	101	336	1	96
TAP	102	48	0
TAP	102	96	7
TAP	102	144	6
STR	102	192	4
SI_	102	192	4	96	48	0
STR	102	192	5
SI_	102	192	5	96	48	0
STR	103	0	1
SI_	103	0	1	96	48	4
TAP	103	96	1
STR	103	144	6
SI_	103	144	6	96	48	3
TAP	103	240	6
HLD	103	336	2	96
TAP	104	48	0
HLD	104	96	0	96
TAP	104	192	4
XTP	104	288	2
XTP	104	288	6
TAP	105	0	0
TAP	105	0	7
TAP	105	96	2
TAP	105	144	1
TAP	105	144	3
TAP	105	240	5
TAP	105	288	4
TAP	105	288	6
HLD	105	336	3	144
TAP	105	336	7
TAP	106	48	0
TAP	106	96	0
TAP	106	192	2
TAP	106	240	1
TAP	106	240	3
TAP	106	288	0
TAP	106	288	4
TAP	107	0	4
TAP	107	0	5
TAP	107	96	0
TAP	107	96	7
TAP	107	144	0
TAP	107	144	7
TAP	107	192	0
TAP	107	192	7
TAP	107	240	1
TAP	107	240	6
TAP	107	288	2
TAP	107	288	5
BRK	107	336	3
BRK	107	336	4
TAP	108	48	6
TAP	108	48	7
TAP	108	96	6
TAP	108	96	7
XTP	108	192	1
XTP	108	192	3
XTP	108	264	4
XTP	108	264	6
XTP	108	336	0
XTP	108	336	7
STR	109	96	2
SCL	109	96	2	96	576	4
STR	109	96	5
SCR	109	96	5	96	576	3
TTP	111	288	0	C	1	M1

T_REC_TAP	280
T_REC_BRK	24
T_REC_XTP	45
T_REC_HLD	56
T_REC_XHO	0
T_REC_STR	54
T_REC_BST	1
T_REC_XST	0
T_REC_TTP	83
T_REC_THO	2
T_REC_SLD	57
T_REC_ALL	602
T_NUM_TAP	462
T_NUM_BRK	25
T_NUM_HLD	58
T_NUM_SLD	57
T_NUM_ALL	602
T_JUDGE_TAP	487
T_JUDGE_HLD	330
T_JUDGE_SLD	57
T_JUDGE_ALL	874
TTM_EACHPAIRS	144
TTM_SCR_TAP	231000
TTM_SCR_BRK	65000
TTM_SCR_HLD	58000
TTM_SCR_SLD	85500
TTM_SCR_ALL	439500
TTM_SCR_S	423900
TTM_SCR_SS	437000
TTM_RAT_ACV	10057

