VERSION	0.00.00	1.03.00
FES_MODE	0
BPM_DEF	164.000	190.000	190.000	164.000
MET_DEF	4	4
RESOLUTION	384
CLK_DEF	384
COMPATIBLE_CODE	MA2

BPM	0	0	164.000
BPM	15	0	190.000
MET	0	0	4	4

HLD	2	0	5	384
HLD	3	0	4	384
HLD	4	0	3	384
HLD	5	0	2	384
HLD	6	0	3	384
HLD	7	0	4	384
HLD	8	0	5	384
TAP	9	0	2
TAP	10	0	2
TAP	10	96	2
TAP	10	192	4
TAP	10	288	4
TAP	11	0	3
TAP	11	96	3
TAP	11	192	5
TAP	11	288	5
TAP	12	0	3
TAP	12	96	3
TAP	12	192	4
TAP	12	288	4
TAP	13	0	2
TAP	13	96	2
TAP	13	192	5
TAP	13	288	5
HLD	14	0	3	768
TAP	15	0	4
TAP	15	96	4
TAP	15	192	5
TAP	15	288	6
STR	16	0	7
SI_	16	0	7	96	96	3
TAP	16	288	1
TAP	16	288	6
TAP	17	0	5
TAP	17	96	4
TAP	17	96	5
TAP	17	192	2
TAP	17	288	2
TAP	17	288	3
TAP	18	0	0
TAP	18	96	2
TAP	18	192	3
TAP	18	288	4
TAP	19	0	5
TAP	19	96	4
TAP	19	96	5
TAP	19	192	2
TAP	19	288	2
TAP	19	288	3
TAP	20	0	4
TAP	20	96	3
TAP	20	96	4
TAP	20	192	2
TAP	20	192	5
TAP	21	0	5
TAP	21	96	6
TAP	21	192	7
TAP	21	288	0
TAP	22	0	1
TAP	22	96	2
TAP	22	192	3
TAP	22	192	4
TAP	23	0	3
HLD	23	0	5	576
TAP	23	96	3
TAP	23	192	4
TAP	23	288	4
TTP	24	0	0	B	0	M1
TTP	24	96	0	C	0	M1
TTP	24	192	4	E	0	M1
HLD	25	0	2	576
TAP	25	0	4
TAP	25	96	4
TAP	25	192	3
TAP	25	288	3
TTP	26	0	7	B	0	M1
TTP	26	96	0	C	0	M1
TTP	26	192	4	E	0	M1
TAP	27	0	3
HLD	27	0	5	576
TAP	27	96	3
TAP	27	192	4
TAP	27	288	4
TTP	28	0	0	B	0	M1
TTP	28	96	0	C	0	M1
TTP	28	192	4	E	0	M1
TAP	29	0	2
TAP	29	0	6
TAP	29	96	0
TAP	29	144	0
TAP	29	240	1
TAP	29	240	5
STR	29	336	7
SI_	29	336	7	96	96	3
XTP	30	192	0
XTP	30	288	1
XTP	30	288	6
TAP	31	0	5
TAP	31	96	4
TAP	31	96	6
TAP	31	192	2
TAP	31	192	3
TAP	31	288	7
STR	32	0	0
SCR	32	0	0	96	96	4
TAP	32	288	3
TAP	32	288	4
TAP	33	0	1
TAP	33	0	3
TAP	33	96	0
TAP	33	144	0
TAP	33	240	7
STR	33	288	7
SI_	33	288	7	96	96	4
TAP	34	96	3
TAP	34	192	2
TAP	34	288	1
STR	35	0	0
SI_	35	0	0	96	96	4
TAP	35	192	5
TAP	35	288	5
STR	36	0	6
SI_	36	0	6	96	96	3
TAP	36	192	2
TAP	36	288	2
STR	37	0	3
SI_	37	0	3	96	96	0
TAP	37	192	7
TAP	37	288	7
BRK	38	0	1
BRK	38	0	6
TAP	38	192	3
TAP	38	192	4
THO	39	0	0	336	C	1	M1
TTP	40	192	6	E	0	M1
TTP	40	288	2	E	0	M1
THO	41	0	0	336	C	1	M1
TAP	42	192	2
TAP	42	288	1
TAP	43	0	0
TAP	43	96	7
TAP	43	192	6
TAP	43	288	5
TAP	44	0	3
TAP	44	0	4
TAP	44	192	2
TAP	44	192	5
STR	45	0	6
SI_	45	0	6	96	96	2
TAP	45	192	0
TAP	45	288	0
TAP	46	0	1
TAP	46	0	7
TAP	46	96	2
TAP	46	96	6
TAP	46	192	3
TAP	46	192	5
STR	47	0	1
SI_	47	0	1	96	96	5
TAP	47	192	7
TAP	47	288	7
TAP	48	0	0
TAP	48	0	6
TAP	48	96	1
TAP	48	96	5
TAP	48	192	2
TAP	48	192	4
HLD	49	0	5	192
HLD	49	192	7	192
HLD	50	0	0	192
TAP	50	192	2
TAP	50	288	3
TAP	50	288	4
TAP	51	0	5
TAP	51	96	4
TAP	51	192	3
STR	51	288	2
SCR	51	288	2	96	96	5
TAP	52	192	0
TAP	52	192	7
TAP	53	0	2
TAP	53	96	1
TAP	53	96	3
TAP	53	192	5
TAP	53	288	4
TAP	53	288	6
TTP	54	0	0	C	0	M1
TTP	54	96	4	E	0	M1
TTP	54	192	1	B	0	M1
TTP	54	192	6	B	0	M1
TAP	55	0	0
TAP	55	0	1
TAP	55	96	2
TAP	55	96	3
TAP	55	192	4
TAP	55	192	5
STR	55	288	6
SCL	55	288	6	96	192	1
TAP	55	288	7
TAP	57	0	2
HLD	57	0	3	192
HLD	57	192	4	192
TTP	58	0	7	B	0	M1
TTP	58	96	0	C	0	M1
TTP	58	192	3	B	0	M1
STR	59	0	0
SCR	59	0	0	96	480	7
STR	61	0	7
SCL	61	0	7	96	480	0
HLD	63	0	2	192
TAP	63	192	3
TAP	63	288	3
TAP	64	0	4
TAP	64	96	4
TAP	64	192	2
TAP	64	192	5
TAP	65	0	3
TAP	65	0	6
TAP	65	48	3
STR	65	48	6
SCR	65	48	6	96	96	1
HLD	65	336	0	96
TAP	66	48	7
TAP	66	96	7
TAP	66	192	3
TAP	66	192	6
TAP	66	288	2
TAP	66	288	5
TAP	67	0	1
TAP	67	0	4
STR	67	48	1
SCL	67	48	1	96	96	6
TAP	67	48	4
TAP	67	336	7
STR	68	0	7
SI_	68	0	7	96	96	3
TAP	68	192	0
STR	69	0	2
SCR	69	0	2	96	96	5
TAP	69	192	6
TAP	69	288	6
STR	70	0	5
SCL	70	0	5	96	96	2
TAP	70	192	1
TAP	70	288	1
STR	71	0	2
SCR	71	0	2	96	96	5
TAP	71	192	6
TAP	71	288	6
TAP	72	0	5
TAP	72	96	4
TAP	72	192	3
TAP	72	192	4
HLD	73	0	2	288
TAP	73	0	3
TAP	73	96	3
TAP	73	192	3
TAP	73	288	3
TAP	74	0	4
HLD	74	0	5	288
TAP	74	96	4
TAP	74	192	4
TAP	74	288	4
XTP	75	0	6
XTP	75	96	0
XTP	75	96	7
XTP	75	144	0
XTP	75	144	7
XTP	75	240	1
XTP	75	240	6
XTP	75	336	3
XTP	75	336	4
XST	76	48	2
SCL	76	48	2	96	144	5
XTP	76	48	5
TAP	77	0	7
TAP	77	96	6
TAP	77	192	5
TAP	77	288	4
TAP	78	0	3
TAP	78	96	2
TAP	78	192	1
TAP	78	288	0
HLD	79	0	7	384
BRK	80	0	0
TAP	81	0	5
STR	81	192	4
SI_	81	192	4	96	192	0
TAP	81	192	5
TAP	82	192	0
TAP	83	0	2
TAP	83	192	2
STR	83	192	3
SI_	83	192	3	96	192	7
TAP	84	192	7
TAP	85	0	5
STR	85	192	4
SI_	85	192	4	96	192	0
TAP	85	192	5
TAP	86	192	0
TAP	87	0	2
TAP	87	192	3
TAP	88	0	4
TAP	88	48	4
TAP	88	96	3
TAP	88	144	3
TAP	88	192	4
TAP	88	288	2
TAP	88	288	5
TAP	89	0	7
TAP	89	96	4
TAP	89	96	6
TAP	89	192	0
TAP	89	288	1
TAP	89	288	3
TTP	90	0	0	C	0	M1
TTP	90	96	4	E	0	M1
TTP	90	192	1	B	0	M1
TTP	90	192	6	B	0	M1
TAP	91	0	6
TAP	91	0	7
TAP	91	96	4
TAP	91	96	5
TAP	91	192	2
TAP	91	192	3
TAP	91	288	0
STR	91	288	1
SCR	91	288	1	96	192	6
HLD	93	0	4	192
TAP	93	0	5
HLD	93	192	3	192
TTP	94	0	0	B	0	M1
TTP	94	96	0	C	0	M1
TTP	94	192	4	B	0	M1
TAP	94	288	3
TAP	94	288	5
HLD	95	0	6	96
TAP	95	96	4
HLD	95	192	1	96
TAP	95	288	3
TAP	96	0	5
TAP	96	96	4
TAP	96	96	5
TAP	96	192	3
TAP	96	192	6
TAP	96	288	2
TAP	96	288	3
STR	97	0	1
SCL	97	0	1	96	144	6
STR	98	0	4
SI_	98	0	4	96	144	0
HLD	99	0	0	672
TAP	100	0	4
TAP	100	96	4
TAP	100	192	4
TAP	100	288	4
TAP	101	0	5
TAP	101	96	4
TAP	101	96	6
TAP	101	192	2
TAP	101	288	1
TAP	101	288	3
TAP	102	0	0
TAP	102	48	0
TAP	102	96	7
TAP	102	192	4
TAP	102	192	6
TAP	102	288	3
TAP	102	288	4
TAP	103	0	2
TAP	103	96	1
TAP	103	96	3
TAP	103	192	5
TAP	103	288	4
TAP	103	288	6
TAP	104	0	7
TAP	104	48	7
TAP	104	96	0
TAP	104	192	1
TAP	104	192	3
TAP	104	288	3
TAP	104	288	4
TAP	105	0	2
TAP	105	0	5
TAP	105	96	7
TAP	105	144	7
TAP	105	240	0
TAP	105	240	4
TAP	105	336	1
TAP	105	336	5
TAP	106	48	2
TAP	106	48	6
TAP	106	144	3
TAP	106	144	7
TAP	106	240	0
TAP	106	288	0
HLD	107	0	7	96
TAP	107	96	0
TAP	107	144	0
STR	107	240	1
SCR	107	240	1	96	144	6
XTP	108	192	0
XTP	108	192	7
XTP	108	264	1
XTP	108	264	6
XTP	108	336	2
XTP	108	336	5
BRK	109	96	1
BRK	109	96	6

T_REC_TAP	277
T_REC_BRK	5
T_REC_XTP	19
T_REC_HLD	27
T_REC_XHO	0
T_REC_STR	26
T_REC_BST	0
T_REC_XST	1
T_REC_TTP	25
T_REC_THO	2
T_REC_SLD	27
T_REC_ALL	409
T_NUM_TAP	348
T_NUM_BRK	5
T_NUM_HLD	29
T_NUM_SLD	27
T_NUM_ALL	409
T_JUDGE_TAP	353
T_JUDGE_HLD	196
T_JUDGE_SLD	27
T_JUDGE_ALL	576
TTM_EACHPAIRS	84
TTM_SCR_TAP	174000
TTM_SCR_BRK	13000
TTM_SCR_HLD	29000
TTM_SCR_SLD	40500
TTM_SCR_ALL	256500
TTM_SCR_S	248350
TTM_SCR_SS	256000
TTM_RAT_ACV	10019

