VERSION	0.00.00	1.03.00
FES_MODE	0
BPM_DEF	164.000	190.000	190.000	164.000
MET_DEF	4	4
RESOLUTION	384
CLK_DEF	384
COMPATIBLE_CODE	MA2

BPM	0	0	164.000
BPM	15	0	190.000
MET	0	0	4	4
CLK	0	0
CLK	0	96
CLK	0	192
CLK	0	288

HLD	2	0	5	384
HLD	3	0	4	384
HLD	4	0	3	384
HLD	5	0	2	192
TAP	5	192	3
HLD	6	0	2	384
HLD	7	0	3	384
HLD	8	0	4	384
HLD	9	0	5	192
TAP	9	192	4
TAP	10	0	5
TAP	10	96	5
TAP	10	192	4
TAP	11	0	2
TAP	11	96	2
TAP	11	192	3
TAP	12	0	3
TAP	12	0	4
TAP	12	96	3
TAP	12	96	4
TAP	12	192	2
TAP	12	192	5
TAP	13	0	4
TAP	13	0	5
TAP	13	192	2
TAP	13	192	3
TAP	14	0	2
TAP	14	96	3
STR	14	192	3
SI_	14	192	3	96	288	0
STR	14	192	4
SI_	14	192	4	96	288	7
HLD	16	0	0	192
HLD	16	0	7	192
XTP	16	288	0
XTP	16	288	7
TAP	17	0	1
TAP	17	96	1
TAP	17	192	0
TAP	18	0	6
TAP	18	96	6
TAP	18	192	7
TAP	19	0	1
TAP	19	96	0
TAP	19	192	7
TAP	19	288	6
TAP	20	0	0
TAP	20	0	7
TAP	20	96	0
TAP	20	96	7
TAP	20	192	1
TAP	20	192	6
TAP	21	0	0
TAP	21	96	0
TAP	21	192	1
TAP	21	288	1
TAP	22	0	2
TAP	22	96	2
XTP	22	192	3
XTP	22	192	4
TTP	23	0	2	B	0	L1
TTP	23	192	0	C	0	L1
TTP	24	0	6	B	0	L1
TTP	25	0	5	B	0	L1
TTP	25	192	0	C	0	L1
TTP	26	0	1	B	0	L1
TTP	27	0	3	E	0	L1
TTP	27	0	5	E	0	L1
TTP	27	192	2	E	0	L1
TTP	27	192	6	E	0	L1
TTP	28	0	1	E	0	L1
TTP	28	0	7	E	0	L1
TTP	28	192	0	C	0	L1
HLD	29	0	0	192
HLD	29	0	7	192
TAP	30	0	0
TAP	30	0	7
TAP	30	96	0
TAP	30	96	7
BRK	30	192	1
BRK	30	192	6
TAP	31	0	6
TAP	31	96	6
TAP	31	192	6
TAP	31	192	7
TAP	32	0	1
TAP	32	96	1
TAP	32	192	0
TAP	32	192	1
STR	33	0	0
SI_	33	0	0	96	288	3
STR	33	0	7
SI_	33	0	7	96	288	4
BRK	34	192	3
BRK	34	192	4
HLD	35	0	2	192
TAP	35	192	3
HLD	36	0	5	192
TAP	36	192	4
TAP	37	0	2
TAP	37	96	3
TAP	37	192	4
TAP	37	288	5
HLD	38	0	3	96
HLD	38	0	4	96
XTP	38	192	2
XTP	38	192	5
STR	39	0	2
SXR	39	0	2	96	480	7
STR	41	0	5
SXL	41	0	5	96	480	0
TAP	43	0	0
TAP	43	0	7
TAP	43	96	0
TAP	43	96	7
TAP	43	192	1
TAP	43	192	6
TAP	43	288	1
TAP	43	288	6
BRK	44	0	2
BRK	44	0	5
TAP	45	0	2
TAP	45	96	1
TAP	45	192	0
TAP	45	288	7
TAP	46	0	6
TAP	46	96	6
TAP	46	192	5
TAP	46	192	7
TAP	47	0	5
TAP	47	96	6
TAP	47	192	7
TAP	47	288	0
TAP	48	0	1
TAP	48	96	1
TAP	48	192	0
TAP	48	192	2
HLD	49	0	2	192
HLD	49	192	3	192
HLD	50	0	4	192
HLD	50	192	5	192
TAP	51	0	4
TAP	51	96	3
TAP	51	192	2
TAP	51	288	1
TAP	52	0	0
TAP	52	0	7
TAP	52	96	0
TAP	52	96	7
BRK	52	192	1
BRK	52	192	6
TAP	53	0	6
TAP	53	96	7
TAP	53	192	0
TAP	53	288	1
TAP	54	0	2
TAP	54	96	2
TAP	54	192	1
TAP	54	192	3
TAP	55	0	1
TAP	55	96	0
STR	55	192	7
SI_	55	192	7	96	288	3
HLD	57	0	2	192
TAP	57	192	3
HLD	58	0	4	192
TAP	58	192	3
HLD	59	0	2	1152
HLD	59	0	5	1152
STR	63	0	6
SXR	63	0	6	96	480	2
TTP	65	0	1	B	0	L1
TTP	65	192	0	C	0	L1
TTP	66	0	5	B	0	L1
TTP	67	0	6	B	0	L1
TTP	67	192	0	C	0	L1
TTP	68	0	2	B	0	L1
HLD	69	0	2	192
TAP	69	192	3
HLD	70	0	3	192
TAP	70	192	4
HLD	71	0	5	192
TAP	71	192	4
XTP	72	0	3
XTP	72	0	6
TTP	73	0	3	E	0	L1
TTP	73	0	5	E	0	L1
TTP	74	0	2	B	0	L1
TTP	74	0	5	B	0	L1
TTP	75	0	6	B	0	L1
TTP	75	192	1	B	0	L1
TTP	76	0	0	C	1	L1
HLD	77	0	6	192
TAP	77	192	7
HLD	78	0	7	192
TAP	78	192	0
HLD	79	0	1	192
TAP	79	192	0
XTP	80	0	2
XTP	80	0	7
HLD	81	0	5	384
HLD	82	0	4	384
HLD	83	0	3	384
HLD	84	0	2	384
STR	85	0	3
SCL	85	0	3	96	288	0
STR	87	0	7
SCL	87	0	7	96	288	4
TAP	89	0	6
TAP	89	96	7
TAP	89	192	0
TAP	89	288	1
TAP	90	0	2
TAP	90	96	2
TAP	90	192	1
TAP	90	192	3
TAP	91	0	1
TAP	91	96	0
STR	91	192	7
SI_	91	192	7	96	288	3
HLD	93	0	2	192
TAP	93	192	3
HLD	94	0	5	192
TAP	94	192	4
TAP	95	0	2
TAP	95	96	3
TAP	95	192	4
TAP	95	288	5
TAP	96	0	3
TAP	96	0	4
TAP	96	96	3
TAP	96	96	4
XTP	96	192	2
XTP	96	192	5
TAP	97	0	1
TAP	97	96	0
TAP	97	192	0
TAP	97	192	7
STR	98	0	0
SXL	98	0	0	96	480	3
STR	98	0	7
SXR	98	0	7	96	480	4
TAP	100	0	4
TAP	100	96	4
TAP	100	192	4
TAP	100	288	3
TAP	100	288	5
TAP	101	0	2
TAP	101	96	2
TAP	101	192	3
TAP	102	0	5
TAP	102	96	5
TAP	102	192	4
TAP	103	0	2
TAP	103	96	3
TAP	103	192	4
TAP	103	288	5
TAP	104	0	3
TAP	104	0	4
TAP	104	96	3
TAP	104	96	4
TAP	104	192	2
TAP	104	192	5
TAP	105	0	3
TAP	105	96	3
TAP	105	192	2
TAP	105	288	2
TAP	106	0	1
TAP	106	96	1
BRK	106	192	0
BRK	106	192	7
TAP	107	0	7
TAP	107	96	7
TAP	107	192	6
TAP	107	288	6
TAP	108	0	5
TAP	108	96	5
BRK	108	192	3
BRK	108	192	4
THO	109	96	0	960	C	1	L1

T_REC_TAP	167
T_REC_BRK	12
T_REC_XTP	12
T_REC_HLD	36
T_REC_XHO	0
T_REC_STR	13
T_REC_BST	0
T_REC_XST	0
T_REC_TTP	26
T_REC_THO	1
T_REC_SLD	13
T_REC_ALL	280
T_NUM_TAP	218
T_NUM_BRK	12
T_NUM_HLD	37
T_NUM_SLD	13
T_NUM_ALL	280
T_JUDGE_TAP	230
T_JUDGE_HLD	240
T_JUDGE_SLD	13
T_JUDGE_ALL	483
TTM_EACHPAIRS	48
TTM_SCR_TAP	109000
TTM_SCR_BRK	31200
TTM_SCR_HLD	37000
TTM_SCR_SLD	19500
TTM_SCR_ALL	196700
TTM_SCR_S	189650
TTM_SCR_SS	195500
TTM_RAT_ACV	10061

