VERSION	0.00.00	1.03.00
FES_MODE	0
BPM_DEF	164.000	190.000	190.000	164.000
MET_DEF	4	4
RESOLUTION	384
CLK_DEF	384
COMPATIBLE_CODE	MA2

BPM	0	0	164.000
BPM	15	0	190.000
MET	0	0	4	4

TAP	10	0	0
TAP	11	0	0
TAP	12	0	7
TAP	13	0	7
TAP	14	0	0
HLD	15	0	0	384
TAP	17	0	0
TAP	18	0	0
TAP	19	0	1
TAP	20	0	1
TAP	21	0	2
TAP	22	0	2
TAP	23	0	3
TAP	24	0	3
TAP	25	0	4
TAP	26	0	4
TAP	27	0	5
TAP	28	0	5
HLD	29	0	6	384
TAP	31	0	7
TAP	32	0	7
TAP	33	0	6
TAP	34	0	6
TAP	35	0	5
TAP	36	0	5
TAP	37	0	4
BRK	38	0	3
BRK	38	0	4
TTP	39	0	2	B	0	L1
TTP	40	0	3	B	0	L1
TTP	41	0	4	B	0	L1
TTP	42	0	5	B	0	L1
THO	43	0	0	384	C	1	L1
TAP	45	0	0
TAP	45	192	0
TAP	46	0	0
TAP	47	0	1
TAP	47	192	1
TAP	48	0	1
TAP	49	0	2
TAP	49	192	2
TAP	50	0	3
TAP	50	192	3
TAP	51	0	4
TAP	51	192	4
XTP	52	0	3
XTP	52	0	4
TAP	53	0	5
TAP	53	192	5
TAP	54	0	5
HLD	55	0	6	384
TAP	57	0	7
TAP	57	192	7
TAP	58	0	0
TAP	58	0	7
STR	59	0	0
SI_	59	0	0	96	288	3
STR	61	0	7
SI_	61	0	7	96	288	4
HLD	63	0	0	384
TAP	65	0	7
TAP	66	0	7
TAP	67	0	6
TAP	68	0	6
TAP	69	0	5
TAP	69	192	5
TAP	70	0	4
TAP	70	192	4
TAP	71	0	3
TAP	71	192	3
XTP	72	0	3
XTP	72	0	4
TAP	73	0	2
TAP	74	0	2
TAP	75	0	1
TAP	75	192	1
TAP	76	0	1
TAP	77	0	0
TAP	77	192	0
TAP	78	0	7
TAP	78	192	7
STR	79	0	0
SI_	79	0	0	96	288	3
STR	79	0	7
SI_	79	0	7	96	288	4
TTP	81	0	2	B	0	L1
TTP	82	0	1	B	0	L1
TTP	83	0	0	B	0	L1
TTP	84	0	7	B	0	L1
TTP	85	0	6	B	0	L1
TTP	86	0	5	B	0	L1
THO	87	0	0	384	C	1	L1
TAP	89	0	0
TAP	89	192	0
TAP	90	0	1
TAP	90	96	1
TAP	90	192	1
TAP	91	0	2
TAP	91	192	2
XTP	92	0	3
XTP	92	0	4
TAP	93	0	4
TAP	93	192	4
TAP	94	0	3
TAP	94	192	3
HLD	95	0	4	384
TAP	97	0	3
TAP	97	192	3
TAP	98	0	4
TAP	98	192	4
HLD	99	0	2	384
HLD	99	0	5	384
TAP	101	0	2
TAP	101	192	2
TAP	102	0	2
TAP	102	96	2
TAP	102	192	2
TAP	103	0	1
TAP	103	192	1
TAP	104	0	1
TAP	104	96	1
TAP	104	192	1
TAP	105	0	0
TAP	105	192	0
TAP	106	0	0
TAP	106	96	0
TAP	106	192	0
TAP	107	0	7
TAP	107	192	7
TAP	108	0	0
STR	108	192	0
SI_	108	192	0	96	288	4

T_REC_TAP	95
T_REC_BRK	2
T_REC_XTP	6
T_REC_HLD	7
T_REC_XHO	0
T_REC_STR	5
T_REC_BST	0
T_REC_XST	0
T_REC_TTP	10
T_REC_THO	2
T_REC_SLD	5
T_REC_ALL	132
T_NUM_TAP	116
T_NUM_BRK	2
T_NUM_HLD	9
T_NUM_SLD	5
T_NUM_ALL	132
T_JUDGE_TAP	118
T_JUDGE_HLD	72
T_JUDGE_SLD	5
T_JUDGE_ALL	195
TTM_EACHPAIRS	7
TTM_SCR_TAP	58000
TTM_SCR_BRK	5200
TTM_SCR_HLD	9000
TTM_SCR_SLD	7500
TTM_SCR_ALL	79700
TTM_SCR_S	77150
TTM_SCR_SS	79500
TTM_RAT_ACV	10025

