VERSION	0.00.00	1.03.00
FES_MODE	0
BPM_DEF	145.000	145.000	145.000	145.000
MET_DEF	4	4
RESOLUTION	384
CLK_DEF	384
COMPATIBLE_CODE	MA2

BPM	0	0	145.000
MET	0	0	4	4

XHO	1	0	2	384
XTP	1	0	5
TTP	1	96	3	B	0	M1
TTP	1	96	4	B	0	M1
TTP	1	288	3	B	0	M1
TTP	1	288	4	B	0	M1
HLD	2	0	5	384
TTP	2	96	3	B	0	M1
TTP	2	96	4	B	0	M1
TTP	2	288	3	B	0	M1
TTP	2	288	4	B	0	M1
STR	3	0	2
SI_	3	0	2	96	48	7
STR	3	96	6
SI_	3	96	6	96	48	3
TAP	3	192	2
HLD	3	240	2	96
TAP	3	336	5
TAP	4	0	2
STR	4	0	5
SI_	4	0	5	96	48	0
STR	4	96	1
SI_	4	96	1	96	48	4
TAP	4	192	5
HLD	4	240	5	96
XTP	4	336	0
TAP	5	0	0
TAP	5	0	5
TAP	5	96	1
TAP	5	96	5
TAP	5	192	2
TAP	5	192	5
TAP	5	288	3
TAP	5	288	5
TAP	6	0	2
TAP	6	0	4
TAP	6	96	2
TAP	6	96	5
TAP	6	192	2
TAP	6	192	6
TAP	6	288	2
TAP	6	288	7
TAP	7	0	1
TAP	7	48	1
TAP	7	96	0
STR	7	144	0
SI_	7	144	0	96	48	4
TAP	7	192	7
TAP	7	240	7
TAP	7	288	6
TAP	7	336	6
TAP	8	0	3
TAP	8	0	5
TAP	8	48	2
TAP	8	48	4
TAP	8	96	3
TAP	8	96	5
TAP	8	144	2
TAP	8	144	4
TAP	8	192	1
STR	8	192	5
SCR	8	192	5	96	96	2
TAP	8	240	2
TAP	8	240	6
XTP	8	288	1
XTP	8	288	5
TAP	9	48	3
TAP	9	96	4
TAP	9	144	3
STR	9	192	2
SI_	9	192	2	96	48	4
TAP	9	240	5
TAP	9	288	5
TAP	10	0	6
TAP	10	0	7
TAP	10	48	0
TAP	10	48	5
TAP	10	96	1
HLD	10	96	4	72
HLD	10	168	5	72
TAP	10	240	6
TAP	10	288	1
TAP	10	312	0
TAP	10	336	1
TAP	10	360	0
HLD	11	0	1	72
HLD	11	72	2	72
TAP	11	144	3
TAP	11	192	3
TAP	11	192	4
BRK	11	240	1
TAP	11	288	3
TAP	11	288	4
BRK	11	336	6
TAP	12	0	0
TAP	12	0	1
TAP	12	48	2
TAP	12	48	7
HLD	12	96	3	72
TAP	12	96	6
HLD	12	168	2	72
TAP	12	240	1
TAP	12	288	6
TAP	12	312	7
TAP	12	336	6
TAP	12	360	7
HLD	13	0	6	72
HLD	13	72	5	72
TAP	13	144	4
TAP	13	192	3
TAP	13	192	4
TAP	13	240	3
TAP	13	240	4
BRK	13	288	1
BRK	13	288	6
TAP	14	0	1
TAP	14	48	2
TAP	14	96	3
TAP	14	96	4
TAP	14	144	1
TAP	14	192	2
TAP	14	192	3
TAP	14	240	0
TAP	14	288	3
TAP	14	288	4
TAP	14	336	1
HLD	15	0	2	48
HLD	15	0	3	48
HLD	15	72	4	48
HLD	15	72	5	48
TAP	15	144	0
TAP	15	144	7
TAP	15	240	0
TAP	15	288	7
TAP	15	336	6
TAP	16	0	4
TAP	16	0	5
TAP	16	48	7
TAP	16	96	3
TAP	16	96	4
TAP	16	144	6
TAP	16	192	4
TAP	16	192	5
TAP	16	240	7
TAP	16	288	3
TAP	16	288	4
TAP	16	336	6
HLD	17	0	4	48
HLD	17	0	5	48
STR	17	72	2
SCL	17	72	2	96	72	7
STR	17	72	3
SCR	17	72	3	96	72	6
XTP	17	288	0
XTP	17	288	4
XTP	17	336	1
XTP	17	336	5
XST	18	0	2
SI_	18	0	2	96	48	7
XST	18	0	6
SI_	18	0	6	96	48	3
STR	18	192	0
SV_	18	192	0	96	48	2
STR	18	192	4
SV_	18	192	4	96	48	6
TAP	18	240	0
TAP	18	240	4
TAP	19	0	1
TAP	19	0	5
TAP	19	48	1
TAP	19	48	5
STR	19	96	0
SSL	19	96	0	96	96	4
TAP	19	96	4
TAP	19	144	0
TAP	19	144	4
TAP	20	0	2
TAP	20	0	3
TAP	20	48	1
TAP	20	96	4
TAP	20	96	5
TAP	20	144	6
TAP	20	192	2
TAP	20	192	3
TAP	20	240	0
TAP	20	288	4
TAP	20	288	5
TAP	20	336	7
XHO	21	0	2	48
XHO	21	0	3	48
XHO	21	72	4	48
XHO	21	72	5	48
XST	21	144	1
SLR	21	144	1	96	96	7
XST	21	144	6
SLL	21	144	6	96	96	0
BRK	22	0	1
BRK	22	0	6
TTP	22	96	2	B	0	M1
TTP	22	96	3	E	0	M1
TTP	22	192	5	E	0	M1
TTP	22	192	5	B	0	M1
TAP	22	288	3
TAP	22	288	4
TAP	22	336	0
TAP	22	360	7
TAP	23	0	1
TAP	23	24	6
TAP	23	48	1
TAP	23	72	6
TAP	23	96	2
TAP	23	120	5
TAP	23	144	2
TAP	23	168	5
TAP	23	192	3
TAP	23	240	7
TAP	23	264	7
XTP	23	288	0
TAP	24	0	4
HLD	24	0	5	72
STR	24	72	6
SCR	24	72	6	96	120	3
TAP	24	336	2
TAP	24	336	3
HLD	25	0	2	72
TAP	25	0	3
STR	25	72	1
SCL	25	72	1	96	120	4
TAP	25	336	1
HLD	26	0	1	72
HLD	26	72	2	72
STR	26	144	3
SF_	26	144	3	96	48	7
XTP	26	240	3
TAP	26	336	1
TAP	26	336	5
TAP	27	0	1
HLD	27	0	5	72
HLD	27	72	6	72
TAP	27	144	7
HLD	27	192	2	72
TAP	27	192	6
HLD	27	264	1	72
TAP	27	336	0
TAP	28	0	1
TAP	28	0	5
STR	28	72	2
SCL	28	72	2	96	96	5
STR	28	72	3
SUL	28	72	3	96	96	4
TAP	28	336	2
TAP	28	336	6
STR	29	0	2
SCL	29	0	2	96	48	7
STR	29	0	6
SCL	29	0	6	96	48	3
XTP	29	96	2
XTP	29	96	6
THO	29	168	0	408	C	1	M1
STR	31	0	0
SI_	31	0	0	96	48	4
TAP	31	48	1
TAP	31	48	7
XTP	31	96	0
STR	31	192	6
SI_	31	192	6	96	48	2
TAP	31	240	5
TAP	31	240	7
XTP	31	288	6
STR	32	0	0
SF_	32	0	0	96	48	4
TAP	32	48	1
TAP	32	48	7
BRK	32	96	0
TAP	32	192	2
TAP	32	192	6
TAP	32	240	4
TAP	32	288	1
TAP	32	288	5
TAP	32	336	3
TAP	33	0	2
TAP	33	0	6
TAP	33	48	7
TAP	33	96	1
TAP	33	96	5
TAP	33	144	0
TAP	33	192	2
TAP	33	192	6
TAP	33	240	4
TAP	33	288	1
STR	33	288	5
SCR	33	288	5	96	96	2
TAP	33	336	3
BRK	34	0	0
TAP	34	192	0
TAP	34	192	1
TAP	34	240	2
TAP	34	288	3
TAP	34	288	4
TAP	34	336	5
HLD	35	0	6	72
TAP	35	0	7
HLD	35	72	5	72
TAP	35	144	4
TAP	35	192	2
TAP	35	192	3
TAP	35	240	1
TAP	35	336	1
TAP	36	0	0
HLD	36	0	1	72
HLD	36	72	2	72
TAP	36	144	3
STR	36	192	3
SXR	36	192	3	96	96	4
TAP	36	192	4
TAP	36	288	7
TAP	36	336	6
HLD	37	0	5	336
TAP	37	96	4
TAP	37	144	3
TAP	37	192	2
TAP	37	240	1
TAP	37	288	0
TAP	37	336	7
HLD	38	0	0	288
TAP	38	0	6
TAP	38	48	5
TAP	38	96	4
TAP	38	144	3
TAP	38	192	2
TAP	38	240	1
STR	38	288	7
SCL	38	288	7	96	96	0
BRK	39	96	7
STR	39	192	1
SI_	39	192	1	96	48	5
TAP	39	240	0
TAP	39	240	2
XTP	39	288	1
STR	40	0	7
SF_	40	0	7	96	48	3
TAP	40	48	0
TAP	40	48	6
BRK	40	96	7
TAP	40	192	1
TAP	40	192	5
TAP	40	240	3
TAP	40	288	2
TAP	40	288	6
TAP	40	336	4
TAP	41	0	2
TAP	41	0	3
TAP	41	48	1
TAP	41	96	4
TAP	41	96	5
TAP	41	144	6
TAP	41	192	2
TAP	41	192	3
STR	41	240	1
SLR	41	240	1	96	96	7
STR	41	288	4
SI_	41	288	4	96	48	6
BRK	42	96	0
TAP	42	192	1
TAP	42	240	3
TAP	42	288	4
TAP	42	336	6
XHO	43	0	6	72
XTP	43	72	7
TAP	43	144	2
TAP	43	168	3
XHO	43	192	1	72
XTP	43	264	0
TAP	43	336	5
TAP	43	360	4
XST	44	0	6
SI_	44	0	6	96	48	3
XST	44	96	0
SI_	44	96	0	96	48	5
XTP	44	96	6
XTP	44	192	0
XST	44	192	7
SI_	44	192	7	96	48	3
XTP	44	288	2
XTP	44	288	7
TAP	45	0	0
TAP	45	0	1
TAP	45	48	0
TAP	45	48	1
TAP	45	96	2
TAP	45	96	3
TAP	45	144	2
TAP	45	144	3
TAP	45	192	4
TAP	45	192	5
TAP	45	240	4
TAP	45	240	5
TAP	45	288	6
TAP	45	288	7
TAP	45	336	6
TAP	45	336	7
TAP	46	0	0
TAP	46	24	7
TAP	46	48	0
TAP	46	72	7
TAP	46	96	1
TAP	46	120	6
TAP	46	144	2
TAP	46	168	5
TAP	46	192	3
TAP	46	216	4
TAP	46	240	3
XTP	46	288	1
XTP	46	288	6
TAP	46	336	0
TAP	46	360	0
TAP	47	0	7
TAP	47	48	1
TAP	47	48	6
TTP	47	96	3	E	0	M1
TTP	47	96	3	B	0	M1
TTP	47	96	4	B	0	M1
TTP	47	96	5	E	0	M1
TAP	47	144	1
TAP	47	144	6
TAP	47	192	0
TAP	47	192	7
TAP	47	240	1
TAP	47	240	6
TTP	47	288	3	B	0	M1
TTP	47	288	3	E	0	M1
TTP	47	288	4	B	0	M1
TTP	47	288	5	E	0	M1
TAP	47	336	1
TAP	47	336	6
TAP	48	0	0
TAP	48	0	7
TAP	48	48	1
TAP	48	48	6
TTP	48	96	3	E	0	M1
TTP	48	96	3	B	0	M1
TTP	48	96	4	B	0	M1
TTP	48	96	5	E	0	M1
TAP	48	144	1
TAP	48	144	6
TAP	48	192	0
TAP	48	192	7
TAP	48	240	1
TAP	48	240	6
TTP	48	288	3	B	0	M1
TTP	48	288	3	E	0	M1
TTP	48	288	4	B	0	M1
TTP	48	288	5	E	0	M1
TAP	49	0	4
TAP	49	0	5
TAP	49	48	4
TAP	49	48	5
TTP	49	96	0	B	0	M1
TTP	49	96	0	E	0	M1
TTP	49	96	1	B	0	M1
TTP	49	96	2	E	0	M1
TAP	49	192	2
TAP	49	192	3
TAP	49	240	2
TAP	49	240	3
TTP	49	288	0	E	0	M1
TTP	49	288	6	E	0	M1
TTP	49	288	6	B	0	M1
TTP	49	288	7	B	0	M1
TAP	50	0	3
TAP	50	0	4
TAP	50	48	3
TAP	50	48	4
TTP	50	96	0	B	0	M1
TTP	50	96	0	E	0	M1
TTP	50	96	1	B	0	M1
TTP	50	96	6	B	0	M1
TTP	50	96	7	B	0	M1
TAP	50	192	2
TAP	50	192	5
TAP	50	240	2
TAP	50	240	5
BST	50	288	0
SXL	50	288	0	96	144	3
BST	50	288	7
SXR	50	288	7	96	144	4
TAP	51	192	1
TAP	51	192	6
TAP	51	240	3
TAP	51	240	4
BRK	51	288	0
BRK	51	288	7
TAP	52	0	0
TAP	52	0	2
TAP	52	48	5
TAP	52	48	7
TAP	52	96	1
TAP	52	96	3
TAP	52	144	4
TAP	52	144	6
TAP	52	192	1
TAP	52	192	5
TAP	52	240	2
TAP	52	240	6
TTP	52	288	0	E	0	M1
TTP	52	288	0	B	0	M1
TTP	52	288	0	C	1	M1
TTP	52	288	3	B	0	M1
TTP	52	288	4	B	0	M1
TTP	52	288	4	E	0	M1
TTP	52	288	7	B	0	M1
TAP	53	0	4
TAP	53	0	5
TAP	53	48	6
TAP	53	96	2
TAP	53	96	3
TAP	53	144	1
TAP	53	192	4
TAP	53	192	5
TAP	53	240	7
TAP	53	288	2
TAP	53	288	3
TAP	53	336	0
XHO	54	0	4	48
XHO	54	0	5	48
XHO	54	72	2	48
XHO	54	72	3	48
XST	54	144	1
SLR	54	144	1	96	96	7
XST	54	144	6
SLL	54	144	6	96	96	0
BRK	55	0	1
BRK	55	0	6
TTP	55	96	1	B	0	M1
TTP	55	96	2	E	0	M1
TTP	55	96	2	B	0	M1
TTP	55	192	5	B	0	M1
TTP	55	192	6	B	0	M1
TTP	55	192	6	E	0	M1
TAP	55	288	3
TAP	55	288	4
TAP	55	336	1
TAP	55	360	7
TAP	56	0	2
TAP	56	24	6
TAP	56	48	2
TAP	56	72	6
TAP	56	96	3
TAP	56	120	5
TAP	56	144	3
TAP	56	168	5
STR	56	192	4
SI_	56	192	4	96	48	0
TAP	56	240	7
TAP	56	264	7
XTP	56	288	7
TAP	57	0	2
TAP	57	0	6
STR	57	72	4
SUR	57	72	4	96	96	3
STR	57	72	5
SCR	57	72	5	96	96	2
TAP	57	336	1
TAP	57	336	5
TAP	58	0	1
TAP	58	0	5
STR	58	72	2
SCL	58	72	2	96	96	5
STR	58	72	3
SUL	58	72	3	96	96	4
TAP	58	336	2
TAP	58	336	6
TAP	59	0	2
HLD	59	0	6	72
HLD	59	72	5	72
STR	59	144	4
SF_	59	144	4	96	48	0
XTP	59	240	4
TAP	59	336	2
TAP	59	336	6
HLD	60	0	2	72
TAP	60	0	6
HLD	60	72	1	72
TAP	60	144	0
TAP	60	192	1
HLD	60	192	5	72
HLD	60	264	6	72
TAP	60	336	7
TAP	61	0	2
TAP	61	0	6
STR	61	72	0
SXL	61	72	0	96	120	3
STR	61	72	4
SXL	61	72	4	96	120	7
TAP	61	336	1
TAP	61	336	5
STR	62	0	1
SI_	62	0	1	96	48	4
STR	62	0	5
SI_	62	0	5	96	48	0
XTP	62	96	1
XTP	62	96	5
TAP	62	168	3
HLD	62	168	7	504
TTP	63	0	4	B	0	M1
TTP	63	96	0	C	0	M1
TTP	63	192	0	B	0	M1
TAP	63	288	0
TAP	63	312	7
TAP	63	336	0
TAP	63	360	7
TAP	64	0	0
TAP	64	48	0
TAP	64	96	1
TAP	64	96	7
TAP	64	144	1
TAP	64	144	7
TAP	64	192	2
TAP	64	192	6
TAP	64	240	2
TAP	64	240	6
TAP	64	288	3
TAP	64	288	5
TAP	64	336	3
TAP	64	336	5
TAP	65	0	4
TAP	65	24	3
TAP	65	48	5
TAP	65	72	2
TAP	65	96	6
TAP	65	120	1
TAP	65	144	7
TAP	65	168	0
XTP	65	192	7
XTP	65	204	6
XTP	65	216	5
XTP	65	228	4
XTP	65	240	3
XTP	65	252	2
XTP	65	264	1
XTP	65	276	0
XTP	65	288	7
STR	66	0	7
SI_	66	0	7	96	48	3
TAP	66	48	0
TAP	66	48	6
XTP	66	96	7
STR	66	192	1
SI_	66	192	1	96	48	5
TAP	66	240	0
TAP	66	240	2
XTP	66	288	1
STR	67	0	7
SF_	67	0	7	96	48	3
TAP	67	48	0
TAP	67	48	6
BRK	67	96	7
TAP	67	192	1
TAP	67	192	5
TAP	67	240	3
TAP	67	288	2
TAP	67	288	6
TAP	67	336	4
TAP	68	0	1
TAP	68	0	5
TAP	68	48	0
TAP	68	96	2
TAP	68	96	6
TAP	68	144	7
TAP	68	192	1
TAP	68	192	5
TAP	68	240	3
STR	68	288	2
SCL	68	288	2	96	96	5
TAP	68	288	6
TAP	68	336	4
BRK	69	0	7
TAP	69	192	6
TAP	69	192	7
TAP	69	240	5
TAP	69	288	3
TAP	69	288	4
TAP	69	336	2
TAP	70	0	0
HLD	70	0	1	72
HLD	70	72	2	72
TAP	70	144	3
TAP	70	192	4
TAP	70	192	5
TAP	70	240	6
TAP	70	336	6
HLD	71	0	6	72
TAP	71	0	7
HLD	71	72	5	72
TAP	71	144	4
TAP	71	192	3
STR	71	192	4
SXL	71	192	4	96	96	3
TAP	71	288	0
TAP	71	336	1
HLD	72	0	2	336
TAP	72	96	3
TAP	72	144	4
TAP	72	192	5
TAP	72	240	6
TAP	72	288	7
TAP	72	336	0
TAP	73	0	1
HLD	73	0	7	288
TAP	73	48	2
TAP	73	96	3
TAP	73	144	4
TAP	73	192	5
TAP	73	240	6
STR	73	288	0
SCR	73	288	0	96	96	7
BRK	74	96	0
STR	74	192	6
SI_	74	192	6	96	48	2
TAP	74	240	5
TAP	74	240	7
XTP	74	288	6
STR	75	0	0
SF_	75	0	0	96	48	4
TAP	75	48	1
TAP	75	48	7
BRK	75	96	0
TAP	75	192	2
TAP	75	192	6
TAP	75	240	4
TAP	75	288	1
TAP	75	288	5
TAP	75	336	3
TAP	76	0	4
TAP	76	0	5
TAP	76	48	6
TAP	76	96	2
TAP	76	96	3
TAP	76	144	1
TAP	76	192	4
TAP	76	192	5
STR	76	240	6
SLL	76	240	6	96	96	0
STR	76	288	4
SV_	76	288	4	96	48	7
TAP	77	96	1
TAP	77	96	6
TAP	77	192	3
TAP	77	192	5
TAP	77	240	2
TAP	77	240	4
TAP	77	288	3
TAP	77	288	5
TAP	77	336	2
TAP	77	336	4
XHO	78	0	1	72
XTP	78	72	0
TAP	78	144	5
TAP	78	168	4
XHO	78	192	6	72
XTP	78	264	7
TAP	78	336	2
TAP	78	360	3
XST	79	0	1
SI_	79	0	1	96	48	4
XTP	79	96	1
XST	79	96	7
SI_	79	96	7	96	48	2
XST	79	192	0
SI_	79	192	0	96	48	4
XTP	79	192	7
XTP	79	288	0
XST	79	288	7
SCL	79	288	7	96	96	0
BRK	80	96	7
STR	80	192	1
SI_	80	192	1	96	48	5
TAP	80	240	0
TAP	80	240	2
XTP	80	288	1
STR	81	0	7
SI_	81	0	7	96	48	3
TAP	81	48	0
TAP	81	48	6
XTP	81	96	7
TAP	81	192	1
TAP	81	192	5
TAP	81	240	3
TAP	81	288	2
TAP	81	288	6
TAP	81	336	4
TAP	82	0	2
TAP	82	0	3
TAP	82	48	0
TAP	82	96	4
TAP	82	96	5
TAP	82	144	7
TAP	82	192	2
TAP	82	192	3
TAP	82	240	0
STR	82	288	1
SI_	82	288	1	96	48	4
STR	82	288	6
SI_	82	288	6	96	48	3
XTP	83	0	1
XTP	83	0	6
BRK	83	96	0
BRK	83	96	7
TAP	83	192	3
TAP	83	192	6
TAP	83	240	2
TAP	83	240	4
TAP	83	288	3
TAP	83	288	5
TAP	83	336	1
TAP	83	336	4
XHO	84	0	6	72
XTP	84	72	7
TAP	84	144	2
TAP	84	168	3
XHO	84	192	1	72
XTP	84	264	0
TAP	84	336	5
TAP	84	360	4
XST	85	0	6
SI_	85	0	6	96	48	2
XST	85	96	1
SI_	85	96	1	96	48	5
XTP	85	96	6
XTP	85	192	1
XST	85	192	7
SF_	85	192	7	96	48	3
XTP	85	288	7
TAP	86	0	1
TAP	86	0	5
TAP	86	48	1
TAP	86	48	5
TAP	86	96	0
TAP	86	96	4
TAP	86	144	0
TAP	86	144	4
TAP	86	192	3
TAP	86	192	7
TAP	86	240	0
TAP	86	240	4
TAP	86	288	1
TAP	86	288	5
TAP	86	336	2
TAP	86	336	6
TAP	87	0	3
TAP	87	24	7
TAP	87	48	3
TAP	87	72	7
TAP	87	96	2
TAP	87	120	6
TAP	87	144	1
TAP	87	168	5
TAP	87	192	0
TAP	87	216	4
TAP	87	240	0
TAP	87	264	4
XTP	87	288	0
XTP	87	300	1
XTP	87	312	2
XTP	87	324	3
XTP	87	336	4
XTP	87	348	5
XTP	87	360	6
XTP	87	372	7
XHO	88	0	0	672
TAP	88	96	6
TAP	88	192	5
TAP	88	288	4
TTP	89	0	3	B	0	M1
TTP	89	96	0	C	0	M1
TTP	89	192	7	B	0	M1
XST	89	288	4
SI_	89	288	4	96	48	0
XHO	90	0	7	672
TAP	90	96	1
TAP	90	192	2
TAP	90	288	3
TTP	91	0	4	B	0	M1
TTP	91	96	0	C	0	M1
TTP	91	192	0	B	0	M1
TAP	91	288	0
HLD	92	0	1	576
TTP	92	96	4	B	0	M1
TTP	92	96	5	B	0	M1
TTP	92	288	2	B	0	M1
TTP	92	288	3	B	0	M1
TAP	93	0	4
TAP	93	96	5
TAP	93	192	6
STR	93	240	1
SI_	93	240	1	96	48	5
TAP	93	240	6
HLD	94	0	6	288
TTP	94	96	3	B	0	M1
TTP	94	96	4	B	0	M1
TAP	94	288	1
TTP	95	0	3	E	0	M1
TTP	95	0	7	E	0	M1
TTP	95	96	2	E	0	M1
TTP	95	96	6	E	0	M1
TTP	95	192	1	E	0	M1
TTP	95	192	5	E	0	M1
TTP	95	288	0	C	0	M1
TTP	95	288	0	E	0	M1
TTP	95	288	4	E	0	M1

T_REC_TAP	539
T_REC_BRK	22
T_REC_XTP	61
T_REC_HLD	46
T_REC_XHO	17
T_REC_STR	54
T_REC_BST	2
T_REC_XST	17
T_REC_TTP	78
T_REC_THO	1
T_REC_SLD	73
T_REC_ALL	910
T_NUM_TAP	749
T_NUM_BRK	24
T_NUM_HLD	64
T_NUM_SLD	73
T_NUM_ALL	910
T_JUDGE_TAP	773
T_JUDGE_HLD	198
T_JUDGE_SLD	73
T_JUDGE_ALL	1044
TTM_EACHPAIRS	219
TTM_SCR_TAP	374500
TTM_SCR_BRK	62400
TTM_SCR_HLD	64000
TTM_SCR_SLD	109500
TTM_SCR_ALL	610400
TTM_SCR_S	589800
TTM_SCR_SS	608000
TTM_RAT_ACV	10039

