VERSION	0.00.00	1.03.00
FES_MODE	0
BPM_DEF	145.000	145.000	145.000	145.000
MET_DEF	4	4
RESOLUTION	384
CLK_DEF	384
COMPATIBLE_CODE	MA2

BPM	0	0	145.000
MET	0	0	4	4

HLD	1	0	2	672
HLD	1	0	6	672
TTP	3	0	6	E	0	M1
TTP	3	96	0	C	0	M1
TTP	3	192	2	E	0	M1
TTP	4	0	0	E	0	M1
TTP	4	96	0	C	0	M1
TTP	4	192	4	E	0	M1
HLD	5	0	1	672
TAP	5	96	5
TAP	5	288	5
TAP	6	96	5
TAP	6	288	5
TTP	7	0	2	E	0	M1
TTP	7	96	0	C	0	M1
TTP	7	192	6	E	0	M1
TTP	8	0	0	E	0	M1
TTP	8	96	0	C	0	M1
TTP	8	192	4	E	0	M1
THO	9	0	0	192	C	1	M1
TAP	10	0	4
TAP	10	0	6
TAP	10	96	7
TAP	10	192	1
TAP	10	192	3
TAP	10	288	0
TAP	11	0	5
TAP	11	48	5
TAP	11	96	4
TAP	11	192	7
HLD	11	240	7	96
TAP	11	336	0
TAP	12	0	0
TAP	12	96	2
TAP	12	192	4
TAP	12	192	6
TAP	12	288	5
TAP	13	0	2
TAP	13	48	2
TAP	13	96	3
TAP	13	192	1
TAP	13	192	6
TAP	13	288	3
TAP	13	288	4
TAP	14	0	4
HLD	14	0	5	96
TAP	14	96	3
HLD	14	192	2	96
TAP	14	192	3
TAP	14	288	4
STR	15	0	6
SCR	15	0	6	96	96	1
TAP	15	288	3
TAP	15	288	4
HLD	16	0	2	96
TAP	16	0	3
TAP	16	96	4
TAP	16	192	4
HLD	16	192	5	96
TAP	16	288	3
TAP	17	0	4
STR	17	96	4
SI_	17	96	4	96	96	7
XHO	17	288	0	96
TAP	18	0	7
XTP	18	96	1
XTP	18	96	6
TAP	18	192	2
TAP	18	240	2
TAP	18	288	1
TAP	18	288	3
STR	19	0	6
SI_	19	0	6	96	96	2
TAP	19	192	0
TAP	19	240	0
TAP	19	336	6
HLD	20	0	6	96
HLD	20	96	4	96
HLD	20	192	3	96
TAP	20	288	1
TAP	21	0	2
TAP	21	0	3
TAP	21	72	3
TAP	21	72	4
TAP	21	144	4
TAP	21	144	5
TAP	21	240	7
TAP	21	288	7
XTP	22	0	2
XTP	22	0	5
TTP	22	96	4	E	0	M1
TTP	22	192	6	E	0	M1
TTP	22	288	0	E	0	M1
TTP	23	0	0	C	0	M1
TTP	23	96	4	E	0	M1
TTP	23	192	2	E	0	M1
TTP	23	288	0	E	0	M1
STR	24	0	7
SCL	24	0	7	96	96	4
TAP	24	192	3
TAP	24	288	1
STR	25	0	0
SCR	25	0	0	96	96	3
TAP	25	192	4
TAP	25	288	6
HLD	26	0	6	72
HLD	26	72	5	72
TAP	26	144	4
TAP	26	240	2
TAP	26	240	3
TAP	26	336	1
TAP	26	336	4
HLD	27	0	1	72
HLD	27	72	2	72
TAP	27	144	3
HLD	27	192	6	72
HLD	27	264	5	72
TAP	27	336	4
STR	28	0	0
SI_	28	0	0	96	96	4
TAP	28	336	2
TAP	28	336	5
TAP	29	0	2
TAP	29	0	5
TAP	29	72	3
TAP	29	72	4
XHO	29	168	1	408
XHO	29	168	6	408
TAP	30	240	0
TAP	30	240	7
TAP	30	288	1
TAP	30	288	6
TAP	31	0	3
TAP	31	0	5
TAP	31	48	1
TAP	31	96	7
TAP	31	192	2
TAP	31	192	4
TAP	31	240	6
TAP	31	288	0
TAP	32	0	3
TAP	32	0	5
TAP	32	48	1
TAP	32	96	0
TAP	32	96	7
TAP	32	192	7
TAP	32	240	6
TAP	32	288	5
TAP	32	336	4
TAP	33	0	3
TAP	33	48	2
TAP	33	96	1
TAP	33	144	0
STR	33	192	7
SI_	33	192	7	96	96	3
BRK	34	0	0
TAP	34	96	2
TAP	34	96	5
HLD	34	192	6	96
TAP	34	288	4
HLD	35	0	1	96
TAP	35	96	3
TAP	35	192	0
TAP	35	192	7
TAP	35	288	2
TAP	35	288	6
HLD	36	0	1	96
TAP	36	96	3
HLD	36	192	6	96
TAP	36	288	4
STR	37	0	0
SCR	37	0	0	96	144	6
TAP	37	240	7
STR	37	288	7
SCL	37	288	7	96	144	1
TAP	38	288	0
TAP	38	288	7
TAP	39	0	3
XTP	39	96	1
XTP	39	96	6
TAP	39	192	3
TAP	39	192	5
TAP	39	240	1
TAP	39	288	7
TAP	40	0	2
TAP	40	0	4
TAP	40	48	6
TAP	40	96	0
TAP	40	96	7
TAP	40	192	0
TAP	40	240	1
TAP	40	288	2
TAP	40	336	3
TAP	41	0	4
TAP	41	48	5
TAP	41	96	6
TAP	41	144	7
STR	41	192	0
SI_	41	192	0	96	96	4
BRK	42	0	7
XTP	42	96	2
XTP	42	96	5
HLD	42	192	1	96
TAP	42	288	3
HLD	43	0	6	96
TAP	43	96	4
TAP	43	192	0
TAP	43	192	7
TAP	43	288	1
TAP	43	288	5
HLD	44	0	6	96
TAP	44	96	4
HLD	44	192	1	96
TAP	44	288	3
STR	45	0	7
SCL	45	0	7	96	144	1
TAP	45	240	0
STR	45	288	0
SCR	45	288	0	96	144	6
XTP	46	288	7
TAP	47	0	5
TAP	47	96	4
TAP	47	96	6
TAP	47	192	2
TAP	47	288	1
TAP	47	288	3
TAP	48	0	6
TAP	48	96	4
TAP	48	96	7
TAP	48	192	1
TAP	48	288	0
TAP	48	288	3
TAP	49	0	0
TAP	49	0	7
TAP	49	48	0
TAP	49	48	7
TAP	49	96	0
TAP	49	96	7
TAP	49	192	2
TAP	49	192	5
TTP	49	288	3	B	0	M1
TTP	49	288	4	B	0	M1
TTP	49	288	4	E	0	M1
TTP	50	0	0	C	0	M1
TTP	50	96	0	B	0	M1
TTP	50	96	0	E	0	M1
TTP	50	96	7	B	0	M1
TAP	50	192	3
TAP	50	192	4
XTP	50	288	0
XTP	50	288	7
HLD	51	0	6	144
HLD	51	0	7	144
XTP	51	192	0
XTP	51	240	0
XTP	51	288	0
TTP	52	0	7	E	0	M1
TTP	52	48	7	B	0	M1
TTP	52	96	0	B	0	M1
TAP	52	192	3
TAP	52	192	4
XTP	52	288	1
XTP	52	288	6
HLD	53	0	5	96
TAP	53	96	4
HLD	53	192	2	96
TAP	53	288	3
XTP	54	0	3
XTP	54	0	4
XTP	54	72	2
XTP	54	72	5
XTP	54	144	1
XTP	54	144	6
TAP	54	240	7
HLD	54	288	7	96
STR	55	0	0
SCR	55	0	0	96	96	3
STR	55	192	4
SCR	55	192	4	96	96	7
STR	56	0	0
SCR	56	0	0	96	96	3
STR	56	192	4
SCR	56	192	4	96	96	7
STR	57	0	0
SCR	57	0	0	96	96	3
TAP	57	192	4
TAP	57	288	6
STR	58	0	7
SCL	58	0	7	96	96	4
TAP	58	192	3
TAP	58	288	1
HLD	59	0	1	72
HLD	59	72	2	72
TAP	59	144	3
TAP	59	240	4
TAP	59	240	5
TAP	59	336	3
TAP	59	336	6
HLD	60	0	6	72
HLD	60	72	5	72
TAP	60	144	4
HLD	60	192	1	72
HLD	60	264	2	72
TAP	60	336	3
STR	61	0	7
SI_	61	0	7	96	96	3
TAP	61	336	2
TAP	61	336	5
TAP	62	0	2
TAP	62	0	5
TAP	62	72	0
TAP	62	72	7
THO	62	168	0	216	C	1	M1
TAP	64	0	3
TAP	64	48	3
TAP	64	96	4
TAP	64	144	4
TAP	64	192	3
TAP	64	240	3
STR	64	288	4
SCR	64	288	4	96	192	3
BRK	65	288	1
BRK	65	288	6
TAP	66	0	2
TAP	66	0	4
TAP	66	48	6
TAP	66	96	0
TAP	66	192	3
TAP	66	192	5
TAP	66	240	1
TAP	66	288	7
TAP	67	0	2
TAP	67	0	4
TAP	67	48	6
TAP	67	96	0
TAP	67	96	7
TAP	67	192	0
TAP	67	240	1
TAP	67	288	2
TAP	67	336	3
TAP	68	0	4
TAP	68	48	5
TAP	68	96	6
TAP	68	144	7
STR	68	192	0
SI_	68	192	0	96	96	4
BRK	69	0	7
TAP	69	96	2
TAP	69	96	5
HLD	69	192	1	96
TAP	69	288	3
HLD	70	0	6	96
TAP	70	96	4
TAP	70	192	0
TAP	70	192	7
TAP	70	288	1
TAP	70	288	5
HLD	71	0	6	96
TAP	71	96	4
HLD	71	192	1	96
TAP	71	288	3
STR	72	0	7
SCL	72	0	7	96	144	1
TAP	72	240	0
STR	72	288	0
SCR	72	288	0	96	144	6
TAP	73	288	0
TAP	73	288	7
TAP	74	0	4
XTP	74	96	1
XTP	74	96	6
TAP	74	192	2
TAP	74	192	4
TAP	74	240	6
TAP	74	288	0
TAP	75	0	3
TAP	75	0	5
TAP	75	48	1
TAP	75	96	0
TAP	75	96	7
TAP	75	192	7
TAP	75	240	6
TAP	75	288	5
TAP	75	336	4
TAP	76	0	3
TAP	76	48	2
TAP	76	96	1
TAP	76	144	0
STR	76	192	7
SI_	76	192	7	96	96	3
BRK	77	0	0
XTP	77	96	2
XTP	77	96	5
HLD	77	192	6	96
TAP	77	288	4
HLD	78	0	1	96
TAP	78	96	3
TAP	78	192	0
TAP	78	192	7
TAP	78	288	2
TAP	78	288	6
XTP	79	0	0
XTP	79	0	1
XTP	79	96	2
XTP	79	96	3
XTP	79	192	4
XTP	79	192	5
XTP	79	288	6
XTP	79	288	7
BRK	80	0	0
TAP	80	192	6
TAP	80	240	6
TAP	80	288	3
TAP	80	288	7
TAP	81	0	1
TAP	81	48	1
TAP	81	96	0
TAP	81	96	4
TAP	81	192	4
HLD	81	192	5	96
HLD	81	288	7	96
HLD	82	0	0	96
TAP	82	96	2
TAP	82	192	4
TAP	82	240	4
TAP	82	288	3
TAP	83	0	1
TAP	83	0	6
XTP	83	96	0
STR	83	192	4
SCR	83	192	4	96	96	7
STR	84	0	3
SCL	84	0	3	96	96	0
STR	84	192	4
SCR	84	192	4	96	96	7
HLD	85	0	1	96
HLD	85	96	3	96
HLD	85	192	4	96
TAP	85	288	6
STR	86	0	7
SCL	86	0	7	96	144	1
TAP	86	240	0
STR	86	288	0
SCR	86	288	0	96	144	6
TAP	87	288	7
HLD	88	0	7	768
TTP	89	0	4	E	0	M1
TTP	89	96	2	E	0	M1
TTP	89	192	0	C	0	M1
HLD	90	0	0	768
TTP	91	0	6	E	0	M1
TTP	91	96	0	C	0	M1
TTP	91	192	2	E	0	M1
HLD	92	0	7	768
TTP	93	0	4	E	0	M1
TTP	93	96	0	E	0	M1
TTP	93	192	0	C	0	M1
HLD	94	0	0	672
XTP	94	288	7
TTP	95	0	0	E	0	M1
TTP	95	96	6	E	0	M1
TTP	95	192	4	E	0	M1
TTP	95	288	0	C	1	M1

T_REC_TAP	263
T_REC_BRK	7
T_REC_XTP	36
T_REC_HLD	52
T_REC_XHO	3
T_REC_STR	29
T_REC_BST	0
T_REC_XST	0
T_REC_TTP	42
T_REC_THO	2
T_REC_SLD	29
T_REC_ALL	463
T_NUM_TAP	370
T_NUM_BRK	7
T_NUM_HLD	57
T_NUM_SLD	29
T_NUM_ALL	463
T_JUDGE_TAP	377
T_JUDGE_HLD	225
T_JUDGE_SLD	29
T_JUDGE_ALL	631
TTM_EACHPAIRS	85
TTM_SCR_TAP	185000
TTM_SCR_BRK	18200
TTM_SCR_HLD	57000
TTM_SCR_SLD	43500
TTM_SCR_ALL	303700
TTM_SCR_S	293950
TTM_SCR_SS	303000
TTM_RAT_ACV	10023

