VERSION	0.00.00	1.03.00
FES_MODE	0
BPM_DEF	145.000	145.000	145.000	145.000
MET_DEF	4	4
RESOLUTION	384
CLK_DEF	384
COMPATIBLE_CODE	MA2

BPM	0	0	145.000
MET	0	0	4	4
CLK	0	0
CLK	0	96
CLK	0	192
CLK	0	288

TAP	5	0	2
TAP	5	96	2
TAP	5	192	3
TAP	5	288	3
TAP	6	0	4
TAP	6	96	4
TAP	6	192	5
TAP	6	288	5
TAP	7	0	6
TAP	7	96	6
TAP	7	192	7
TAP	7	288	7
TAP	8	0	0
TAP	8	0	7
TAP	8	96	1
TAP	8	96	6
BRK	8	192	2
BRK	8	192	5
THO	9	0	0	192	C	1	L1
TAP	10	0	6
TAP	10	96	7
TAP	10	192	6
TAP	10	192	7
TAP	11	0	1
TAP	11	96	0
TAP	11	192	0
TAP	11	192	1
TAP	12	0	6
TAP	12	96	7
TAP	12	192	0
TAP	12	288	1
TAP	13	0	0
TAP	13	0	7
TAP	13	96	0
TAP	13	96	7
XTP	13	192	1
XTP	13	192	6
TTP	14	0	2	B	0	L1
TTP	14	96	0	C	0	L1
TTP	14	192	6	B	0	L1
TTP	15	0	5	B	0	L1
TTP	15	96	0	C	0	L1
TTP	15	192	1	B	0	L1
TTP	16	0	3	E	0	L1
TTP	16	0	5	E	0	L1
TTP	16	192	2	E	0	L1
TTP	16	192	6	E	0	L1
TTP	17	0	1	E	0	L1
TTP	17	96	7	E	0	L1
TTP	17	192	0	C	0	L1
TTP	18	0	5	B	0	L1
TTP	18	96	0	C	0	L1
TTP	18	192	1	B	0	L1
TTP	19	0	2	B	0	L1
TTP	19	96	0	C	0	L1
TTP	19	192	6	B	0	L1
TTP	20	0	4	B	0	L1
TTP	20	0	5	B	0	L1
TTP	20	192	2	B	0	L1
TTP	20	192	3	B	0	L1
TTP	21	0	0	C	1	L1
STR	22	0	2
SI_	22	0	2	96	192	7
STR	23	0	6
SI_	23	0	6	96	192	3
STR	24	0	1
SI_	24	0	1	96	192	4
STR	25	0	5
SI_	25	0	5	96	192	0
TAP	26	0	1
TAP	26	96	1
TAP	26	192	2
TAP	26	288	2
TAP	27	0	3
TAP	27	96	3
TAP	27	192	4
TAP	27	288	4
TAP	28	0	5
TAP	28	96	5
TAP	28	192	6
TAP	28	288	6
STR	29	0	0
SXL	29	0	0	96	480	3
STR	29	0	7
SXR	29	0	7	96	480	4
TAP	31	0	2
TAP	31	0	3
TAP	31	96	1
TAP	31	192	0
TAP	31	192	7
TAP	31	288	0
TAP	31	288	7
TAP	32	0	6
TAP	32	0	7
TAP	32	96	5
TAP	32	192	3
TAP	32	192	4
TAP	32	288	3
TAP	32	288	4
TAP	33	0	2
TAP	33	96	2
TAP	33	96	3
TAP	33	192	5
TAP	33	288	4
TAP	33	288	5
TAP	34	0	3
TAP	34	0	4
TAP	34	96	2
TAP	34	96	5
XTP	34	192	1
XTP	34	192	6
TAP	35	0	2
TAP	35	96	2
TAP	35	192	1
TAP	35	192	3
TAP	35	288	4
TAP	36	0	5
TAP	36	96	5
TAP	36	192	4
TAP	36	192	6
STR	36	288	7
SCL	36	288	7	96	240	3
TAP	38	0	2
TAP	38	96	1
BRK	38	192	0
BRK	38	192	7
TAP	39	0	4
TAP	39	0	5
TAP	39	96	6
TAP	39	192	0
TAP	39	192	7
TAP	39	288	0
TAP	39	288	7
TAP	40	0	0
TAP	40	0	1
TAP	40	96	2
TAP	40	192	3
TAP	40	192	4
TAP	40	288	3
TAP	40	288	4
TAP	41	0	5
TAP	41	96	4
TAP	41	96	5
TAP	41	192	2
TAP	41	288	2
TAP	41	288	3
TAP	42	0	3
TAP	42	0	4
TAP	42	96	2
TAP	42	96	5
XTP	42	192	1
XTP	42	192	6
TAP	43	0	5
TAP	43	96	5
TAP	43	192	4
TAP	43	192	6
TAP	43	288	3
TAP	44	0	2
TAP	44	96	2
TAP	44	192	1
TAP	44	192	3
STR	44	288	0
SCR	44	288	0	96	240	4
TAP	46	0	5
TAP	46	96	6
BRK	46	192	0
BRK	46	192	7
TTP	47	0	4	B	0	L1
TTP	47	0	5	E	0	L1
TTP	47	192	3	E	0	L1
TTP	47	192	3	B	0	L1
TTP	48	0	5	B	0	L1
TTP	48	0	6	B	0	L1
TTP	48	192	1	B	0	L1
TTP	48	192	2	B	0	L1
TTP	49	0	5	E	0	L1
TTP	49	96	4	B	0	L1
TTP	49	192	3	B	0	L1
TTP	49	288	3	E	0	L1
THO	50	0	0	192	C	1	L1
TAP	51	0	1
TAP	51	96	1
TAP	51	192	2
TAP	51	288	2
TAP	52	0	3
TAP	52	96	4
BRK	52	192	2
BRK	52	192	5
TAP	53	0	6
TAP	53	96	7
TAP	53	192	0
TAP	53	288	1
TAP	54	0	0
TAP	54	0	7
TAP	54	96	0
TAP	54	96	7
BRK	54	192	1
BRK	54	192	6
STR	55	0	1
SI_	55	0	1	96	192	6
STR	56	0	5
SI_	56	0	5	96	192	2
STR	57	0	3
SI_	57	0	3	96	192	0
STR	58	0	7
SI_	58	0	7	96	192	4
TAP	59	0	2
TAP	59	96	2
TAP	59	192	1
TAP	59	288	1
TAP	60	0	0
TAP	60	96	0
TAP	60	192	7
TAP	60	288	7
TAP	61	0	6
TAP	61	96	6
TAP	61	192	5
TAP	61	288	5
STR	62	0	3
SXR	62	0	3	96	480	0
STR	62	0	4
SXL	62	0	4	96	480	7
THO	64	0	0	576	C	1	L1
TAP	66	0	6
TAP	66	0	7
TAP	66	96	5
TAP	66	192	3
TAP	66	192	4
TAP	66	288	3
TAP	66	288	4
TAP	67	0	2
TAP	67	0	3
TAP	67	96	1
TAP	67	192	0
TAP	67	192	7
TAP	67	288	0
TAP	67	288	7
TAP	68	0	6
TAP	68	96	6
TAP	68	96	7
TAP	68	192	1
TAP	68	288	0
TAP	68	288	1
TAP	69	0	0
TAP	69	0	7
TAP	69	96	1
TAP	69	96	6
XTP	69	192	2
XTP	69	192	5
TAP	70	0	6
TAP	70	96	6
TAP	70	192	5
TAP	70	192	7
TAP	70	288	0
TAP	71	0	1
TAP	71	96	1
TAP	71	192	0
TAP	71	192	2
STR	71	288	7
SCL	71	288	7	96	240	3
TAP	73	0	2
TAP	73	96	1
BRK	73	192	0
BRK	73	192	7
TAP	74	0	0
TAP	74	0	1
TAP	74	96	2
TAP	74	192	3
TAP	74	192	4
TAP	74	288	3
TAP	74	288	4
TAP	75	0	4
TAP	75	0	5
TAP	75	96	6
TAP	75	192	0
TAP	75	192	7
TAP	75	288	0
TAP	75	288	7
TAP	76	0	1
TAP	76	96	0
TAP	76	96	1
TAP	76	192	6
TAP	76	288	6
TAP	76	288	7
TAP	77	0	0
TAP	77	0	7
TAP	77	96	1
TAP	77	96	6
XTP	77	192	2
XTP	77	192	5
TAP	78	0	1
TAP	78	96	1
TAP	78	192	0
TAP	78	192	1
TAP	78	288	2
TAP	78	288	7
TAP	79	0	6
TAP	79	96	6
TAP	79	96	7
BRK	79	192	0
BRK	79	192	5
TAP	80	0	0
TAP	80	0	7
TAP	80	96	6
TAP	80	192	4
TAP	80	192	5
TAP	80	288	4
TAP	80	288	5
TAP	81	0	2
TAP	81	0	3
TAP	81	96	0
TAP	81	96	1
TAP	81	192	0
TAP	81	192	7
TAP	81	288	0
TAP	81	288	7
TAP	82	0	6
TAP	82	96	6
TAP	82	96	7
TAP	82	192	1
TAP	82	288	0
TAP	82	288	1
TAP	83	0	0
TAP	83	0	7
TAP	83	96	1
TAP	83	96	6
XTP	83	192	2
XTP	83	192	5
TAP	84	0	6
TAP	84	96	6
TAP	84	192	5
TAP	84	192	7
TAP	84	288	0
TAP	85	0	1
TAP	85	96	1
TAP	85	192	0
TAP	85	192	2
STR	85	288	7
SCL	85	288	7	96	240	3
TAP	87	0	2
TAP	87	96	3
BRK	87	192	1
BRK	87	192	4
TAP	88	0	5
TAP	88	96	4
TAP	88	192	4
TAP	88	192	5
TAP	89	0	2
TAP	89	96	3
TAP	89	192	2
TAP	89	192	3
TAP	90	0	5
TAP	90	96	4
TAP	90	192	3
TAP	90	288	2
TAP	91	0	3
TAP	91	0	4
TAP	91	96	3
TAP	91	96	4
XTP	91	192	2
XTP	91	192	5
TAP	92	0	1
TAP	92	96	0
TAP	92	192	0
TAP	92	192	1
TAP	93	0	6
TAP	93	96	7
TAP	93	192	6
TAP	93	192	7
TAP	94	0	1
TAP	94	96	0
TAP	94	192	7
TAP	94	288	6
TAP	95	0	0
TAP	95	0	7
TAP	95	96	0
TAP	95	96	7
XTP	95	192	1
XTP	95	192	6

T_REC_TAP	276
T_REC_BRK	16
T_REC_XTP	16
T_REC_HLD	0
T_REC_XHO	0
T_REC_STR	16
T_REC_BST	0
T_REC_XST	0
T_REC_TTP	36
T_REC_THO	3
T_REC_SLD	16
T_REC_ALL	379
T_NUM_TAP	344
T_NUM_BRK	16
T_NUM_HLD	3
T_NUM_SLD	16
T_NUM_ALL	379
T_JUDGE_TAP	360
T_JUDGE_HLD	20
T_JUDGE_SLD	16
T_JUDGE_ALL	396
TTM_EACHPAIRS	96
TTM_SCR_TAP	172000
TTM_SCR_BRK	41600
TTM_SCR_HLD	3000
TTM_SCR_SLD	24000
TTM_SCR_ALL	240600
TTM_SCR_S	231850
TTM_SCR_SS	239000
TTM_RAT_ACV	10066

