VERSION	0.00.00	1.03.00
FES_MODE	0
BPM_DEF	145.000	145.000	145.000	145.000
MET_DEF	4	4
RESOLUTION	384
CLK_DEF	384
COMPATIBLE_CODE	MA2

BPM	0	0	145.000
MET	0	0	4	4

TAP	5	0	0
TAP	6	0	0
TAP	7	0	7
TAP	8	0	7
XTP	9	0	0
TAP	10	0	0
TAP	10	192	0
TAP	11	0	0
TAP	12	0	1
TAP	12	192	1
TAP	13	0	1
TAP	14	0	2
TAP	14	192	2
TAP	15	0	2
TAP	16	0	3
TAP	16	192	3
TAP	17	0	3
TAP	18	0	4
TAP	18	192	4
TAP	19	0	4
TAP	20	0	5
TAP	20	192	5
TAP	21	0	5
STR	22	0	6
SI_	22	0	6	96	288	2
STR	24	0	1
SI_	24	0	1	96	288	5
TAP	26	0	6
TAP	26	192	6
TAP	27	0	7
TAP	27	192	7
TAP	28	0	0
TAP	28	192	0
STR	29	0	0
SI_	29	0	0	96	288	4
BRK	31	0	5
TAP	31	192	5
TAP	32	0	5
TAP	32	96	5
TAP	32	192	5
TAP	33	0	4
TAP	33	192	4
XTP	34	0	3
XTP	34	0	4
TAP	35	0	2
TAP	35	192	2
TAP	36	0	1
TAP	36	192	1
HLD	37	0	0	384
TAP	39	0	1
TAP	39	192	1
TAP	40	0	2
TAP	40	96	2
TAP	40	192	2
TAP	41	0	3
TAP	41	192	3
XTP	42	0	3
XTP	42	0	4
TAP	43	0	5
TAP	43	192	5
TAP	44	0	6
TAP	44	192	6
STR	45	0	7
SI_	45	0	7	96	288	3
TTP	47	0	2	B	0	L1
TTP	48	0	1	B	0	L1
TTP	49	0	0	B	0	L1
TTP	50	0	7	B	0	L1
TTP	51	0	6	B	0	L1
TTP	52	0	5	B	0	L1
TTP	53	0	4	B	0	L1
TTP	54	0	3	B	0	L1
TTP	54	0	4	B	0	L1
THO	55	0	0	768	C	1	L1
TAP	59	0	0
TAP	59	192	0
TAP	60	0	0
TAP	61	0	7
TAP	61	192	7
STR	62	0	7
SI_	62	0	7	96	288	3
BRK	66	0	0
TAP	66	96	0
TAP	66	192	0
TAP	67	0	1
TAP	67	96	1
TAP	67	192	1
TAP	68	0	2
TAP	68	96	2
TAP	68	192	2
TAP	69	0	3
TAP	69	0	4
TAP	69	192	3
TAP	69	192	4
TAP	70	0	4
TAP	70	96	4
TAP	70	192	4
TAP	71	0	5
TAP	71	96	5
TAP	71	192	5
HLD	72	0	6	384
TAP	74	0	7
TAP	74	96	7
TAP	74	192	7
TAP	75	0	6
TAP	75	96	6
TAP	75	192	6
TAP	76	0	5
TAP	76	96	5
TAP	76	192	5
TAP	77	0	3
TAP	77	0	4
TAP	77	192	3
TAP	77	192	4
TAP	78	0	3
TAP	78	96	3
TAP	78	192	3
TAP	79	0	2
TAP	79	96	2
TAP	79	192	2
STR	80	0	1
SI_	80	0	1	96	288	5
STR	82	0	6
SI_	82	0	6	96	288	2
TAP	84	0	3
TAP	84	96	3
TAP	84	192	3
TAP	85	0	4
TAP	85	96	4
TAP	85	192	4
HLD	86	0	3	384
HLD	86	0	4	384
TAP	88	0	3
TAP	88	192	3
TAP	89	0	3
TAP	90	0	2
TAP	90	192	2
TAP	91	0	2
TAP	92	0	1
TAP	92	192	1
TAP	93	0	1
TAP	94	0	0
TAP	94	0	7
TAP	94	192	0
TAP	94	192	7
TAP	95	0	0
TAP	95	96	0
TAP	95	192	7
XTP	95	288	7

T_REC_TAP	113
T_REC_BRK	2
T_REC_XTP	6
T_REC_HLD	4
T_REC_XHO	0
T_REC_STR	7
T_REC_BST	0
T_REC_XST	0
T_REC_TTP	9
T_REC_THO	1
T_REC_SLD	7
T_REC_ALL	149
T_NUM_TAP	135
T_NUM_BRK	2
T_NUM_HLD	5
T_NUM_SLD	7
T_NUM_ALL	149
T_JUDGE_TAP	137
T_JUDGE_HLD	48
T_JUDGE_SLD	7
T_JUDGE_ALL	192
TTM_EACHPAIRS	9
TTM_SCR_TAP	67500
TTM_SCR_BRK	5200
TTM_SCR_HLD	5000
TTM_SCR_SLD	10500
TTM_SCR_ALL	88200
TTM_SCR_S	85400
TTM_SCR_SS	88000
TTM_RAT_ACV	10022

