VERSION	0.00.00	1.03.00
FES_MODE	0
BPM_DEF	178.000	178.000	178.000	178.000
MET_DEF	4	4
RESOLUTION	384
CLK_DEF	384
COMPATIBLE_CODE	MA2

BPM	0	0	178.000
MET	0	0	4	4

TAP	1	0	5
TAP	1	0	7
TAP	1	64	4
TAP	1	64	6
TAP	1	128	3
TAP	1	128	5
TAP	1	192	0
TAP	1	192	2
TAP	1	256	1
TAP	1	256	3
TAP	1	320	2
TAP	1	320	4
TAP	2	0	5
TAP	2	0	7
TAP	2	64	4
TAP	2	64	6
TAP	2	128	3
TAP	2	128	5
HLD	2	192	4	72
TAP	2	264	3
TAP	2	288	4
TAP	2	336	2
TAP	2	336	6
STR	3	0	2
SI_	3	0	2	96	48	7
STR	3	0	6
SI_	3	0	6	96	48	2
XTP	3	96	2
XTP	3	96	6
STR	3	192	1
SI_	3	192	1	96	48	5
STR	3	192	5
SI_	3	192	5	96	48	0
XTP	3	288	1
XTP	3	288	5
TAP	4	0	3
TAP	4	0	6
TAP	4	72	1
TAP	4	72	4
TAP	4	144	2
TAP	4	144	5
STR	4	192	2
SCL	4	192	2	96	36	0
STR	4	192	5
SCR	4	192	5	96	36	7
TAP	5	0	2
TAP	5	24	3
TAP	5	48	2
TAP	5	72	3
TAP	5	96	2
TAP	5	144	5
TAP	5	168	4
TAP	5	192	5
TAP	5	216	4
TAP	5	240	5
TTP	5	288	0	B	0	M1
TTP	5	288	1	B	0	M1
TTP	5	288	1	E	0	M1
TTP	5	288	2	B	0	M1
TTP	5	288	7	B	0	M1
TAP	6	0	5
TAP	6	24	4
TAP	6	48	5
TAP	6	72	4
TAP	6	96	5
TAP	6	144	2
TAP	6	168	3
TAP	6	192	2
TAP	6	216	3
TAP	6	240	2
TTP	6	288	0	B	0	M1
TTP	6	288	5	B	0	M1
TTP	6	288	6	B	0	M1
TTP	6	288	7	B	0	M1
TTP	6	288	7	E	0	M1
TAP	7	0	2
TAP	7	24	3
TAP	7	48	2
TAP	7	72	3
TAP	7	96	2
TAP	7	144	5
TAP	7	168	4
TAP	7	192	5
TAP	7	216	4
TAP	7	240	5
TTP	7	288	0	B	0	M1
TTP	7	288	0	E	0	M1
TTP	7	288	1	B	0	M1
TTP	7	288	6	B	0	M1
TTP	7	288	7	B	0	M1
HLD	8	0	5	96
TAP	8	48	4
HLD	8	96	2	96
TAP	8	144	3
HLD	8	192	6	48
TAP	8	240	7
TAP	8	256	0
TAP	8	272	1
TAP	8	288	2
TAP	8	336	5
TAP	9	0	6
TAP	9	24	4
TAP	9	48	6
TAP	9	72	4
TAP	9	96	6
TAP	9	144	1
TAP	9	168	3
TAP	9	192	1
TAP	9	216	3
TAP	9	240	1
TTP	9	288	5	B	0	M1
TTP	9	288	6	B	0	M1
TTP	9	288	6	E	0	M1
TTP	9	288	7	B	0	M1
TTP	9	288	7	E	0	M1
TAP	10	0	1
TAP	10	24	3
TAP	10	48	1
TAP	10	72	3
TAP	10	96	1
TAP	10	144	6
TAP	10	168	4
TAP	10	192	6
TAP	10	216	4
TAP	10	240	6
TTP	10	288	0	B	0	M1
TTP	10	288	1	B	0	M1
TTP	10	288	1	E	0	M1
TTP	10	288	2	B	0	M1
TTP	10	288	2	E	0	M1
TAP	11	0	6
TAP	11	24	4
TAP	11	48	6
TAP	11	72	4
TAP	11	96	6
TAP	11	144	1
TAP	11	168	3
TAP	11	192	1
TAP	11	216	3
TAP	11	240	1
TTP	11	288	0	B	0	M1
TTP	11	288	0	C	0	M1
TTP	11	288	1	B	0	M1
TTP	11	288	6	B	0	M1
TTP	11	288	7	B	0	M1
HLD	12	0	2	96
TAP	12	48	3
HLD	12	96	5	96
TAP	12	144	4
HLD	12	192	1	48
TAP	12	240	0
TAP	12	256	7
TAP	12	272	6
TAP	12	288	5
TAP	12	336	2
STR	13	0	1
SXR	13	0	1	96	480	6
TTP	13	96	2	E	0	M1
TTP	13	144	3	E	0	M1
TTP	13	240	6	E	0	M1
TTP	13	288	5	E	0	M1
TTP	14	0	2	E	0	M1
TTP	14	48	3	E	0	M1
TTP	14	144	6	E	0	M1
TTP	14	192	5	E	0	M1
STR	14	288	4
SCL	14	288	4	96	48	2
TAP	14	288	5
BRK	15	0	4
BST	15	0	5
SI_	15	0	5	96	48	0
STR	15	96	4
SI_	15	96	4	96	48	1
TAP	15	96	5
TAP	15	192	4
STR	15	192	5
SCR	15	192	5	96	48	7
TAP	15	288	4
TAP	15	288	5
TAP	16	0	5
TAP	16	24	4
TAP	16	72	2
TAP	16	96	3
TAP	16	144	5
TAP	16	192	4
TAP	16	192	6
TAP	16	264	1
TAP	16	264	3
TAP	16	336	0
TAP	16	336	7
STR	17	0	6
SXL	17	0	6	96	480	1
TTP	17	96	6	E	0	M1
TTP	17	144	5	E	0	M1
TTP	17	240	2	E	0	M1
TTP	17	288	3	E	0	M1
TTP	18	0	6	E	0	M1
TTP	18	48	5	E	0	M1
TTP	18	144	2	E	0	M1
TTP	18	192	3	E	0	M1
TAP	18	288	2
STR	18	288	3
SCR	18	288	3	96	48	5
BST	19	0	2
SI_	19	0	2	96	48	7
BRK	19	0	3
TAP	19	96	2
STR	19	96	3
SI_	19	96	3	96	48	6
STR	19	192	2
SCL	19	192	2	96	48	0
TAP	19	192	3
TAP	19	288	2
TAP	19	288	3
TAP	20	0	2
TAP	20	0	3
TAP	20	48	1
TAP	20	72	3
TAP	20	96	2
TAP	20	144	6
TAP	20	168	4
TAP	20	192	5
TAP	20	240	0
TAP	20	264	7
TAP	20	288	1
TAP	20	312	6
TAP	20	336	2
TAP	20	360	5
STR	21	0	3
SLR	21	0	3	96	72	1
TAP	21	96	7
STR	21	144	7
SLR	21	144	7	96	72	5
TAP	21	240	2
STR	21	288	2
SLR	21	288	2	96	72	0
TAP	22	0	6
STR	22	48	6
SLR	22	48	6	96	72	4
TAP	22	144	1
TAP	22	192	2
TAP	22	240	3
TAP	22	288	2
TAP	22	288	5
TAP	22	336	6
STR	23	0	7
SLR	23	0	7	96	72	5
TAP	23	96	3
STR	23	144	3
SLR	23	144	3	96	72	1
TAP	23	240	6
STR	23	288	6
SLR	23	288	6	96	72	4
TAP	24	0	2
STR	24	48	2
SLR	24	48	2	96	72	0
TAP	24	144	5
TAP	24	192	6
TAP	24	240	7
TAP	24	288	1
TAP	24	288	6
TAP	25	0	3
TAP	25	0	4
TAP	25	48	2
TAP	25	48	5
TAP	25	144	5
TAP	25	144	6
TAP	25	192	4
TAP	25	192	7
TAP	25	288	1
TAP	25	288	2
TAP	25	336	0
TAP	25	336	3
TAP	26	48	0
TAP	26	48	7
TAP	26	96	1
TAP	26	96	6
STR	26	192	0
SI_	26	192	0	96	48	5
STR	26	192	7
SI_	26	192	7	96	48	5
XST	26	288	0
SCR	26	288	0	96	240	7
XST	26	288	7
SUR	26	288	7	96	240	0
BRK	27	0	0
BRK	27	0	7
TAP	28	0	1
TAP	28	0	6
TAP	28	48	5
TAP	28	72	4
TAP	28	96	6
TAP	28	144	2
TAP	28	168	3
TAP	28	192	1
TAP	28	240	4
TAP	28	264	3
TAP	28	288	4
TAP	28	336	2
TAP	28	336	5
TAP	29	0	3
TAP	29	0	6
STR	29	48	4
SCR	29	48	4	96	96	7
TAP	29	48	7
STR	29	144	7
SUR	29	144	7	96	96	4
STR	29	240	4
SCR	29	240	4	96	96	0
STR	29	336	0
SCR	29	336	0	96	96	4
STR	30	48	4
SUR	30	48	4	96	96	0
STR	30	144	0
SCR	30	144	0	96	96	3
TAP	30	240	4
TAP	30	336	7
TAP	31	0	6
TAP	31	48	4
TAP	31	48	5
TAP	31	144	4
TAP	31	192	3
TAP	31	192	5
TAP	31	240	2
TAP	31	288	1
TAP	31	288	3
TAP	31	336	4
STR	32	0	3
SXR	32	0	3	96	120	3
STR	32	0	5
SXL	32	0	5	96	120	5
TAP	32	336	2
TAP	32	336	5
TAP	33	0	1
TAP	33	0	4
TAP	33	48	0
STR	33	48	3
SCL	33	48	3	96	96	0
STR	33	144	0
SUL	33	144	0	96	96	3
STR	33	240	3
SCL	33	240	3	96	96	7
STR	33	336	7
SCL	33	336	7	96	96	3
STR	34	48	3
SUL	34	48	3	96	96	7
STR	34	144	7
SCL	34	144	7	96	96	4
TAP	34	240	3
TAP	34	336	0
HLD	35	0	1	96
TAP	35	48	5
HLD	35	96	6	96
TAP	35	144	2
TAP	35	192	1
TAP	35	240	0
STR	35	288	7
SCL	35	288	7	96	48	4
STR	36	0	0
SCR	36	0	0	96	48	3
TAP	36	0	7
TAP	36	96	0
STR	36	96	7
SCL	36	96	7	96	48	4
STR	36	192	0
SCR	36	192	0	96	48	3
TAP	36	192	7
TAP	36	288	0
TAP	36	288	7
BRK	37	0	1
BRK	37	0	6
TAP	37	72	4
TAP	37	72	5
TAP	37	144	2
TAP	37	144	3
TAP	37	192	1
TAP	37	192	4
TAP	37	264	2
TAP	37	264	3
TAP	37	336	2
TAP	37	336	5
TAP	38	0	1
TAP	38	0	6
TAP	38	48	1
TAP	38	48	6
TAP	38	72	2
TAP	38	72	5
STR	38	96	3
SI_	38	96	3	96	36	1
TAP	38	96	4
BRK	38	192	3
BST	38	192	4
SI_	38	192	4	96	36	6
BRK	38	288	3
BRK	38	288	4
TAP	39	0	2
TAP	39	24	3
TAP	39	72	3
TAP	39	96	2
TAP	39	144	1
TAP	39	144	4
TAP	39	192	5
TAP	39	216	4
TAP	39	264	4
TAP	39	288	5
TAP	39	336	3
TAP	39	336	6
TAP	40	0	5
TAP	40	24	4
TAP	40	72	2
TAP	40	96	3
BRK	40	144	1
BRK	40	144	5
BRK	40	192	1
HLD	40	192	5	192
HLD	41	0	7	48
HLD	41	48	6	48
HLD	41	96	5	48
HLD	41	144	4	48
HLD	41	192	3	48
HLD	41	240	2	48
HLD	41	288	1	48
HLD	41	336	0	48
HLD	42	0	7	48
HLD	42	48	6	48
HLD	42	96	5	48
HLD	42	144	4	48
HLD	42	192	3	48
HLD	42	240	2	48
HLD	42	288	1	48
HLD	42	336	0	48
TAP	43	0	7
TAP	43	48	6
TAP	43	72	0
TAP	43	96	7
TAP	43	144	7
STR	43	192	1
SCL	43	192	1	96	36	6
TAP	43	240	1
STR	43	288	5
SCL	43	288	5	96	36	2
TAP	43	336	5
STR	44	0	0
SI_	44	0	0	96	36	4
TAP	44	48	0
TTP	44	192	3	B	0	M1
TTP	44	192	3	E	0	M1
TTP	44	192	4	E	0	M1
TTP	44	192	5	B	0	M1
TTP	44	192	5	E	0	M1
TTP	44	192	6	E	0	M1
BRK	44	288	1
BRK	44	288	7
HLD	45	0	5	48
HLD	45	48	3	48
HLD	45	96	2	48
HLD	45	144	4	48
HLD	45	192	6	48
HLD	45	240	3	48
HLD	45	288	1	48
HLD	45	336	4	48
HLD	46	0	6	48
HLD	46	48	5	48
HLD	46	96	1	48
HLD	46	144	2	48
HLD	46	192	6	48
HLD	46	240	0	48
HLD	46	288	1	48
HLD	46	336	7	48
STR	47	0	5
SI_	47	0	5	96	48	3
TAP	47	96	2
STR	47	144	1
SI_	47	144	1	96	48	7
TAP	47	240	6
TAP	47	264	5
TAP	47	288	4
TAP	47	336	0
TAP	48	0	2
STR	48	0	3
SI_	48	0	3	96	36	0
TAP	48	72	5
TAP	48	144	7
HLD	48	192	0	192
STR	48	192	7
SI_	48	192	7	96	36	4
BRK	48	288	7
HLD	49	0	2	48
HLD	49	48	1	48
HLD	49	96	0	48
HLD	49	144	7	48
HLD	49	192	6	48
HLD	49	240	5	48
HLD	49	288	4	48
HLD	49	336	3	48
HLD	50	0	2	48
HLD	50	48	1	48
HLD	50	96	0	48
HLD	50	144	7	48
HLD	50	192	6	48
HLD	50	240	5	48
HLD	50	288	4	48
HLD	50	336	3	48
STR	51	0	2
SCR	51	0	2	96	36	5
TAP	51	48	2
STR	51	96	0
SI_	51	96	0	96	36	4
TAP	51	144	0
STR	51	192	7
SI_	51	192	7	96	36	3
TAP	51	240	7
STR	51	288	0
SCR	51	288	0	96	96	4
TAP	51	336	0
STR	52	0	4
SXL	52	0	4	96	120	4
SXR	52	0	4	96	120	4
BRK	52	288	1
BRK	52	288	7
STR	53	0	4
SCR	53	0	4	96	96	7
STR	53	96	7
SSR	53	96	7	96	96	3
STR	53	192	3
SCL	53	192	3	96	96	0
STR	53	288	0
SSL	53	288	0	96	96	4
STR	54	0	4
SCR	54	0	4	96	96	7
STR	54	96	7
SSR	54	96	7	96	96	3
XTP	54	192	0
XTP	54	240	0
XTP	54	288	0
STR	55	0	2
SI_	55	0	2	96	48	4
TAP	55	96	5
STR	55	144	6
SI_	55	144	6	96	48	0
TAP	55	240	1
TAP	55	264	2
TAP	55	288	3
TAP	55	336	7
TAP	56	0	4
TAP	56	0	5
TAP	56	72	2
TAP	56	72	3
TAP	56	144	1
TAP	56	144	6
STR	56	192	1
SCR	56	192	1	96	36	3
STR	56	192	6
SCL	56	192	6	96	36	4
TAP	57	0	1
TAP	57	0	6
TAP	57	64	2
TAP	57	64	7
TAP	57	128	0
TAP	57	128	3
TAP	57	192	1
TAP	57	192	4
TAP	57	256	2
TAP	57	256	5
TAP	57	320	3
TAP	57	320	6
TTP	58	0	6	E	0	M1
TTP	58	48	2	E	0	M1
TTP	58	96	5	E	0	M1
TTP	58	120	4	B	0	M1
TTP	58	144	3	B	0	M1
TTP	58	168	3	E	0	M1
TTP	58	192	7	E	0	M1
TTP	58	240	1	E	0	M1
TTP	58	288	0	E	0	M1
TAP	59	0	5
TAP	59	0	6
TAP	59	64	5
TAP	59	64	6
TAP	59	128	5
TAP	59	128	6
TAP	59	192	1
TAP	59	192	2
TAP	59	256	1
TAP	59	256	2
TAP	59	320	1
TAP	59	320	2
TTP	60	0	2	E	0	M1
TTP	60	24	6	E	0	M1
TTP	60	48	2	B	0	M1
TTP	60	72	5	B	0	M1
TTP	60	96	3	B	0	M1
TTP	60	120	4	B	0	M1
TTP	60	144	4	E	0	M1
TTP	60	192	7	E	0	M1
TTP	60	240	1	E	0	M1
TTP	60	288	0	C	0	M1
HLD	61	0	1	32
HLD	61	0	6	32
HLD	61	64	4	32
HLD	61	64	7	32
HLD	61	128	2	32
HLD	61	128	5	32
HLD	61	192	0	32
HLD	61	192	3	32
HLD	61	256	1	32
HLD	61	256	6	32
HLD	61	320	4	32
HLD	61	320	7	32
HLD	62	0	2	32
HLD	62	0	5	32
HLD	62	64	0	32
HLD	62	64	3	32
HLD	62	128	1	32
HLD	62	128	6	32
HLD	62	192	3	72
TAP	62	264	4
TAP	62	288	3
TAP	62	336	1
TAP	62	336	5
STR	63	0	1
SI_	63	0	1	96	48	5
STR	63	0	5
SI_	63	0	5	96	48	0
XTP	63	96	1
XTP	63	96	5
STR	63	192	2
SI_	63	192	2	96	48	7
STR	63	192	6
SI_	63	192	6	96	48	2
XTP	63	288	2
XTP	63	288	6
TAP	64	0	1
TAP	64	0	4
TAP	64	72	3
TAP	64	72	6
TAP	64	144	2
TAP	64	144	5
BST	64	192	2
SCL	64	192	2	96	36	0
BST	64	192	5
SCR	64	192	5	96	36	7
TAP	65	0	2
TAP	65	32	3
TAP	65	64	3
TAP	65	96	1
TAP	65	128	3
TAP	65	160	3
TAP	65	192	0
TAP	65	224	3
TAP	65	256	3
TAP	65	288	7
TAP	65	320	3
TAP	65	352	3
TAP	66	0	6
TAP	66	32	3
TAP	66	64	3
TAP	66	96	5
TAP	66	128	3
TAP	66	160	3
TAP	66	192	4
TAP	66	224	3
TAP	66	256	3
HLD	66	288	4	96
TAP	67	0	3
TAP	67	32	5
TAP	67	64	5
TAP	67	96	3
TAP	67	128	6
TAP	67	160	6
TAP	67	192	3
TAP	67	224	7
TAP	67	256	7
TAP	67	288	3
TAP	67	320	0
TAP	67	352	0
TAP	68	0	2
TAP	68	24	1
TAP	68	48	2
TAP	68	72	1
TAP	68	96	2
TAP	68	120	1
TAP	68	144	2
TAP	68	168	1
STR	68	192	2
SI_	68	192	2	96	36	6
BRK	68	288	2
BRK	68	288	5
TAP	69	0	5
TAP	69	32	4
TAP	69	64	4
TAP	69	96	6
TAP	69	128	4
TAP	69	160	4
TAP	69	192	7
TAP	69	224	4
TAP	69	256	4
TAP	69	288	0
TAP	69	320	4
TAP	69	352	4
TAP	70	0	1
TAP	70	32	4
TAP	70	64	4
TAP	70	96	2
TAP	70	128	4
TAP	70	160	4
TAP	70	192	3
TAP	70	224	4
TAP	70	256	4
HLD	70	288	3	96
STR	71	0	4
SI_	71	0	4	96	48	0
TAP	71	32	4
TAP	71	64	4
STR	71	192	3
SI_	71	192	3	96	48	7
TAP	71	224	3
TAP	71	256	3
XTP	72	0	2
XTP	72	0	6
TAP	72	32	2
TAP	72	32	6
TAP	72	64	2
TAP	72	64	6
XTP	72	96	1
XTP	72	96	5
TAP	72	128	1
TAP	72	128	5
TAP	72	160	1
TAP	72	160	5
XST	72	192	0
SI_	72	192	0	96	48	4
XTP	72	192	4
STR	72	288	0
SCR	72	288	0	96	768	7
SUL	72	288	0	96	768	7
TAP	72	288	7
BRK	73	0	0
TAP	77	0	4
TTP	77	48	2	E	0	M1
TTP	77	48	3	E	0	M1
TAP	77	144	3
TTP	77	192	5	E	0	M1
TTP	77	192	6	E	0	M1
TAP	77	288	5
TTP	77	336	1	E	0	M1
TTP	77	336	2	E	0	M1
TAP	78	48	2
TTP	78	96	6	E	0	M1
TTP	78	96	7	E	0	M1
TAP	78	192	5
TAP	78	216	2
TAP	78	240	5
TAP	78	264	2
TAP	78	288	5
TAP	78	312	2
TAP	78	336	5
TAP	78	360	2
STR	79	0	6
SCL	79	0	6	96	192	0
TAP	79	96	7
TAP	79	144	7
TAP	79	192	7
TAP	79	240	7
TAP	79	288	7
TAP	79	336	7
HLD	80	0	7	192
HLD	80	96	3	96
BRK	80	288	1
BRK	80	288	6
XTP	81	0	0
XTP	81	12	1
XTP	81	24	2
XTP	81	36	3
XTP	81	48	4
XTP	81	60	5
XTP	81	72	6
XTP	81	84	7
XTP	81	96	0
XTP	81	108	1
XTP	81	120	2
XTP	81	132	3
XTP	81	144	4
XTP	81	156	5
XTP	81	168	6
XTP	81	180	7
XTP	81	192	0
XTP	81	204	1
XTP	81	216	2
XTP	81	228	3
XTP	81	240	4
XTP	81	252	5
XTP	81	264	6
XTP	81	276	7
XTP	81	288	0
XTP	81	300	1
XTP	81	312	2
XTP	81	324	3
XTP	81	336	4
XTP	81	348	5
XTP	81	360	6
XTP	81	372	7
XTP	82	0	0
TTP	82	0	0	C	1	M1
XTP	82	12	1
XTP	82	24	2
XTP	82	36	3
XTP	82	48	4
XTP	82	60	5
XTP	82	72	6
XTP	82	84	7
XTP	82	96	0
TTP	82	96	0	C	1	M1
XTP	82	108	1
XTP	82	120	2
XTP	82	132	3
XTP	82	144	4
XTP	82	156	5
XTP	82	168	6
XTP	82	180	7
XTP	82	192	0
TTP	82	192	0	C	1	M1
XTP	82	288	1
XTP	82	336	6
STR	83	0	2
SCR	83	0	2	96	36	5
TAP	83	48	2
STR	83	96	7
SI_	83	96	7	96	36	3
TAP	83	144	7
STR	83	192	0
SI_	83	192	0	96	36	4
TAP	83	240	0
STR	83	288	7
SCL	83	288	7	96	96	3
TAP	83	336	7
STR	84	0	3
SXL	84	0	3	96	120	3
SXR	84	0	3	96	120	3
BRK	84	288	0
BRK	84	288	6
STR	85	0	3
SCL	85	0	3	96	96	0
STR	85	96	0
SSL	85	96	0	96	96	4
STR	85	192	4
SCR	85	192	4	96	96	7
STR	85	288	7
SSR	85	288	7	96	96	3
STR	86	0	3
SCL	86	0	3	96	96	0
STR	86	96	0
SSL	86	96	0	96	96	4
XTP	86	192	7
XTP	86	240	7
XTP	86	288	7
STR	87	0	5
SI_	87	0	5	96	48	3
TAP	87	96	2
STR	87	144	1
SI_	87	144	1	96	48	7
TAP	87	240	6
TAP	87	264	5
TAP	87	288	4
TAP	87	336	0
TAP	88	0	1
TAP	88	0	3
TAP	88	72	4
TAP	88	72	6
TAP	88	144	2
TAP	88	144	5
BST	88	192	2
SCL	88	192	2	96	36	0
BST	88	192	5
SCR	88	192	5	96	36	7
HLD	89	0	2	32
HLD	89	0	5	32
HLD	89	64	3	32
HLD	89	64	5	32
HLD	89	128	4	32
HLD	89	128	5	32
HLD	89	192	2	32
HLD	89	192	5	32
HLD	89	256	2	32
HLD	89	256	4	32
HLD	89	320	2	32
HLD	89	320	3	32
TTP	90	0	2	E	0	M1
TTP	90	48	6	E	0	M1
TTP	90	96	3	E	0	M1
TTP	90	120	3	B	0	M1
TTP	90	144	4	B	0	M1
TTP	90	168	5	E	0	M1
TTP	90	192	1	E	0	M1
TTP	90	240	7	E	0	M1
TTP	90	288	0	E	0	M1
HLD	91	0	2	32
HLD	91	0	5	32
HLD	91	64	1	32
HLD	91	64	4	32
TAP	91	128	0
TAP	91	128	3
HLD	91	192	2	32
HLD	91	192	5	32
HLD	91	256	3	32
HLD	91	256	6	32
TAP	91	320	4
TAP	91	320	7
TTP	92	0	6	E	0	M1
TTP	92	24	2	E	0	M1
TTP	92	48	5	B	0	M1
TTP	92	72	2	B	0	M1
TTP	92	96	4	B	0	M1
TTP	92	120	3	B	0	M1
TTP	92	144	4	E	0	M1
TTP	92	192	1	E	0	M1
TTP	92	240	7	E	0	M1
TTP	92	288	0	C	0	M1
HLD	93	0	1	32
HLD	93	0	6	32
HLD	93	64	0	32
HLD	93	64	3	32
HLD	93	128	2	32
HLD	93	128	5	32
HLD	93	192	4	32
HLD	93	192	7	32
HLD	93	256	1	32
HLD	93	256	6	32
HLD	93	320	0	32
HLD	93	320	3	32
HLD	94	0	2	32
HLD	94	0	5	32
HLD	94	64	4	32
HLD	94	64	7	32
HLD	94	128	1	32
HLD	94	128	6	32
HLD	94	192	4	72
TAP	94	264	3
TAP	94	288	4
TAP	94	336	2
TAP	94	336	6
STR	95	0	2
SI_	95	0	2	96	36	7
STR	95	0	6
SI_	95	0	6	96	36	2
BRK	95	96	2
BRK	95	96	6
STR	95	192	1
SI_	95	192	1	96	36	5
STR	95	192	5
SI_	95	192	5	96	36	0
BRK	95	288	1
BRK	95	288	5
TAP	96	0	3
TAP	96	0	6
TAP	96	72	1
TAP	96	72	4
TAP	96	144	2
TAP	96	144	5
TTP	96	192	0	C	1	M1
TTP	96	192	2	B	0	M1
TTP	96	192	3	B	0	M1
TTP	96	192	4	B	0	M1
TTP	96	192	5	B	0	M1
XTP	96	288	0
XTP	96	288	7
STR	97	0	1
SI_	97	0	1	96	36	5
STR	97	0	5
SCR	97	0	5	96	36	0
BRK	97	96	1
BRK	97	96	5
TTP	97	114	0	C	1	M1
STR	97	192	2
SCL	97	192	2	96	36	7
STR	97	192	6
SI_	97	192	6	96	36	2
BRK	97	288	2
BRK	97	288	6
TTP	97	306	0	C	1	M1
BRK	98	0	0
BRK	98	0	1
BRK	98	72	6
BRK	98	72	7
BRK	98	144	3
BRK	98	144	4
TTP	98	192	0	C	1	M1
TTP	98	192	1	B	0	M1
TTP	98	192	2	B	0	M1
TTP	98	192	2	E	0	M1
TTP	98	192	3	E	0	M1
TTP	98	192	5	B	0	M1
TTP	98	192	5	E	0	M1
TTP	98	192	6	B	0	M1
TTP	98	192	6	E	0	M1
BRK	98	288	0
BRK	98	288	7
TAP	99	0	6
TAP	99	24	7
TAP	99	48	6
TAP	99	72	7
TAP	99	96	5
TAP	99	144	2
TAP	99	168	3
TAP	99	192	2
TAP	99	216	3
TAP	99	240	1
BRK	99	288	0
BRK	99	288	4
TAP	100	0	1
TAP	100	24	0
TAP	100	48	1
TAP	100	72	0
TAP	100	96	2
TAP	100	144	5
TAP	100	168	4
TAP	100	192	5
TAP	100	216	4
TAP	100	240	6
BRK	100	288	3
BRK	100	288	7
TAP	101	0	6
TAP	101	24	7
TAP	101	48	6
TAP	101	72	7
TAP	101	96	5
TAP	101	144	2
TAP	101	168	3
TAP	101	192	2
TAP	101	216	3
TAP	101	240	1
BRK	101	288	0
BRK	101	288	4
XTP	102	0	2
XTP	102	0	3
TAP	102	48	2
TAP	102	48	3
XTP	102	96	4
XTP	102	96	5
TAP	102	144	4
TAP	102	144	5
XTP	102	192	1
XTP	102	192	6
TAP	102	240	1
TAP	102	240	6
TAP	102	264	2
TAP	102	264	5
TAP	102	288	3
TAP	102	288	4
TAP	102	336	2
TAP	102	336	5
TAP	103	0	0
TAP	103	24	0
TAP	103	48	7
TAP	103	144	0
TAP	103	144	7
TAP	103	160	1
TAP	103	160	6
TAP	103	176	2
TAP	103	176	5
STR	103	192	3
SSR	103	192	3	96	24	7
STR	103	192	4
SSL	103	192	4	96	24	0
TTP	103	294	3	B	0	M1
TTP	103	294	4	B	0	M1
TTP	103	300	0	C	1	M1
TTP	103	306	0	B	0	M1
TTP	103	306	7	B	0	M1

T_REC_TAP	485
T_REC_BRK	46
T_REC_XTP	78
T_REC_HLD	121
T_REC_XHO	0
T_REC_STR	97
T_REC_BST	7
T_REC_XST	3
T_REC_TTP	122
T_REC_THO	0
T_REC_SLD	110
T_REC_ALL	1069
T_NUM_TAP	785
T_NUM_BRK	53
T_NUM_HLD	121
T_NUM_SLD	110
T_NUM_ALL	1069
T_JUDGE_TAP	838
T_JUDGE_HLD	142
T_JUDGE_SLD	110
T_JUDGE_ALL	1090
TTM_EACHPAIRS	183
TTM_SCR_TAP	392500
TTM_SCR_BRK	137800
TTM_SCR_HLD	121000
TTM_SCR_SLD	165000
TTM_SCR_ALL	816300
TTM_SCR_S	786700
TTM_SCR_SS	811000
TTM_RAT_ACV	10065

