VERSION	0.00.00	1.03.00
FES_MODE	0
BPM_DEF	178.000	178.000	178.000	178.000
MET_DEF	4	4
RESOLUTION	384
CLK_DEF	384
COMPATIBLE_CODE	MA2

BPM	0	0	178.000
MET	0	0	4	4

HLD	1	0	4	64
HLD	1	64	5	64
HLD	1	128	6	64
HLD	1	192	7	64
HLD	1	256	0	64
HLD	1	320	1	64
HLD	2	0	2	64
HLD	2	64	3	64
HLD	2	128	4	64
TAP	2	192	3
TAP	2	264	3
TAP	2	288	4
TAP	2	336	3
TAP	2	336	5
STR	3	0	2
SI_	3	0	2	96	48	7
STR	3	0	6
SI_	3	0	6	96	48	3
STR	3	192	1
SI_	3	192	1	96	48	4
STR	3	192	5
SI_	3	192	5	96	48	0
TAP	4	0	0
TAP	4	0	7
TAP	4	72	2
TAP	4	72	5
TAP	4	144	3
TAP	4	144	4
TAP	4	192	1
TAP	4	192	6
BRK	4	288	7
STR	5	0	1
SI_	5	0	1	96	48	4
TAP	5	48	1
STR	5	96	5
SI_	5	96	5	96	48	0
TAP	5	144	5
TAP	5	192	1
TTP	5	288	3	B	0	M1
TTP	5	288	3	E	0	M1
TTP	5	288	4	B	0	M1
TTP	5	288	5	E	0	M1
STR	6	0	6
SI_	6	0	6	96	48	3
TAP	6	48	6
STR	6	96	2
SI_	6	96	2	96	48	7
TAP	6	144	2
TAP	6	192	6
TTP	6	288	3	E	0	M1
TTP	6	288	3	B	0	M1
TTP	6	288	4	B	0	M1
TTP	6	288	5	E	0	M1
STR	7	0	1
SI_	7	0	1	96	48	4
TAP	7	48	1
STR	7	96	5
SI_	7	96	5	96	48	0
TAP	7	144	5
TAP	7	192	1
TTP	7	288	3	E	0	M1
TTP	7	288	3	B	0	M1
TTP	7	288	4	B	0	M1
TTP	7	288	5	E	0	M1
TAP	8	0	1
TAP	8	48	0
TAP	8	96	7
TAP	8	144	6
STR	8	192	3
SCL	8	192	3	96	48	0
TAP	8	192	5
TAP	8	288	7
STR	9	0	6
SI_	9	0	6	96	48	3
TAP	9	48	6
STR	9	96	2
SI_	9	96	2	96	48	7
TAP	9	144	2
TAP	9	192	6
TTP	9	288	4	E	0	M1
TTP	9	288	4	B	0	M1
TTP	9	288	5	B	0	M1
TTP	9	288	6	E	0	M1
STR	10	0	1
SI_	10	0	1	96	48	4
TAP	10	48	1
STR	10	96	5
SI_	10	96	5	96	48	0
TAP	10	144	5
TAP	10	192	1
TTP	10	288	2	E	0	M1
TTP	10	288	2	B	0	M1
TTP	10	288	3	B	0	M1
TTP	10	288	4	E	0	M1
STR	11	0	6
SI_	11	0	6	96	48	3
TAP	11	48	6
STR	11	96	2
SI_	11	96	2	96	48	7
TAP	11	144	2
TAP	11	192	6
TTP	11	288	4	B	0	M1
TTP	11	288	4	E	0	M1
TTP	11	288	5	B	0	M1
TTP	11	288	6	E	0	M1
TAP	12	0	6
TAP	12	48	7
TAP	12	96	0
TAP	12	144	1
TAP	12	192	2
TAP	12	240	3
TAP	12	288	4
TAP	12	336	5
STR	13	0	5
SI_	13	0	5	96	48	2
TAP	13	96	2
STR	13	144	1
SI_	13	144	1	96	48	6
TAP	13	240	6
STR	13	288	5
SI_	13	288	5	96	48	2
TAP	14	0	2
STR	14	48	1
SI_	14	48	1	96	48	6
TAP	14	144	6
TAP	14	192	5
TAP	14	288	3
TAP	14	288	4
TAP	15	0	3
TAP	15	0	6
TAP	15	48	5
TAP	15	72	4
TAP	15	96	5
TAP	15	144	3
TAP	15	144	6
TAP	15	192	2
TAP	15	240	2
TAP	15	288	1
TAP	15	288	4
TAP	16	0	2
TAP	16	24	3
TAP	16	72	3
TAP	16	96	2
TAP	16	144	2
TAP	16	192	1
TAP	16	192	4
TAP	16	264	2
TAP	16	264	5
TAP	16	336	3
TAP	16	336	6
STR	17	0	2
SI_	17	0	2	96	48	5
TAP	17	96	5
STR	17	144	6
SI_	17	144	6	96	48	1
TAP	17	240	1
STR	17	288	2
SI_	17	288	2	96	48	5
TAP	18	0	5
STR	18	48	6
SI_	18	48	6	96	48	1
TAP	18	144	1
TAP	18	192	2
TAP	18	288	3
TAP	18	288	4
TAP	19	0	1
TAP	19	0	4
TAP	19	48	2
TAP	19	72	3
TAP	19	96	1
TAP	19	144	5
TAP	19	168	4
TAP	19	192	6
TAP	19	240	0
TAP	19	288	0
TAP	19	288	7
TAP	20	0	3
TAP	20	0	6
TAP	20	48	5
TAP	20	72	4
TAP	20	96	6
TAP	20	144	2
TAP	20	168	3
TAP	20	192	1
TAP	20	240	7
TAP	20	288	0
TAP	20	288	7
STR	21	0	4
SI_	21	0	4	96	48	7
TAP	21	0	5
TAP	21	96	6
STR	21	192	3
SI_	21	192	3	96	48	7
TAP	21	192	5
TAP	21	288	6
STR	22	0	4
SI_	22	0	4	96	48	7
TAP	22	0	5
TAP	22	96	6
TAP	22	192	3
TAP	22	192	5
TAP	22	240	2
TAP	22	288	2
TAP	22	288	4
TAP	23	0	2
STR	23	0	3
SI_	23	0	3	96	48	0
TAP	23	96	1
TAP	23	192	2
STR	23	192	4
SI_	23	192	4	96	48	0
TAP	23	288	1
TAP	24	0	2
STR	24	0	3
SI_	24	0	3	96	48	0
TAP	24	96	1
TAP	24	192	2
TAP	24	192	4
TAP	24	240	5
TAP	24	288	3
TAP	24	288	5
TAP	25	0	2
TAP	25	48	1
TAP	25	48	3
TAP	25	144	5
TAP	25	192	4
TAP	25	192	6
TAP	25	288	2
TAP	25	288	3
TAP	25	336	1
TAP	25	336	4
TAP	26	48	4
TAP	26	48	5
TAP	26	96	3
TAP	26	96	6
STR	26	192	0
SI_	26	192	0	96	48	4
STR	26	192	7
SI_	26	192	7	96	48	3
TAP	26	288	0
TAP	26	288	7
TAP	27	0	1
TAP	27	0	6
TAP	27	48	2
TAP	27	72	3
TAP	27	96	1
TAP	27	144	7
STR	27	192	0
SI_	27	192	0	96	48	3
TAP	27	288	7
TAP	28	0	3
TAP	28	0	6
TAP	28	48	5
TAP	28	72	4
TAP	28	96	6
TAP	28	144	0
TAP	28	192	7
TAP	28	240	1
TAP	28	240	6
TAP	28	288	2
TAP	28	288	5
STR	29	0	4
SCR	29	0	4	96	48	7
TAP	29	48	3
TAP	29	96	2
STR	29	192	5
SCR	29	192	5	96	48	0
TAP	29	240	4
TAP	29	288	3
STR	30	0	6
SCR	30	0	6	96	48	1
TAP	30	48	5
TAP	30	96	4
STR	30	192	7
SCR	30	192	7	96	48	2
TAP	30	240	6
TAP	30	288	5
STR	31	0	0
SCR	31	0	0	96	48	3
TAP	31	48	7
TAP	31	96	6
STR	31	192	1
SCR	31	192	1	96	48	4
TAP	31	240	0
TAP	31	288	7
STR	32	0	2
SCR	32	0	2	96	48	5
TAP	32	48	1
STR	32	96	0
SUL	32	96	0	96	144	7
STR	33	0	3
SCL	33	0	3	96	48	0
TAP	33	48	4
TAP	33	96	5
STR	33	192	2
SCL	33	192	2	96	48	7
TAP	33	240	3
TAP	33	288	4
STR	34	0	1
SCL	34	0	1	96	48	6
TAP	34	48	2
TAP	34	96	3
STR	34	192	0
SCL	34	192	0	96	48	5
TAP	34	240	1
TAP	34	288	2
STR	35	0	7
SCL	35	0	7	96	48	4
TAP	35	48	0
TAP	35	96	1
STR	35	192	6
SCL	35	192	6	96	48	3
TAP	35	240	7
TAP	35	288	0
HLD	36	0	2	144
TAP	36	0	5
HLD	36	96	6	144
HLD	36	192	1	144
HLD	36	288	7	96
BRK	37	0	0
TAP	37	72	1
TAP	37	72	3
TAP	37	144	3
TAP	37	144	4
TAP	37	192	4
TAP	37	192	6
TAP	37	264	0
TAP	37	264	7
TAP	37	336	1
TAP	37	336	3
TAP	38	0	3
TAP	38	0	4
TAP	38	72	4
TAP	38	72	6
TAP	38	144	6
TAP	38	144	7
STR	38	192	6
SI_	38	192	6	96	48	2
STR	38	192	7
SI_	38	192	7	96	48	3
XTP	38	288	6
XTP	38	288	7
TAP	39	0	0
TAP	39	0	7
TAP	39	72	4
TAP	39	72	6
TAP	39	144	3
TAP	39	144	4
TAP	39	192	1
TAP	39	192	3
TAP	39	264	0
TAP	39	264	7
TAP	39	336	4
TAP	39	336	6
TAP	40	0	3
TAP	40	0	4
TAP	40	72	1
TAP	40	72	3
TAP	40	144	0
TAP	40	144	7
BRK	40	192	1
BRK	40	192	6
STR	40	288	7
SCL	40	288	7	96	96	3
STR	41	0	3
SCL	41	0	3	96	96	7
STR	41	96	7
SCL	41	96	7	96	96	3
STR	41	192	3
SCL	41	192	3	96	96	7
STR	41	288	7
SCL	41	288	7	96	96	3
STR	42	0	3
SCL	42	0	3	96	96	7
STR	42	96	7
SCL	42	96	7	96	96	3
TAP	42	192	3
TAP	42	288	7
TAP	43	0	0
TAP	43	48	5
TAP	43	72	4
STR	43	96	6
SCL	43	96	6	96	48	3
TAP	43	144	6
TAP	43	192	2
TAP	43	240	2
STR	43	288	1
SI_	43	288	1	96	48	4
TAP	43	336	1
STR	44	0	6
SI_	44	0	6	96	48	3
TAP	44	48	6
TAP	44	96	1
TAP	44	144	1
TAP	44	192	2
TAP	44	192	5
TAP	44	240	6
TAP	44	288	0
TAP	44	288	7
TTP	45	0	4	E	0	M1
TTP	45	0	5	E	0	M1
TTP	45	96	2	E	0	M1
TTP	45	96	2	B	0	M1
TTP	45	96	3	B	0	M1
TTP	45	192	0	C	0	M1
TTP	45	192	6	E	0	M1
TTP	45	288	0	B	0	M1
TTP	45	288	0	E	0	M1
TTP	45	288	1	E	0	M1
TTP	46	0	3	E	0	M1
TTP	46	0	4	E	0	M1
TTP	46	96	4	B	0	M1
TTP	46	96	5	B	0	M1
TTP	46	96	6	E	0	M1
TTP	46	192	0	C	0	M1
TTP	46	192	2	E	0	M1
TTP	46	288	0	E	0	M1
TTP	46	288	7	E	0	M1
TTP	46	288	7	B	0	M1
STR	47	0	5
SI_	47	0	5	96	48	3
TAP	47	96	2
STR	47	144	1
SI_	47	144	1	96	48	7
TAP	47	240	6
TAP	47	288	6
TAP	47	336	6
TAP	48	0	4
TAP	48	0	5
TAP	48	72	3
TAP	48	72	4
TAP	48	144	2
TAP	48	144	3
TAP	48	192	1
TAP	48	192	4
BST	48	288	0
SCR	48	288	0	96	96	4
BRK	48	288	6
STR	49	0	4
SCR	49	0	4	96	96	0
STR	49	96	0
SCR	49	96	0	96	96	4
STR	49	192	4
SCR	49	192	4	96	96	0
STR	49	288	0
SCR	49	288	0	96	96	4
STR	50	0	4
SCR	50	0	4	96	96	0
STR	50	96	0
SCR	50	96	0	96	96	4
TAP	50	192	4
TAP	50	288	0
TAP	51	0	7
TAP	51	48	2
TAP	51	72	3
STR	51	96	1
SCR	51	96	1	96	48	4
TAP	51	144	1
TAP	51	192	5
TAP	51	240	5
STR	51	288	6
SI_	51	288	6	96	48	3
TAP	51	336	6
STR	52	0	1
SI_	52	0	1	96	48	4
TAP	52	48	1
TAP	52	96	6
TAP	52	144	6
TAP	52	192	2
TAP	52	192	5
TAP	52	240	1
TAP	52	288	0
TAP	52	288	7
TTP	53	0	3	E	0	M1
TTP	53	0	4	E	0	M1
TTP	53	96	4	B	0	M1
TTP	53	96	5	B	0	M1
TTP	53	96	6	E	0	M1
TTP	53	192	0	C	0	M1
TTP	53	192	2	E	0	M1
TTP	53	288	0	E	0	M1
TTP	53	288	7	E	0	M1
TTP	53	288	7	B	0	M1
TTP	54	0	4	E	0	M1
TTP	54	0	5	E	0	M1
TTP	54	96	2	B	0	M1
TTP	54	96	2	E	0	M1
TTP	54	96	3	B	0	M1
TTP	54	192	0	C	0	M1
TTP	54	192	6	E	0	M1
TTP	54	288	0	E	0	M1
TTP	54	288	0	B	0	M1
TTP	54	288	1	E	0	M1
STR	55	0	2
SI_	55	0	2	96	48	4
TAP	55	96	5
STR	55	144	6
SI_	55	144	6	96	48	0
TAP	55	240	1
TAP	55	288	1
TAP	55	336	1
TAP	56	0	2
TAP	56	0	3
TAP	56	72	3
TAP	56	72	4
TAP	56	144	4
TAP	56	144	5
TAP	56	192	3
STR	56	192	6
SI_	56	192	6	96	48	2
BRK	56	288	0
TAP	57	0	3
TAP	57	0	4
TAP	57	64	2
TAP	57	64	3
TAP	57	128	1
TAP	57	128	2
TAP	57	192	3
TAP	57	192	4
TAP	57	256	4
TAP	57	256	5
TAP	57	320	5
TAP	57	320	6
TTP	58	0	3	E	0	M1
TTP	58	48	4	B	0	M1
TTP	58	96	3	B	0	M1
TTP	58	144	5	E	0	M1
TTP	58	192	0	C	0	M1
TTP	58	240	7	E	0	M1
TTP	58	288	1	E	0	M1
TAP	59	0	3
TAP	59	0	4
TAP	59	64	4
TAP	59	64	5
TAP	59	128	5
TAP	59	128	6
TAP	59	192	3
TAP	59	192	4
TAP	59	256	2
TAP	59	256	3
TAP	59	320	1
TAP	59	320	2
TTP	60	0	5	E	0	M1
TTP	60	48	3	B	0	M1
TTP	60	96	4	B	0	M1
TTP	60	144	3	E	0	M1
TTP	60	192	0	C	0	M1
TTP	60	240	1	E	0	M1
TTP	60	288	7	E	0	M1
TAP	61	0	2
XTP	61	0	5
TAP	61	64	3
XTP	61	64	6
TAP	61	128	4
XTP	61	128	7
XTP	61	192	2
TAP	61	192	5
XTP	61	256	1
TAP	61	256	4
XTP	61	320	0
TAP	61	320	3
TAP	62	0	2
XTP	62	0	5
TAP	62	64	3
XTP	62	64	6
TAP	62	128	4
XTP	62	128	7
XTP	62	192	2
XTP	62	192	5
TAP	62	264	3
TAP	62	288	4
TAP	62	336	4
STR	63	0	1
SI_	63	0	1	96	48	4
STR	63	0	5
SI_	63	0	5	96	48	1
XTP	63	96	1
XTP	63	96	5
STR	63	192	2
SI_	63	192	2	96	48	6
STR	63	192	6
SI_	63	192	6	96	48	3
XTP	63	288	2
XTP	63	288	6
TAP	64	0	1
TAP	64	0	3
TAP	64	72	4
TAP	64	72	6
TAP	64	144	2
TAP	64	144	5
TTP	64	192	0	C	1	M1
TTP	64	192	3	B	0	M1
TTP	64	192	4	B	0	M1
XTP	64	288	0
XTP	64	288	7
TAP	65	0	2
TAP	65	32	3
TAP	65	64	2
XTP	65	96	5
TAP	65	128	4
TAP	65	160	5
TAP	65	192	2
TAP	65	224	3
TAP	65	256	2
XTP	65	288	5
TAP	65	320	4
TAP	65	352	5
TAP	66	0	2
TAP	66	32	3
TAP	66	64	1
XTP	66	96	5
TAP	66	128	4
TAP	66	160	6
TAP	66	192	2
TAP	66	224	3
TAP	66	256	1
XTP	66	288	5
TAP	66	320	4
TAP	66	352	6
TAP	67	0	1
TAP	67	32	3
TAP	67	64	2
XTP	67	96	6
TAP	67	128	4
TAP	67	160	5
TAP	67	192	1
TAP	67	224	3
TAP	67	256	2
XTP	67	288	6
TAP	67	320	4
TAP	67	352	5
TAP	68	0	3
TAP	68	24	4
TAP	68	48	3
TAP	68	72	4
TAP	68	96	3
TAP	68	120	4
TAP	68	144	3
TAP	68	168	4
TAP	68	192	3
TAP	68	288	1
TAP	68	288	6
TAP	69	0	5
TAP	69	32	4
TAP	69	64	6
XTP	69	96	2
TAP	69	128	3
TAP	69	160	1
TAP	69	192	5
TAP	69	224	4
TAP	69	256	6
XTP	69	288	2
TAP	69	320	3
TAP	69	352	1
TAP	70	0	6
TAP	70	32	7
TAP	70	64	5
XTP	70	96	1
TAP	70	128	0
TAP	70	160	2
TAP	70	192	6
TAP	70	224	7
TAP	70	256	5
XTP	70	288	1
TAP	70	320	0
TAP	70	352	2
TAP	71	0	6
TAP	71	32	4
HLD	71	64	5	128
TAP	71	192	1
TAP	71	224	3
HLD	71	256	2	128
TAP	72	0	7
TAP	72	32	7
TAP	72	64	7
TAP	72	96	0
TAP	72	128	0
TAP	72	160	0
TAP	72	192	1
TAP	72	192	6
STR	72	288	3
SCL	72	288	3	96	1344	4
TAP	72	288	4
THO	73	0	0	1344	C	0	M1
TTP	77	0	4	E	0	M1
TTP	77	96	3	E	0	M1
TTP	77	192	2	E	0	M1
TTP	77	288	1	E	0	M1
TTP	78	0	0	E	0	M1
TTP	78	96	7	E	0	M1
TTP	78	192	6	E	0	M1
TTP	78	288	5	E	0	M1
TAP	79	0	2
TAP	79	0	5
TAP	79	48	2
TAP	79	48	5
TAP	79	96	2
TAP	79	96	5
TAP	79	144	2
TAP	79	144	5
TAP	79	192	2
TAP	79	192	5
TAP	79	240	2
TAP	79	240	5
TAP	79	288	2
TAP	79	288	5
TAP	79	336	2
TAP	79	336	5
HLD	80	0	2	192
HLD	80	0	5	96
BRK	80	288	7
XTP	81	0	0
XTP	81	12	1
XTP	81	24	2
XTP	81	36	3
XTP	81	48	4
XTP	81	60	5
XTP	81	72	6
XTP	81	84	7
XTP	81	96	0
XTP	81	108	1
XTP	81	120	2
XTP	81	132	3
XTP	81	144	4
XTP	81	156	5
XTP	81	168	6
XTP	81	180	7
XTP	81	192	0
XTP	81	204	1
XTP	81	216	2
XTP	81	228	3
XTP	81	240	4
XTP	81	252	5
XTP	81	264	6
XTP	81	276	7
XTP	81	288	0
XTP	81	300	1
XTP	81	312	2
XTP	81	324	3
XTP	81	336	4
XTP	81	348	5
XTP	81	360	6
XTP	81	372	7
XTP	82	0	0
XTP	82	12	1
XTP	82	24	2
XTP	82	36	3
XTP	82	48	4
XTP	82	60	5
XTP	82	72	6
XTP	82	84	7
XTP	82	96	0
XTP	82	108	1
XTP	82	120	2
XTP	82	132	3
XTP	82	144	4
XTP	82	156	5
XTP	82	168	6
XTP	82	180	7
XTP	82	192	0
XTP	82	240	2
XTP	82	288	4
XTP	82	336	6
STR	83	0	1
SCR	83	0	1	96	48	4
TAP	83	48	1
TAP	83	96	6
TAP	83	144	6
STR	83	192	5
SI_	83	192	5	96	48	0
TAP	83	240	5
TAP	83	288	1
TAP	83	336	1
TAP	84	0	2
TAP	84	48	2
STR	84	96	3
SI_	84	96	3	96	48	0
TAP	84	144	5
TAP	84	192	6
TAP	84	240	7
TAP	84	288	0
TAP	84	288	7
TAP	85	0	4
TAP	85	0	6
TAP	85	48	3
TTP	85	96	1	E	0	M1
TTP	85	96	7	B	0	M1
TAP	85	192	1
TAP	85	192	3
TAP	85	240	4
TTP	85	288	0	B	0	M1
TTP	85	288	7	E	0	M1
TAP	86	0	4
TAP	86	0	6
TAP	86	48	3
TTP	86	96	1	E	0	M1
TTP	86	96	7	B	0	M1
TAP	86	192	1
TAP	86	192	3
TAP	86	240	4
TTP	86	288	0	B	0	M1
TTP	86	288	7	E	0	M1
STR	87	0	4
SCL	87	0	4	96	48	1
STR	87	0	5
SCR	87	0	5	96	48	0
STR	87	192	2
SCL	87	192	2	96	48	7
STR	87	192	3
SCR	87	192	3	96	48	6
TAP	88	0	4
TAP	88	0	5
TAP	88	72	3
TAP	88	72	4
TAP	88	144	2
TAP	88	144	3
STR	88	192	1
SI_	88	192	1	96	48	5
TAP	88	192	4
BRK	88	288	7
TAP	89	0	6
TAP	89	0	7
TAP	89	64	3
TAP	89	64	4
TAP	89	128	2
TAP	89	128	5
TAP	89	192	0
TAP	89	192	1
TAP	89	256	3
TAP	89	256	4
TAP	89	320	3
TAP	89	320	4
TTP	90	0	3	E	0	M1
TTP	90	48	4	B	0	M1
TTP	90	96	3	B	0	M1
TTP	90	144	5	E	0	M1
TTP	90	192	1	E	0	M1
TTP	90	192	7	E	0	M1
TTP	90	240	2	E	0	M1
TTP	90	240	6	E	0	M1
TTP	90	288	3	E	0	M1
TTP	90	288	5	E	0	M1
TAP	91	0	0
TAP	91	0	1
TAP	91	64	3
TAP	91	64	4
TAP	91	128	2
TAP	91	128	5
TAP	91	192	6
TAP	91	192	7
TAP	91	256	3
TAP	91	256	4
TAP	91	320	3
TAP	91	320	4
TTP	92	0	5	E	0	M1
TTP	92	48	3	B	0	M1
TTP	92	96	4	B	0	M1
TTP	92	144	3	E	0	M1
TTP	92	192	1	E	0	M1
TTP	92	192	7	E	0	M1
TTP	92	240	2	E	0	M1
TTP	92	240	6	E	0	M1
TTP	92	288	3	E	0	M1
TTP	92	288	5	E	0	M1
XTP	93	0	2
TAP	93	0	5
XTP	93	64	1
TAP	93	64	4
XTP	93	128	0
TAP	93	128	3
TAP	93	192	2
XTP	93	192	5
TAP	93	256	3
XTP	93	256	6
TAP	93	320	4
XTP	93	320	7
XTP	94	0	2
TAP	94	0	5
XTP	94	64	1
TAP	94	64	4
XTP	94	128	0
TAP	94	128	3
XTP	94	192	2
XTP	94	192	5
TAP	94	264	4
TAP	94	288	3
TAP	94	336	3
STR	95	0	2
SI_	95	0	2	96	48	6
STR	95	0	6
SI_	95	0	6	96	48	3
XTP	95	96	2
XTP	95	96	6
STR	95	192	1
SI_	95	192	1	96	48	4
STR	95	192	5
SI_	95	192	5	96	48	1
XTP	95	288	1
XTP	95	288	5
TAP	96	0	4
TAP	96	0	6
TAP	96	72	1
TAP	96	72	3
TAP	96	144	2
TAP	96	144	5
TTP	96	192	0	C	1	M1
TTP	96	192	3	B	0	M1
TTP	96	192	4	B	0	M1
BRK	96	288	7
STR	97	0	1
SCR	97	0	1	96	48	4
STR	97	0	5
SCR	97	0	5	96	48	0
XTP	97	96	1
XTP	97	96	5
STR	97	192	2
SCL	97	192	2	96	48	7
STR	97	192	6
SCL	97	192	6	96	48	3
XTP	97	288	2
XTP	97	288	6
TAP	98	0	1
TAP	98	0	3
TAP	98	72	4
TAP	98	72	6
TAP	98	144	2
TAP	98	144	5
TTP	98	192	0	C	1	M1
TTP	98	192	3	B	0	M1
TTP	98	192	4	B	0	M1
BRK	98	288	0
BRK	98	288	7
TAP	99	0	5
TAP	99	24	4
TAP	99	48	5
TAP	99	72	4
TAP	99	96	6
TAP	99	144	2
TAP	99	168	3
TAP	99	192	2
TAP	99	216	3
TAP	99	240	1
BRK	99	288	0
BRK	99	288	4
TAP	100	0	2
TAP	100	24	3
TAP	100	48	2
TAP	100	72	3
TAP	100	96	1
TAP	100	144	5
TAP	100	168	4
TAP	100	192	5
TAP	100	216	4
TAP	100	240	6
BRK	100	288	3
BRK	100	288	7
TAP	101	0	5
TAP	101	24	4
TAP	101	48	5
TAP	101	72	4
TAP	101	96	6
TAP	101	144	2
TAP	101	168	3
TAP	101	192	2
TAP	101	216	3
TAP	101	240	1
BRK	101	288	0
BRK	101	288	4
STR	102	0	6
SI_	102	0	6	96	48	1
TAP	102	48	6
STR	102	96	2
SI_	102	96	2	96	48	5
TAP	102	144	2
STR	102	192	7
SI_	102	192	7	96	48	4
TAP	102	240	7
TAP	102	288	3
TAP	102	336	3
TAP	103	0	5
TAP	103	24	4
TAP	103	48	6
TAP	103	144	2
TAP	103	168	3
HLD	103	192	1	96
TTP	103	288	0	C	1	M1

T_REC_TAP	528
T_REC_BRK	17
T_REC_XTP	100
T_REC_HLD	18
T_REC_XHO	0
T_REC_STR	98
T_REC_BST	1
T_REC_XST	0
T_REC_TTP	124
T_REC_THO	1
T_REC_SLD	99
T_REC_ALL	986
T_NUM_TAP	850
T_NUM_BRK	18
T_NUM_HLD	19
T_NUM_SLD	99
T_NUM_ALL	986
T_JUDGE_TAP	868
T_JUDGE_HLD	71
T_JUDGE_SLD	99
T_JUDGE_ALL	1038
TTM_EACHPAIRS	169
TTM_SCR_TAP	425000
TTM_SCR_BRK	46800
TTM_SCR_HLD	19000
TTM_SCR_SLD	148500
TTM_SCR_ALL	639300
TTM_SCR_S	618400
TTM_SCR_SS	637500
TTM_RAT_ACV	10028

