VERSION	0.00.00	1.03.00
FES_MODE	0
BPM_DEF	178.000	178.000	178.000	178.000
MET_DEF	4	4
RESOLUTION	384
CLK_DEF	384
COMPATIBLE_CODE	MA2

BPM	0	0	178.000
MET	0	0	4	4

XTP	1	0	3
XTP	1	64	3
XTP	1	128	3
XTP	1	192	4
XTP	1	256	4
XTP	1	320	4
XTP	2	0	2
XTP	2	64	2
XTP	2	128	2
XTP	2	192	5
XTP	2	256	5
XTP	2	320	5
HLD	3	0	1	96
TAP	3	96	0
HLD	3	192	6	96
TAP	3	288	7
XTP	4	0	6
XTP	4	0	7
XTP	4	72	3
XTP	4	72	4
XTP	4	144	0
XTP	4	144	1
XTP	4	192	0
XTP	4	192	1
BRK	4	288	2
BRK	4	288	7
TAP	5	0	4
TAP	5	0	5
HLD	5	96	2	96
TAP	5	96	3
TAP	5	192	0
TAP	5	288	3
TAP	5	288	7
TAP	6	0	2
TAP	6	0	3
TAP	6	96	4
HLD	6	96	5	96
TAP	6	192	7
TAP	6	288	0
TAP	6	288	3
TAP	7	0	4
TAP	7	0	5
HLD	7	96	2	96
TAP	7	96	3
TAP	7	192	0
TAP	7	288	6
TAP	7	288	7
HLD	8	0	2	96
HLD	8	96	4	96
HLD	8	192	6	96
BRK	8	288	0
TAP	9	0	2
TAP	9	0	3
TAP	9	96	4
HLD	9	96	5	96
TAP	9	192	7
TAP	9	288	0
TAP	9	288	4
TAP	10	0	4
TAP	10	0	5
HLD	10	96	2	96
TAP	10	96	3
TAP	10	192	0
TAP	10	288	4
TAP	10	288	7
TAP	11	0	2
TAP	11	0	3
TAP	11	96	4
HLD	11	96	5	96
TAP	11	192	7
TAP	11	288	0
TAP	11	288	1
HLD	12	0	1	96
HLD	12	96	3	96
TAP	12	192	5
BRK	12	288	3
BRK	12	288	6
TAP	13	0	4
HLD	13	0	5	672
TAP	14	0	4
TAP	14	96	4
TAP	14	192	4
TAP	14	288	4
TAP	15	0	2
TAP	15	0	3
TAP	15	96	1
TAP	15	96	2
TAP	15	192	2
TAP	15	240	3
TAP	15	288	1
TAP	15	288	4
TAP	16	0	4
TAP	16	0	5
TAP	16	96	5
TAP	16	96	6
TAP	16	192	5
TAP	16	240	4
TAP	16	288	3
TAP	16	288	6
HLD	17	0	2	672
TAP	17	0	3
TAP	18	0	3
TAP	18	96	3
TAP	18	192	3
TAP	18	288	3
TAP	19	0	4
TAP	19	0	5
TAP	19	96	5
TAP	19	96	6
TAP	19	192	5
TAP	19	240	4
TAP	19	288	3
TAP	19	288	6
TAP	20	0	2
TAP	20	0	3
TAP	20	96	1
TAP	20	96	2
TAP	20	192	2
TAP	20	240	3
TAP	20	288	1
TAP	20	288	4
TAP	21	0	4
HLD	21	0	5	96
TAP	21	96	3
HLD	21	192	2	96
TAP	21	192	3
TAP	21	288	4
TAP	22	0	4
HLD	22	0	5	96
TAP	22	96	3
TAP	22	192	2
TAP	22	192	3
TAP	22	288	1
TAP	22	288	4
TAP	23	0	4
HLD	23	0	6	96
TAP	23	96	5
HLD	23	192	1	96
TAP	23	192	3
TAP	23	288	2
TAP	24	0	4
HLD	24	0	6	96
TAP	24	96	5
TAP	24	192	3
TAP	24	192	5
TAP	24	288	2
TAP	24	288	4
TAP	25	0	0
TAP	25	0	1
TAP	25	48	0
TAP	25	48	1
TAP	25	144	2
TAP	25	144	7
TAP	25	192	2
TAP	25	192	7
TAP	25	288	6
TAP	25	288	7
TAP	25	336	6
TAP	25	336	7
TAP	26	48	0
TAP	26	48	5
TAP	26	96	0
TAP	26	96	5
TAP	26	192	2
TAP	26	192	5
STR	26	288	3
SCL	26	288	3	96	384	4
TAP	26	288	4
TAP	28	192	3
TAP	28	192	5
TAP	28	288	2
TAP	28	288	4
STR	29	0	1
SCR	29	0	1	96	96	4
STR	29	192	5
SCR	29	192	5	96	96	0
TAP	30	0	2
TAP	30	96	1
TAP	30	96	3
TAP	30	192	0
TAP	30	192	4
TAP	31	0	5
TAP	31	96	4
TAP	31	96	6
TAP	31	192	2
TAP	31	288	1
TAP	31	288	3
TTP	32	0	2	E	0	M1
TTP	32	96	0	C	0	M1
TTP	32	192	6	E	0	M1
STR	33	0	6
SCL	33	0	6	96	96	3
STR	33	192	2
SCL	33	192	2	96	96	7
TAP	34	0	5
TAP	34	96	4
TAP	34	96	6
XTP	34	192	3
XTP	34	192	7
XTP	34	288	3
XTP	34	288	7
TAP	35	0	2
TAP	35	96	1
TAP	35	96	3
TAP	35	192	5
TAP	35	288	4
TAP	35	288	6
TTP	36	0	6	E	0	M1
TTP	36	96	4	E	0	M1
TTP	36	192	2	E	0	M1
TTP	36	288	0	E	0	M1
THO	37	0	0	384	C	1	M1
BRK	38	192	0
BRK	38	288	0
THO	39	0	0	384	C	1	M1
TTP	39	0	2	B	0	M1
TTP	39	0	5	B	0	M1
XTP	40	192	1
XTP	40	192	6
XTP	41	0	6
XTP	41	0	7
TAP	41	96	4
TAP	41	96	5
TAP	41	192	2
TAP	41	192	3
TAP	41	288	0
TAP	41	288	1
TAP	42	0	6
TAP	42	0	7
TAP	42	96	4
TAP	42	96	5
TAP	42	192	2
TAP	42	192	3
TAP	42	288	0
TAP	42	288	1
TAP	43	0	5
TAP	43	48	4
TAP	43	96	3
TAP	43	96	6
TAP	43	192	2
TAP	43	240	3
TAP	43	288	1
TAP	43	288	4
TAP	44	0	5
TAP	44	48	5
TAP	44	96	2
TAP	44	144	2
HLD	44	192	3	96
HLD	44	192	7	96
XTP	45	0	1
XTP	45	0	7
TAP	45	96	0
TAP	45	96	6
TAP	45	192	1
TAP	45	192	7
TAP	45	288	0
TAP	45	288	6
TAP	46	0	1
TAP	46	0	7
TAP	46	96	0
TAP	46	96	6
TAP	46	192	1
TAP	46	192	7
TAP	46	288	2
TAP	46	288	5
HLD	47	0	3	96
HLD	47	0	6	96
HLD	47	144	1	96
HLD	47	144	4	96
TAP	47	288	1
TAP	47	288	4
TAP	48	0	0
TAP	48	0	1
TAP	48	72	3
TAP	48	72	4
TAP	48	144	6
TAP	48	144	7
TAP	48	192	6
TAP	48	192	7
BRK	48	288	0
BRK	48	288	5
XTP	49	0	0
XTP	49	0	1
TAP	49	96	2
TAP	49	96	3
TAP	49	192	4
TAP	49	192	5
TAP	49	288	6
TAP	49	288	7
TAP	50	0	0
TAP	50	0	1
TAP	50	96	2
TAP	50	96	3
TAP	50	192	4
TAP	50	192	5
TAP	50	288	6
TAP	50	288	7
TAP	51	0	2
TAP	51	48	3
TAP	51	96	1
TAP	51	96	4
TAP	51	192	5
TAP	51	240	4
TAP	51	288	3
TAP	51	288	6
TAP	52	0	2
TAP	52	48	2
TAP	52	96	5
TAP	52	144	5
HLD	52	192	0	96
HLD	52	192	4	96
TAP	53	0	7
TAP	53	48	7
TAP	53	96	1
TAP	53	144	1
TAP	53	192	5
TAP	53	240	5
TAP	53	288	3
TAP	53	336	3
TAP	54	0	4
TAP	54	48	4
TAP	54	96	2
TAP	54	144	2
TAP	54	192	6
TAP	54	288	0
TAP	54	288	7
HLD	55	0	1	96
HLD	55	0	4	96
HLD	55	144	3	96
HLD	55	144	6	96
TAP	55	288	3
TAP	55	288	6
TAP	56	0	6
TAP	56	0	7
TAP	56	72	3
TAP	56	72	4
TAP	56	144	0
TAP	56	144	1
TAP	56	192	0
TAP	56	192	1
BRK	56	288	2
BRK	56	288	7
XTP	57	0	3
XTP	57	64	3
XTP	57	128	3
XTP	57	192	4
XTP	57	256	4
XTP	57	320	4
HLD	58	0	3	192
TTP	58	192	0	C	0	M1
XTP	59	0	7
XTP	59	64	7
XTP	59	128	7
XTP	59	192	0
XTP	59	256	0
XTP	59	320	0
HLD	60	0	7	192
TTP	60	192	0	C	0	M1
BRK	61	0	0
BRK	61	64	0
BRK	61	128	0
XTP	61	192	6
XTP	61	256	6
XTP	61	320	6
TAP	62	0	2
TAP	62	64	2
TAP	62	128	2
TAP	62	192	4
TAP	62	256	4
TAP	62	320	4
HLD	63	0	1	96
TAP	63	96	0
HLD	63	192	6	96
TAP	63	288	7
XTP	64	0	2
XTP	64	0	6
XTP	64	72	1
XTP	64	72	5
XTP	64	144	2
XTP	64	144	6
XTP	64	192	1
XTP	64	192	5
BRK	64	288	0
BRK	64	288	7
TAP	65	0	2
TAP	65	96	1
TAP	65	96	3
TAP	65	192	5
TAP	65	288	4
TAP	65	288	6
TAP	66	0	2
TAP	66	96	1
TAP	66	96	3
TAP	66	192	5
TAP	66	288	4
TAP	66	288	6
TAP	67	0	2
TAP	67	96	0
TAP	67	96	1
TAP	67	192	5
TAP	67	288	6
TAP	67	288	7
HLD	68	0	2	96
HLD	68	96	3	96
TAP	68	192	4
BRK	68	288	1
BRK	68	288	6
TAP	69	0	5
TAP	69	96	4
TAP	69	96	6
TAP	69	192	2
TAP	69	288	1
TAP	69	288	3
TAP	70	0	5
TAP	70	96	6
TAP	70	96	7
TAP	70	192	2
TAP	70	288	0
TAP	70	288	1
HLD	71	0	4	96
HLD	71	0	6	96
HLD	71	192	1	96
HLD	71	192	3	96
TAP	72	0	0
TAP	72	0	7
STR	72	96	0
SI_	72	96	0	96	48	3
STR	72	96	7
SI_	72	96	7	96	48	4
TTP	73	0	2	B	0	M1
TTP	73	96	3	B	0	M1
TTP	73	192	4	B	0	M1
TTP	73	288	5	B	0	M1
TTP	74	0	6	B	0	M1
TTP	74	96	7	B	0	M1
TTP	74	192	0	B	0	M1
TTP	74	288	1	B	0	M1
THO	75	0	0	384	C	0	M1
TTP	76	192	2	E	0	M1
TTP	76	192	6	E	0	M1
TTP	77	0	5	B	0	M1
TTP	77	96	4	B	0	M1
TTP	77	192	3	B	0	M1
TTP	77	288	2	B	0	M1
TTP	78	0	1	B	0	M1
TTP	78	96	0	B	0	M1
TTP	78	192	7	B	0	M1
TTP	78	288	6	B	0	M1
THO	79	0	0	384	C	1	M1
BRK	80	288	1
BRK	80	288	6
XTP	81	0	0
XTP	81	0	7
TAP	81	96	1
TAP	81	96	2
TAP	81	192	3
TAP	81	192	4
TAP	81	288	5
TAP	81	288	6
TAP	82	0	0
TAP	82	0	7
TAP	82	96	1
TAP	82	96	2
TAP	82	192	3
TAP	82	192	4
TAP	82	288	5
TAP	82	288	6
TAP	83	0	0
TAP	83	48	1
TAP	83	96	2
TAP	83	96	3
TAP	83	192	7
TAP	83	240	6
TAP	83	288	4
TAP	83	288	5
TAP	84	0	1
TAP	84	48	1
TAP	84	96	5
TAP	84	144	5
TAP	84	192	2
TAP	84	192	6
TAP	84	288	1
TAP	84	288	5
XTP	85	0	0
XTP	85	0	7
TAP	85	96	5
TAP	85	96	6
TAP	85	192	3
TAP	85	192	4
TAP	85	288	1
TAP	85	288	2
TAP	86	0	0
TAP	86	0	7
TAP	86	96	5
TAP	86	96	6
TAP	86	192	3
TAP	86	192	4
TAP	86	288	1
TAP	86	288	2
HLD	87	0	1	96
HLD	87	0	3	96
HLD	87	144	4	96
HLD	87	144	6	96
TAP	87	288	2
TAP	87	288	5
XTP	88	0	6
XTP	88	0	7
XTP	88	72	3
XTP	88	72	4
XTP	88	144	0
XTP	88	144	1
XTP	88	192	0
XTP	88	192	1
BRK	88	288	2
BRK	88	288	7
XTP	89	0	4
XTP	89	0	5
XTP	89	64	4
XTP	89	64	5
XTP	89	128	4
XTP	89	128	5
XTP	89	192	2
XTP	89	192	3
XTP	89	256	2
XTP	89	256	3
XTP	89	320	2
XTP	89	320	3
XTP	90	0	1
XHO	90	0	4	192
TTP	90	192	0	C	0	M1
XTP	91	0	0
XTP	91	0	1
XTP	91	64	0
XTP	91	64	1
XTP	91	128	0
XTP	91	128	1
XTP	91	192	6
XTP	91	192	7
XTP	91	256	6
XTP	91	256	7
XTP	91	320	6
XTP	91	320	7
XHO	92	0	0	192
XTP	92	0	5
TTP	92	192	0	C	1	M1
XTP	93	0	6
XTP	93	0	7
TAP	93	64	6
TAP	93	64	7
TAP	93	128	6
TAP	93	128	7
XTP	93	192	0
XTP	93	192	1
TAP	93	256	0
TAP	93	256	1
TAP	93	320	0
TAP	93	320	1
XTP	94	0	2
XTP	94	0	3
TAP	94	64	2
TAP	94	64	3
TAP	94	128	2
TAP	94	128	3
XTP	94	192	4
XTP	94	192	5
TAP	94	256	4
TAP	94	256	5
TAP	94	320	4
TAP	94	320	5
XTP	95	0	3
XHO	95	0	6	96
TAP	95	96	7
XHO	95	192	1	96
XTP	95	192	4
TAP	95	288	0
XTP	96	0	2
XTP	96	0	6
XTP	96	72	1
XTP	96	72	5
XTP	96	144	2
XTP	96	144	6
XTP	96	192	1
XTP	96	192	5
BRK	96	288	0
BRK	96	288	7
STR	97	0	3
SCL	97	0	3	96	48	0
TAP	97	96	6
STR	97	192	4
SCR	97	192	4	96	48	7
TAP	97	288	1
XTP	98	0	3
XTP	98	0	7
XTP	98	72	2
XTP	98	72	6
XTP	98	144	1
XTP	98	144	5
XTP	98	192	0
XTP	98	192	4
BRK	98	288	1
BRK	98	288	6
TAP	99	0	2
TAP	99	0	4
TAP	99	48	2
TAP	99	48	4
TAP	99	144	0
TAP	99	144	1
TAP	99	192	0
TAP	99	192	1
XTP	99	288	2
XTP	99	288	7
TAP	100	0	3
TAP	100	0	5
TAP	100	48	3
TAP	100	48	5
TAP	100	144	6
TAP	100	144	7
TAP	100	192	6
TAP	100	192	7
XTP	100	288	0
XTP	100	288	5
TAP	101	0	2
TAP	101	0	4
TAP	101	48	2
TAP	101	48	4
TAP	101	144	0
TAP	101	144	1
TAP	101	192	0
TAP	101	192	1
XTP	101	288	2
XTP	101	288	7
TAP	102	0	4
HLD	102	0	6	96
TAP	102	96	7
HLD	102	192	1	96
TAP	102	192	3
TAP	102	288	0
TAP	103	0	4
TAP	103	0	5
TAP	103	48	4
TAP	103	48	5
TAP	103	144	2
TAP	103	144	3
TAP	103	192	2
TAP	103	192	3
TTP	103	288	0	C	1	M1
TTP	103	288	1	B	0	M1
TTP	103	288	6	B	0	M1

T_REC_TAP	388
T_REC_BRK	26
T_REC_XTP	125
T_REC_HLD	49
T_REC_XHO	4
T_REC_STR	9
T_REC_BST	0
T_REC_XST	0
T_REC_TTP	34
T_REC_THO	4
T_REC_SLD	9
T_REC_ALL	648
T_NUM_TAP	556
T_NUM_BRK	26
T_NUM_HLD	57
T_NUM_SLD	9
T_NUM_ALL	648
T_JUDGE_TAP	582
T_JUDGE_HLD	170
T_JUDGE_SLD	9
T_JUDGE_ALL	761
TTM_EACHPAIRS	225
TTM_SCR_TAP	278000
TTM_SCR_BRK	67600
TTM_SCR_HLD	57000
TTM_SCR_SLD	13500
TTM_SCR_ALL	416100
TTM_SCR_S	401100
TTM_SCR_SS	413500
TTM_RAT_ACV	10062

