VERSION	0.00.00	1.03.00
FES_MODE	0
BPM_DEF	178.000	178.000	178.000	178.000
MET_DEF	4	4
RESOLUTION	384
CLK_DEF	384
COMPATIBLE_CODE	MA2

BPM	0	0	178.000
MET	0	0	4	4

HLD	1	0	5	192
HLD	1	192	4	192
HLD	2	0	3	192
TAP	2	192	2
TAP	3	0	2
TAP	3	96	2
TAP	3	192	2
TAP	3	192	3
TAP	4	0	3
TAP	4	0	4
TAP	4	96	3
TAP	4	96	4
XTP	4	192	2
XTP	4	192	5
TAP	5	0	2
TAP	5	96	2
TAP	5	192	3
TAP	6	0	5
TAP	6	96	5
TAP	6	192	4
TAP	7	0	3
TAP	7	96	3
TAP	7	192	4
TAP	7	288	4
HLD	8	0	3	96
HLD	8	0	4	96
TAP	8	192	3
TAP	8	192	4
TAP	9	0	5
TAP	9	96	5
TAP	9	192	4
TAP	9	192	5
TAP	10	0	2
TAP	10	96	2
TAP	10	192	2
TAP	10	192	3
TAP	11	0	5
TAP	11	96	5
TAP	11	192	6
STR	11	288	6
SI_	11	288	6	96	192	3
HLD	13	0	2	192
TAP	13	192	3
HLD	14	0	5	192
TAP	14	192	4
TAP	15	0	2
TAP	15	96	2
TAP	15	192	2
TAP	15	192	3
TAP	16	0	5
TAP	16	96	5
TAP	16	192	4
TAP	16	192	5
HLD	17	0	6	192
TAP	17	192	7
HLD	18	0	1	192
TAP	18	192	0
TAP	19	0	6
TAP	19	96	6
TAP	19	192	6
TAP	19	192	7
TAP	20	0	1
TAP	20	96	1
XTP	20	192	0
XTP	20	192	1
TAP	21	0	2
TAP	21	96	2
TAP	21	192	3
TAP	21	288	3
HLD	22	0	3	96
HLD	22	0	4	96
TAP	22	192	3
TAP	22	192	4
TAP	23	0	5
TAP	23	96	5
TAP	23	192	4
TAP	23	288	4
HLD	24	0	3	96
HLD	24	0	4	96
TAP	24	192	3
TAP	24	192	4
STR	25	0	4
SCR	25	0	4	96	192	7
TAP	26	192	0
TAP	26	288	0
STR	27	0	0
SCR	27	0	0	96	192	3
TAP	28	192	2
TAP	28	192	5
TTP	29	0	5	B	0	L1
TTP	29	192	0	C	0	L1
TTP	30	0	1	B	0	L1
TTP	31	0	2	B	0	L1
TTP	31	192	0	C	0	L1
TTP	32	0	6	B	0	L1
TTP	33	0	4	B	0	L1
TTP	33	192	0	C	0	L1
TTP	34	0	0	B	0	L1
TTP	35	0	2	E	0	L1
TTP	35	192	3	B	0	L1
TTP	36	0	4	B	0	L1
TTP	36	192	2	B	0	L1
TTP	36	192	5	B	0	L1
THO	37	0	0	384	C	1	L1
TAP	39	0	2
TAP	39	96	2
TAP	39	192	1
TAP	39	192	3
TAP	40	0	5
TAP	40	96	5
TAP	40	192	4
TAP	40	192	6
BRK	41	0	0
TAP	41	96	1
TAP	41	192	2
TAP	41	192	3
TAP	42	0	4
TAP	42	96	5
TAP	42	192	6
TAP	42	192	7
TAP	43	0	5
TAP	43	96	4
TAP	43	192	3
TAP	43	288	2
TAP	44	0	2
TAP	44	0	3
TAP	44	96	2
TAP	44	96	3
TAP	44	192	1
TAP	44	192	4
TAP	45	0	5
TAP	45	96	5
TAP	45	192	4
TAP	45	192	6
TAP	46	0	2
TAP	46	96	2
TAP	46	192	1
TAP	46	192	3
TAP	47	0	4
TAP	47	96	4
TAP	47	192	3
TAP	47	288	3
HLD	48	0	3	96
HLD	48	0	4	96
XTP	48	192	2
XTP	48	192	5
TAP	49	0	7
TAP	49	96	6
TAP	49	192	4
TAP	49	192	5
TAP	50	0	3
TAP	50	96	2
TAP	50	192	0
TAP	50	192	1
TAP	51	0	2
TAP	51	96	3
TAP	51	192	4
TAP	51	288	5
TAP	52	0	4
TAP	52	0	5
TAP	52	96	4
TAP	52	96	5
TAP	52	192	3
TAP	52	192	6
TAP	53	0	2
TAP	53	96	2
TAP	53	192	1
TAP	53	192	3
TAP	54	0	5
TAP	54	96	5
TAP	54	192	4
TAP	54	192	6
HLD	55	0	7	192
HLD	55	192	0	192
TAP	56	0	7
TAP	56	96	7
XTP	56	192	0
XTP	56	192	6
STR	57	0	0
SI_	57	0	0	96	192	4
TAP	58	0	5
TAP	58	96	5
TAP	58	192	5
STR	59	0	6
SI_	59	0	6	96	192	3
TAP	60	0	2
TAP	60	96	2
TAP	60	192	2
TAP	60	192	3
HLD	61	0	2	192
HLD	61	192	3	192
HLD	62	0	4	192
TAP	62	192	5
TAP	63	0	2
TAP	63	96	3
TAP	63	192	5
TAP	63	288	4
TAP	64	0	3
TAP	64	0	4
TAP	64	96	3
TAP	64	96	4
XTP	64	192	2
XTP	64	192	5
STR	65	0	2
SCL	65	0	2	96	192	7
TAP	66	192	6
TAP	66	288	6
STR	67	0	6
SCL	67	0	6	96	192	3
TAP	68	192	2
TAP	68	288	2
STR	69	0	2
SI_	69	0	2	96	192	5
TAP	70	192	6
TAP	70	192	7
HLD	71	0	4	96
HLD	71	0	5	96
HLD	71	192	2	96
HLD	71	192	3	96
TAP	72	0	3
TAP	72	0	4
TAP	72	96	3
TAP	72	96	4
XTP	72	192	2
XTP	72	192	5
STR	73	0	2
SCL	73	0	2	96	288	7
STR	75	0	6
SCL	75	0	6	96	288	3
TTP	77	0	2	E	0	L1
TTP	77	192	3	B	0	L1
TTP	78	0	4	B	0	L1
TTP	78	192	2	B	0	L1
TTP	78	192	5	B	0	L1
THO	79	0	0	384	C	1	L1
TAP	81	0	0
TAP	81	96	1
TAP	81	192	2
TAP	81	288	3
TAP	82	0	4
TAP	82	96	5
TAP	82	192	6
TAP	82	192	7
TAP	83	0	5
TAP	83	96	4
TAP	83	192	3
TAP	83	288	2
TAP	84	0	2
TAP	84	0	3
TAP	84	96	2
TAP	84	96	3
TAP	84	192	1
TAP	84	192	4
HLD	85	0	1	96
TAP	85	96	0
TAP	85	192	2
TAP	85	192	7
HLD	86	0	6	96
TAP	86	96	7
TAP	86	192	0
TAP	86	192	5
TAP	87	0	7
TAP	87	96	6
TAP	87	192	5
TAP	87	288	4
TAP	88	0	3
TAP	88	0	4
TAP	88	96	3
TAP	88	96	4
XTP	88	192	2
XTP	88	192	5
STR	89	0	1
SI_	89	0	1	96	192	5
TAP	90	0	6
TAP	90	96	6
TAP	90	192	6
TAP	90	192	7
STR	91	0	6
SI_	91	0	6	96	192	2
TAP	92	0	1
TAP	92	96	1
TAP	92	192	0
TAP	92	192	1
HLD	93	0	2	192
HLD	93	192	3	192
HLD	94	0	4	192
TAP	94	192	5
TAP	95	0	3
TAP	95	0	4
TAP	95	96	2
TAP	95	192	3
TAP	95	192	4
TAP	95	288	5
HLD	96	0	3	96
HLD	96	0	4	96
XTP	96	192	2
XTP	96	192	5
TAP	97	0	0
TAP	97	0	7
TAP	97	96	1
TAP	97	192	0
TAP	97	192	7
TAP	97	288	6
HLD	98	0	0	96
HLD	98	0	7	96
BRK	98	192	1
BRK	98	192	6
TAP	99	0	2
TAP	99	96	3
TAP	99	192	2
TAP	99	288	3
TAP	99	288	4
TAP	100	0	5
TAP	100	96	5
TAP	100	192	4
TAP	100	192	6
TAP	101	0	5
TAP	101	96	4
TAP	101	192	5
TAP	101	288	3
TAP	101	288	4
TAP	102	0	2
TAP	102	96	2
TAP	102	192	1
TAP	102	192	3
TAP	103	0	0
TAP	103	0	7
TAP	103	96	1
TAP	103	96	6
BRK	103	192	2
BRK	103	192	5

T_REC_TAP	232
T_REC_BRK	5
T_REC_XTP	16
T_REC_HLD	33
T_REC_XHO	0
T_REC_STR	12
T_REC_BST	0
T_REC_XST	0
T_REC_TTP	19
T_REC_THO	2
T_REC_SLD	12
T_REC_ALL	331
T_NUM_TAP	279
T_NUM_BRK	5
T_NUM_HLD	35
T_NUM_SLD	12
T_NUM_ALL	331
T_JUDGE_TAP	284
T_JUDGE_HLD	112
T_JUDGE_SLD	12
T_JUDGE_ALL	408
TTM_EACHPAIRS	72
TTM_SCR_TAP	139500
TTM_SCR_BRK	13000
TTM_SCR_HLD	35000
TTM_SCR_SLD	18000
TTM_SCR_ALL	205500
TTM_SCR_S	198850
TTM_SCR_SS	205000
TTM_RAT_ACV	10024

