VERSION	0.00.00	1.03.00
FES_MODE	0
BPM_DEF	178.000	178.000	178.000	178.000
MET_DEF	4	4
RESOLUTION	384
CLK_DEF	384
COMPATIBLE_CODE	MA2

BPM	0	0	178.000
MET	0	0	4	4

TAP	5	0	0
TAP	6	0	0
TAP	7	0	1
TAP	8	0	1
TAP	9	0	2
TAP	10	0	2
TAP	11	0	3
BRK	12	0	3
HLD	13	0	4	384
TAP	15	0	4
TAP	15	192	4
TAP	16	0	4
HLD	17	0	3	384
TAP	19	0	3
TAP	19	192	3
TAP	20	0	3
HLD	21	0	4	384
HLD	23	0	5	384
STR	25	0	6
SI_	25	0	6	96	288	2
TAP	27	0	3
TAP	28	0	3
TTP	29	0	4	B	0	L1
TTP	30	0	5	B	0	L1
TTP	31	0	6	B	0	L1
TTP	32	0	7	B	0	L1
TTP	33	0	0	B	0	L1
TTP	34	0	1	B	0	L1
TTP	35	0	2	B	0	L1
TTP	36	0	3	B	0	L1
TTP	37	0	0	C	1	L1
STR	39	0	0
SI_	39	0	0	96	288	3
TAP	41	0	4
TAP	41	192	4
TAP	42	0	3
TAP	42	192	3
TAP	43	0	2
TAP	43	192	2
TAP	44	0	2
TAP	44	0	3
TAP	45	0	1
TAP	45	192	1
TAP	46	0	0
TAP	46	192	0
TAP	47	0	7
TAP	47	192	7
TAP	48	0	0
TAP	48	0	7
TAP	49	0	6
TAP	49	192	6
TAP	50	0	5
TAP	50	192	5
TAP	51	0	4
TAP	51	192	4
TAP	52	0	3
TAP	52	0	4
TAP	53	0	2
TAP	53	0	3
TAP	53	192	2
TAP	53	192	3
TAP	54	0	2
TAP	54	0	3
TAP	55	0	4
TAP	55	0	5
TAP	55	192	4
TAP	55	192	5
TAP	56	0	4
TAP	56	0	5
HLD	57	0	3	384
HLD	59	0	4	384
HLD	61	0	2	384
HLD	61	0	3	384
HLD	63	0	4	384
HLD	63	0	5	384
TAP	65	0	3
TAP	65	192	3
TAP	66	0	3
TAP	67	0	2
TAP	67	192	2
TAP	68	0	2
TAP	68	0	3
TAP	69	0	1
TAP	69	192	1
TAP	70	0	1
TAP	71	0	0
TAP	71	192	0
XTP	72	0	0
XTP	72	0	7
HLD	73	0	0	768
HLD	77	0	7	768
BRK	80	0	0
BRK	80	0	7
TAP	81	0	0
TAP	81	96	0
TAP	81	192	0
TAP	82	0	1
TAP	82	96	1
TAP	82	192	1
TAP	83	0	2
TAP	83	96	2
TAP	83	192	2
TAP	84	0	3
TAP	84	96	3
TAP	84	192	3
TAP	85	0	4
TAP	85	96	4
TAP	85	192	4
TAP	86	0	5
TAP	86	96	5
TAP	86	192	5
STR	87	0	6
SI_	87	0	6	96	288	2
TAP	89	0	0
TAP	89	0	1
TAP	89	192	0
TAP	89	192	1
TAP	90	0	0
TAP	90	0	1
TAP	91	0	6
TAP	91	0	7
TAP	91	192	6
TAP	91	192	7
TAP	92	0	6
TAP	92	0	7
TAP	93	0	0
TAP	93	192	0
TAP	94	0	7
TAP	94	192	7
TAP	95	0	0
TAP	95	0	7
TAP	95	192	0
TAP	95	192	7
TAP	96	0	0
TAP	96	96	7
XTP	96	192	0
TAP	97	0	0
TAP	97	0	7
TAP	97	192	0
TAP	97	192	7
TAP	98	0	7
TAP	98	96	0
BRK	98	192	7
TAP	99	0	0
TAP	99	192	0
TAP	100	0	0
TAP	101	0	1
TAP	101	192	1
TAP	102	0	1
XHO	103	0	2	192
XHO	103	0	3	192

T_REC_TAP	115
T_REC_BRK	4
T_REC_XTP	3
T_REC_HLD	12
T_REC_XHO	2
T_REC_STR	3
T_REC_BST	0
T_REC_XST	0
T_REC_TTP	9
T_REC_THO	0
T_REC_SLD	3
T_REC_ALL	151
T_NUM_TAP	130
T_NUM_BRK	4
T_NUM_HLD	14
T_NUM_SLD	3
T_NUM_ALL	151
T_JUDGE_TAP	134
T_JUDGE_HLD	120
T_JUDGE_SLD	3
T_JUDGE_ALL	257
TTM_EACHPAIRS	25
TTM_SCR_TAP	65000
TTM_SCR_BRK	10400
TTM_SCR_HLD	14000
TTM_SCR_SLD	4500
TTM_SCR_ALL	93900
TTM_SCR_S	90700
TTM_SCR_SS	93500
TTM_RAT_ACV	10042

