VERSION	0.00.00	1.03.00
FES_MODE	0
BPM_DEF	175.000	175.000	175.000	175.000
MET_DEF	4	4
RESOLUTION	384
CLK_DEF	384
COMPATIBLE_CODE	MA2

BPM	0	0	175.000
MET	0	0	4	4

STR	1	0	0
SCR	1	0	0	96	48	3
STR	1	0	3
SCR	1	0	3	96	48	6
TAP	1	192	7
TAP	1	216	6
TAP	1	240	5
TAP	1	264	4
TAP	1	288	3
TAP	1	312	2
TAP	1	336	0
TAP	1	336	1
TAP	2	48	5
TAP	2	48	6
TAP	2	144	2
TAP	2	144	3
TAP	2	240	5
TAP	2	264	4
TAP	2	288	5
TAP	2	336	3
TAP	2	336	6
STR	3	0	4
SCL	3	0	4	96	48	1
STR	3	0	7
SCL	3	0	7	96	48	4
TAP	3	192	0
TAP	3	216	1
TAP	3	240	2
TAP	3	264	3
TAP	3	288	4
TAP	3	312	5
TAP	3	336	6
TAP	3	336	7
TAP	4	48	1
TAP	4	48	2
TAP	4	144	4
TAP	4	144	5
TAP	4	240	2
TAP	4	264	3
TAP	4	288	2
TAP	4	336	1
TAP	4	336	4
STR	5	0	1
SCR	5	0	1	96	48	4
STR	5	0	4
SCR	5	0	4	96	48	7
TAP	5	192	3
TAP	5	216	2
TAP	5	240	1
TAP	5	264	0
TAP	5	288	7
TAP	5	312	6
TAP	5	336	4
TAP	5	336	5
TAP	6	48	1
TAP	6	48	2
TAP	6	144	6
TAP	6	144	7
TAP	6	240	1
TAP	6	264	0
TAP	6	288	1
TAP	6	336	2
TAP	6	336	7
STR	7	0	3
SCL	7	0	3	96	48	0
STR	7	0	6
SCL	7	0	6	96	48	3
TAP	7	192	4
TAP	7	216	5
TAP	7	240	6
TAP	7	264	7
TAP	7	288	0
TAP	7	312	1
TAP	7	336	2
TAP	7	336	3
TAP	8	48	5
TAP	8	48	6
TAP	8	144	0
TAP	8	144	1
TAP	8	240	6
TAP	8	264	7
TAP	8	288	6
TAP	8	336	0
TAP	8	336	5
STR	9	0	0
SI_	9	0	0	96	48	4
STR	9	0	5
SI_	9	0	5	96	48	7
STR	9	192	4
SI_	9	192	4	96	48	0
STR	9	192	7
SI_	9	192	7	96	48	5
STR	10	0	0
SI_	10	0	0	96	48	3
STR	10	0	4
SI_	10	0	4	96	48	7
STR	10	192	3
SI_	10	192	3	96	48	0
STR	10	192	7
SI_	10	192	7	96	48	4
STR	11	0	0
SI_	11	0	0	96	48	2
STR	11	0	3
SI_	11	0	3	96	48	7
STR	11	192	2
SI_	11	192	2	96	48	0
STR	11	192	7
SI_	11	192	7	96	48	3
STR	12	0	0
SI_	12	0	0	96	48	3
STR	12	0	4
SI_	12	0	4	96	48	7
STR	12	192	3
SCL	12	192	3	96	48	0
STR	12	192	7
SCL	12	192	7	96	48	4
TAP	13	0	0
TAP	13	0	4
TAP	13	48	0
TAP	13	96	1
TAP	13	96	4
TAP	13	144	1
TAP	13	192	2
TAP	13	192	4
TAP	13	240	2
TAP	13	288	3
TAP	13	288	4
TAP	13	336	3
TAP	14	0	3
TAP	14	0	4
TAP	14	48	4
TAP	14	96	3
TAP	14	96	5
TAP	14	144	5
TAP	14	192	3
TAP	14	192	6
TAP	14	240	6
TAP	14	288	3
TAP	14	288	7
TAP	14	336	7
TAP	15	0	3
TAP	15	24	4
TAP	15	48	3
TAP	15	72	4
TAP	15	96	2
TAP	15	120	5
TAP	15	144	2
TAP	15	168	5
TAP	15	192	1
TAP	15	216	6
TAP	15	240	1
TAP	15	264	6
TAP	15	288	0
TAP	15	312	7
TAP	15	336	0
TAP	15	360	7
XHO	16	0	1	72
XTP	16	72	2
XHO	16	144	6	72
XTP	16	216	5
TTP	16	288	0	B	0	M1
TTP	16	288	0	C	1	M1
TTP	16	288	1	B	0	M1
TTP	16	288	6	B	0	M1
TTP	16	288	7	B	0	M1
STR	17	0	2
SI_	17	0	2	96	48	0
STR	17	0	3
SI_	17	0	3	96	48	7
STR	17	192	3
SI_	17	192	3	96	48	7
STR	17	192	4
SI_	17	192	4	96	48	6
TAP	18	0	0
TAP	18	0	5
TAP	18	96	2
TAP	18	96	7
HLD	18	144	2	96
TAP	18	144	7
TAP	18	240	3
TAP	18	288	4
TAP	18	336	5
STR	19	0	6
SI_	19	0	6	96	48	4
STR	19	0	7
SI_	19	0	7	96	48	3
STR	19	192	0
SI_	19	192	0	96	48	2
STR	19	192	7
SI_	19	192	7	96	48	3
TAP	20	0	1
TAP	20	0	4
TAP	20	96	3
TAP	20	96	6
TAP	20	144	3
HLD	20	144	6	96
TAP	20	240	5
TAP	20	288	4
TAP	20	336	3
STR	21	0	4
SI_	21	0	4	96	48	0
STR	21	0	5
SI_	21	0	5	96	48	7
STR	21	192	3
SI_	21	192	3	96	48	1
STR	21	192	4
SI_	21	192	4	96	48	0
TAP	22	0	2
TAP	22	0	7
TAP	22	96	0
TAP	22	96	5
TAP	22	144	0
HLD	22	144	5	96
TAP	22	240	4
TAP	22	288	3
TAP	22	336	2
STR	23	0	0
SI_	23	0	0	96	48	4
STR	23	0	1
SI_	23	0	1	96	48	3
STR	23	192	0
SI_	23	192	0	96	48	4
STR	23	192	7
SI_	23	192	7	96	48	5
TAP	24	0	3
TAP	24	0	6
TAP	24	96	1
TAP	24	96	4
HLD	24	144	1	96
TAP	24	144	4
TAP	24	240	2
TAP	24	288	3
TAP	24	336	4
STR	25	0	2
SI_	25	0	2	96	48	0
STR	25	0	3
SI_	25	0	3	96	48	7
STR	25	192	4
SI_	25	192	4	96	48	0
STR	25	192	5
SI_	25	192	5	96	48	7
TAP	26	0	1
TAP	26	0	6
TAP	26	96	2
TAP	26	96	3
HLD	26	144	1	96
TAP	26	144	4
TAP	26	240	0
TAP	26	288	7
TAP	26	336	6
STR	27	0	4
SI_	27	0	4	96	48	0
STR	27	0	5
SI_	27	0	5	96	48	7
STR	27	192	2
SI_	27	192	2	96	48	0
STR	27	192	3
SI_	27	192	3	96	48	7
TAP	28	0	1
TAP	28	0	6
TAP	28	96	4
TAP	28	96	5
TAP	28	144	3
HLD	28	144	6	96
TAP	28	240	7
TAP	28	288	0
TAP	28	336	1
TAP	29	0	2
TAP	29	0	3
TAP	29	48	1
TAP	29	96	1
TAP	29	144	4
TAP	29	144	5
TAP	29	192	6
TAP	29	240	6
TAP	29	288	0
TAP	29	288	7
STR	29	336	0
SCR	29	336	0	96	48	3
STR	29	336	7
SCL	29	336	7	96	48	4
XTP	30	48	0
XTP	30	48	7
TAP	30	144	3
TAP	30	144	4
TAP	30	192	2
TAP	30	192	5
TAP	30	240	2
TAP	30	240	5
TAP	30	288	1
TAP	30	288	6
TAP	30	336	1
TAP	30	336	6
BST	31	0	0
SCR	31	0	0	96	48	3
BRK	31	0	7
TTP	31	96	4	B	0	M1
TTP	31	96	5	B	0	M1
STR	31	192	7
SCL	31	192	7	96	48	4
TTP	31	288	2	B	0	M1
TTP	31	288	3	B	0	M1
STR	32	0	0
SCR	32	0	0	96	48	3
TTP	32	96	4	B	0	M1
TTP	32	96	5	B	0	M1
STR	32	192	7
SCL	32	192	7	96	48	4
TTP	32	288	2	B	0	M1
TTP	32	288	3	B	0	M1
STR	33	0	0
SCR	33	0	0	96	48	3
TTP	33	96	5	B	0	M1
TTP	33	96	6	B	0	M1
STR	33	192	7
SCL	33	192	7	96	48	4
TTP	33	288	1	B	0	M1
TTP	33	288	2	B	0	M1
STR	34	0	0
SCR	34	0	0	96	48	3
TTP	34	96	5	B	0	M1
TTP	34	96	6	B	0	M1
STR	34	192	7
SCL	34	192	7	96	48	4
TTP	34	288	1	B	0	M1
TTP	34	288	2	B	0	M1
STR	35	0	0
SCR	35	0	0	96	48	3
TTP	35	96	0	C	0	M1
STR	35	192	7
SCL	35	192	7	96	48	4
TTP	35	288	1	B	0	M1
TTP	35	288	2	B	0	M1
STR	36	0	0
SCR	36	0	0	96	48	3
TTP	36	96	5	B	0	M1
TTP	36	96	6	B	0	M1
STR	36	192	7
SCL	36	192	7	96	48	4
TTP	36	288	0	C	0	M1
TAP	37	48	2
TAP	37	96	3
TAP	37	144	4
TAP	37	192	5
TAP	37	240	4
TAP	37	288	3
TAP	37	336	2
TTP	38	0	5	B	0	M1
TTP	38	0	6	E	0	M1
TTP	38	0	6	B	0	M1
TTP	38	96	1	B	0	M1
TTP	38	96	2	E	0	M1
TTP	38	96	2	B	0	M1
TTP	38	192	0	C	0	M1
TTP	38	192	0	E	0	M1
TTP	38	192	4	E	0	M1
HLD	39	0	0	192
TAP	39	0	7
TAP	39	96	5
TAP	39	144	6
TAP	39	192	7
TAP	39	240	1
TAP	39	240	6
TAP	39	288	2
TAP	39	288	5
TAP	40	48	2
HLD	40	96	1	96
TAP	40	96	3
TAP	40	144	4
TAP	40	192	5
HLD	40	240	2	96
TAP	40	240	4
TAP	40	336	5
HLD	41	0	3	192
TAP	41	0	4
TAP	41	48	5
TAP	41	96	6
TAP	41	192	4
TAP	41	240	2
TAP	41	240	5
HLD	41	288	1	96
HLD	41	288	6	96
TAP	42	48	2
TAP	42	96	3
HLD	42	96	5	96
TAP	42	144	4
TAP	42	192	3
TAP	42	240	4
HLD	42	240	6	96
TAP	42	288	4
TAP	42	312	3
TAP	42	336	2
TAP	42	360	1
TAP	43	0	0
HLD	43	0	7	192
TAP	43	96	2
TAP	43	144	1
TAP	43	192	0
TAP	43	240	1
TAP	43	240	6
TAP	43	288	2
TAP	43	288	5
TAP	44	48	5
TAP	44	96	4
HLD	44	96	6	96
TAP	44	144	3
TAP	44	192	2
HLD	44	240	1	96
TAP	44	240	3
TAP	44	288	3
TAP	44	312	4
TAP	44	336	5
TAP	44	360	6
TAP	45	0	0
TAP	45	0	7
TAP	45	48	1
TAP	45	48	6
HLD	45	96	2	96
TAP	45	96	5
HLD	45	192	3	64
HLD	45	256	4	64
HLD	45	320	5	208
HLD	46	0	1	144
STR	46	192	7
SF_	46	192	7	96	48	3
TTP	46	288	7	B	0	M1
TTP	46	300	0	C	1	M1
TTP	46	312	3	B	0	M1
BRK	47	0	1
BRK	47	0	5
TAP	47	96	1
TAP	47	96	5
TAP	47	144	4
TAP	47	192	1
TAP	47	192	5
STR	47	240	6
SCL	47	240	6	96	48	3
TAP	47	288	1
XTP	47	336	6
TAP	48	0	1
TAP	48	48	2
TAP	48	96	1
TAP	48	96	3
TAP	48	144	4
STR	48	192	1
SCR	48	192	1	96	48	4
TAP	48	192	5
TAP	48	240	6
TAP	49	0	4
STR	49	0	7
SCL	49	0	7	96	48	4
TAP	49	48	4
TAP	49	96	4
STR	49	192	0
SCR	49	192	0	96	48	3
TAP	49	192	3
TAP	49	240	3
TAP	49	288	3
TAP	50	0	4
TAP	50	0	7
TAP	50	48	5
TAP	50	96	0
TAP	50	96	3
TAP	50	144	2
TAP	50	192	4
TAP	50	192	7
TAP	50	240	5
TAP	50	288	0
TAP	50	312	7
TAP	50	336	0
TAP	50	360	7
XTP	51	0	1
XTP	51	0	6
TAP	51	96	2
TAP	51	96	6
TAP	51	144	3
TAP	51	192	2
TAP	51	192	6
STR	51	240	1
SCR	51	240	1	96	48	4
TAP	51	288	6
XTP	51	336	1
TAP	52	0	6
TAP	52	48	5
TAP	52	96	4
TAP	52	96	6
TAP	52	144	3
TAP	52	192	2
TAP	52	192	6
XHO	52	240	2	96
XHO	52	240	6	96
TAP	53	0	2
TAP	53	0	6
TAP	53	48	1
TAP	53	48	5
STR	53	96	0
SI_	53	96	0	96	48	4
TAP	53	96	4
XTP	53	192	0
XTP	53	192	7
BRK	53	256	5
BRK	53	256	6
BRK	53	320	3
BRK	53	320	4
BST	54	0	1
SCL	54	0	1	96	48	6
BST	54	0	2
SUL	54	0	2	96	48	5
TAP	54	192	3
TAP	54	192	4
TAP	54	240	3
TAP	54	240	4
BRK	54	288	1
BRK	54	288	6
TAP	55	0	2
TAP	55	48	3
TAP	55	96	1
TAP	55	96	4
TAP	55	192	5
TAP	55	240	4
TAP	55	288	3
TAP	55	288	6
HLD	55	336	3	96
TAP	55	336	6
HLD	56	48	1	96
TAP	56	144	2
STR	56	192	0
SI_	56	192	0	96	48	5
STR	56	240	1
SI_	56	240	1	96	48	4
XTP	56	288	0
XTP	56	336	1
TAP	57	0	6
TAP	57	48	7
TAP	57	96	0
TAP	57	96	5
TAP	57	192	1
TAP	57	240	0
TAP	57	288	2
TAP	57	288	7
TAP	57	336	2
HLD	57	336	7	96
HLD	58	48	0	96
TAP	58	144	7
STR	58	192	0
SI_	58	192	0	96	48	4
STR	58	192	7
SI_	58	192	7	96	48	3
XTP	58	288	0
XTP	58	288	7
TAP	59	0	5
TAP	59	48	4
TAP	59	96	3
TAP	59	96	6
TAP	59	192	2
TAP	59	240	3
TAP	59	288	1
TAP	59	288	4
TAP	59	336	1
HLD	59	336	4	96
HLD	60	48	6	96
TAP	60	144	5
STR	60	192	7
SI_	60	192	7	96	48	2
STR	60	240	6
SI_	60	240	6	96	48	3
XTP	60	288	7
XTP	60	336	6
HLD	61	0	1	288
TTP	61	96	3	B	0	M1
TTP	61	96	4	B	0	M1
HLD	61	192	6	96
BRK	61	336	1
BRK	61	336	6
TTP	62	48	3	E	0	M1
TTP	62	96	5	E	0	M1
TTP	62	144	1	E	0	M1
TTP	62	192	7	E	0	M1
TTP	62	240	4	E	0	M1
TTP	62	288	0	C	1	M1
XHO	63	0	1	144
TAP	63	48	3
TAP	63	96	3
XHO	63	144	6	144
TAP	63	192	4
TAP	63	240	4
XHO	63	288	0	144
TAP	63	336	2
TAP	64	0	2
XHO	64	48	7	144
TAP	64	96	5
TAP	64	144	5
XST	64	192	1
SXR	64	192	1	96	96	4
XTP	64	288	4
TAP	65	0	6
TAP	65	48	7
TAP	65	96	0
TAP	65	96	5
TAP	65	144	1
TAP	65	192	0
TAP	65	240	2
TAP	65	240	7
TAP	65	288	3
TAP	65	288	4
TAP	65	336	3
TAP	65	336	4
TTP	66	0	0	E	0	M1
TTP	66	12	1	E	0	M1
TTP	66	24	2	E	0	M1
TTP	66	36	3	E	0	M1
TTP	66	48	4	E	0	M1
TTP	66	60	5	E	0	M1
TTP	66	72	6	E	0	M1
TTP	66	84	7	E	0	M1
TTP	66	96	0	E	0	M1
TTP	66	108	1	E	0	M1
TTP	66	120	2	E	0	M1
TTP	66	132	3	E	0	M1
TTP	66	144	4	E	0	M1
TTP	66	156	5	E	0	M1
TTP	66	168	6	E	0	M1
TTP	66	180	7	E	0	M1
TTP	66	192	0	E	0	M1
TTP	66	204	1	E	0	M1
TTP	66	216	2	E	0	M1
TTP	66	228	3	E	0	M1
TTP	66	240	4	E	0	M1
TTP	66	252	5	E	0	M1
TTP	66	264	6	E	0	M1
TTP	66	276	7	E	0	M1
TTP	66	288	0	E	0	M1
STR	67	0	2
SI_	67	0	2	96	48	6
STR	67	0	3
SI_	67	0	3	96	48	5
STR	67	192	1
SI_	67	192	1	96	48	7
STR	67	192	2
SI_	67	192	2	96	48	6
TAP	68	0	0
TAP	68	0	5
TAP	68	96	2
TAP	68	96	7
HLD	68	144	2	96
TAP	68	144	7
TAP	68	240	3
TAP	68	288	1
TAP	68	288	4
TAP	68	336	0
TAP	68	336	5
STR	69	0	6
SI_	69	0	6	96	48	2
STR	69	0	7
SI_	69	0	7	96	48	1
STR	69	192	5
SI_	69	192	5	96	48	3
STR	69	192	6
SI_	69	192	6	96	48	2
TAP	70	0	1
TAP	70	0	4
TAP	70	96	3
TAP	70	96	6
TAP	70	144	3
HLD	70	144	6	96
TAP	70	240	7
TAP	70	288	0
TAP	70	288	1
TAP	70	336	2
TAP	70	336	3
STR	71	0	4
SI_	71	0	4	96	48	2
STR	71	0	5
SI_	71	0	5	96	48	1
STR	71	192	5
SI_	71	192	5	96	48	1
STR	71	192	6
SI_	71	192	6	96	48	0
TAP	72	0	2
TAP	72	0	7
TAP	72	96	0
TAP	72	96	5
TAP	72	144	0
HLD	72	144	5	96
TAP	72	240	4
TAP	72	288	3
TAP	72	288	6
TAP	72	336	2
TAP	72	336	7
STR	73	0	0
SI_	73	0	0	96	48	6
STR	73	0	1
SI_	73	0	1	96	48	5
STR	73	192	1
SI_	73	192	1	96	48	5
STR	73	192	2
SI_	73	192	2	96	48	4
TAP	74	0	3
TAP	74	0	6
TAP	74	96	1
TAP	74	96	4
HLD	74	144	1	96
TAP	74	144	4
TAP	74	240	6
BRK	74	288	3
BRK	74	288	4
TTP	75	0	0	E	0	M1
TTP	75	12	1	E	0	M1
TTP	75	24	2	E	0	M1
TTP	75	36	3	E	0	M1
TTP	75	48	4	E	0	M1
TTP	75	60	5	E	0	M1
TTP	75	72	6	E	0	M1
TTP	75	84	7	E	0	M1
TTP	75	96	0	E	0	M1
STR	75	192	3
SCL	75	192	3	96	48	0
STR	75	192	7
SCL	75	192	7	96	48	4
TAP	76	0	2
TAP	76	0	6
TAP	76	96	0
TAP	76	96	1
HLD	76	144	2	96
TAP	76	144	7
TAP	76	240	3
TAP	76	288	3
TAP	76	288	4
TAP	76	336	4
TAP	76	336	5
STR	77	0	2
SCL	77	0	2	96	48	7
STR	77	0	6
SCL	77	0	6	96	48	3
STR	77	192	1
SCR	77	192	1	96	48	4
STR	77	192	5
SCR	77	192	5	96	48	0
TAP	78	0	0
TAP	78	0	4
TAP	78	48	3
TAP	78	48	7
TAP	78	96	2
TAP	78	96	6
TAP	78	144	1
HLD	78	144	5	96
TAP	78	240	4
TAP	78	288	3
TAP	78	288	4
TAP	78	336	2
TAP	78	336	3
TAP	79	0	0
HLD	79	0	5	96
TAP	79	24	1
TAP	79	48	2
TAP	79	72	3
TAP	79	96	4
HLD	79	144	2	96
TAP	79	144	7
TAP	79	168	6
TAP	79	192	5
TAP	79	216	4
TAP	79	240	3
TAP	79	264	2
TAP	79	288	1
TAP	79	312	0
HLD	79	336	7	96
TAP	80	48	0
TAP	80	96	1
TAP	80	96	6
TAP	80	144	2
TAP	80	144	5
TAP	80	192	3
TAP	80	192	4
TAP	80	240	6
TAP	80	288	3
TAP	80	288	4
TAP	80	336	1
HLD	81	0	2	96
TAP	81	0	7
TAP	81	24	6
TAP	81	48	5
TAP	81	72	4
TAP	81	96	3
TAP	81	144	0
HLD	81	144	5	96
TAP	81	168	1
TAP	81	192	2
TAP	81	216	3
TAP	81	240	4
TAP	81	264	5
TAP	81	288	6
TAP	81	312	7
HLD	81	336	0	96
TAP	82	48	7
TAP	82	96	1
TAP	82	96	6
TAP	82	144	2
TAP	82	144	5
TAP	82	192	3
TAP	82	192	4
TAP	82	240	1
TAP	82	288	3
TAP	82	288	4
TAP	82	336	6
TAP	83	0	0
HLD	83	0	5	96
TAP	83	24	1
TAP	83	48	2
TAP	83	72	3
TAP	83	96	4
HLD	83	144	2	96
TAP	83	144	7
TAP	83	168	6
TAP	83	192	5
TAP	83	216	4
TAP	83	240	3
TAP	83	264	2
TAP	83	288	1
TAP	83	312	0
HLD	83	336	7	96
TAP	84	48	0
TAP	84	96	1
TAP	84	96	6
TAP	84	144	2
TAP	84	144	5
TAP	84	192	3
TAP	84	192	4
TAP	84	240	3
TAP	84	240	4
BST	84	288	0
SCR	84	288	0	96	48	3
BST	84	288	7
SCL	84	288	7	96	48	4
TTP	85	0	1	E	0	M1
TTP	85	0	7	E	0	M1
TTP	85	12	2	E	0	M1
TTP	85	12	6	E	0	M1
TTP	85	24	3	E	0	M1
TTP	85	24	5	E	0	M1
XTP	85	96	1
XTP	85	96	6
STR	85	192	0
SCR	85	192	0	96	48	3
TTP	85	288	4	B	0	M1
TTP	85	288	5	B	0	M1
STR	86	0	7
SCL	86	0	7	96	48	4
TTP	86	96	2	B	0	M1
TTP	86	96	3	B	0	M1
STR	86	192	0
SCR	86	192	0	96	48	3
TTP	86	288	4	B	0	M1
TTP	86	288	5	B	0	M1
STR	87	0	7
SCL	87	0	7	96	48	4
TTP	87	96	1	B	0	M1
TTP	87	96	2	B	0	M1
STR	87	192	0
SCR	87	192	0	96	48	3
TTP	87	288	5	B	0	M1
TTP	87	288	6	B	0	M1
STR	88	0	7
SCL	88	0	7	96	48	4
TTP	88	96	1	B	0	M1
TTP	88	96	2	B	0	M1
STR	88	192	0
SCR	88	192	0	96	48	3
TTP	88	288	5	B	0	M1
TTP	88	288	6	B	0	M1
STR	89	0	7
SCL	89	0	7	96	48	4
TTP	89	96	0	C	0	M1
STR	89	192	0
SCR	89	192	0	96	48	3
TTP	89	288	5	B	0	M1
TTP	89	288	6	B	0	M1
STR	90	0	7
SCL	90	0	7	96	48	4
TTP	90	96	1	B	0	M1
TTP	90	96	2	B	0	M1
STR	90	192	0
SCR	90	192	0	96	48	3
TTP	90	288	0	C	0	M1
TAP	91	48	5
TAP	91	96	4
TAP	91	144	3
TAP	91	192	2
TAP	91	240	3
TAP	91	288	4
TAP	91	336	5
STR	92	0	2
SCR	92	0	2	96	48	5
TTP	92	96	0	E	0	M1
TTP	92	192	0	C	0	M1

T_REC_TAP	473
T_REC_BRK	13
T_REC_XTP	19
T_REC_HLD	45
T_REC_XHO	8
T_REC_STR	108
T_REC_BST	5
T_REC_XST	1
T_REC_TTP	109
T_REC_THO	0
T_REC_SLD	114
T_REC_ALL	895
T_NUM_TAP	710
T_NUM_BRK	18
T_NUM_HLD	53
T_NUM_SLD	114
T_NUM_ALL	895
T_JUDGE_TAP	728
T_JUDGE_HLD	124
T_JUDGE_SLD	114
T_JUDGE_ALL	966
TTM_EACHPAIRS	198
TTM_SCR_TAP	355000
TTM_SCR_BRK	46800
TTM_SCR_HLD	53000
TTM_SCR_SLD	171000
TTM_SCR_ALL	625800
TTM_SCR_S	605300
TTM_SCR_SS	624000
TTM_RAT_ACV	10028

