VERSION	0.00.00	1.03.00
FES_MODE	0
BPM_DEF	175.000	175.000	175.000	175.000
MET_DEF	4	4
RESOLUTION	384
CLK_DEF	384
COMPATIBLE_CODE	MA2

BPM	0	0	175.000
MET	0	0	4	4

HLD	1	0	5	96
TAP	1	96	4
TAP	1	192	2
TAP	1	192	3
TAP	1	288	1
XTP	1	336	1
XTP	2	48	2
XTP	2	144	3
XTP	2	144	5
TAP	2	240	7
TAP	2	288	7
HLD	3	0	2	96
TAP	3	96	3
TAP	3	192	4
TAP	3	192	5
TAP	3	288	6
XTP	3	336	6
XTP	4	48	5
XTP	4	144	2
XTP	4	144	4
TAP	4	240	0
TAP	4	288	0
HLD	5	0	5	96
TAP	5	96	4
TAP	5	192	2
TAP	5	192	3
TAP	5	288	1
XTP	5	336	1
XTP	6	48	2
XTP	6	144	3
XTP	6	144	5
TAP	6	240	7
TAP	6	288	7
HLD	7	0	2	96
TAP	7	96	3
TAP	7	192	4
TAP	7	192	5
TAP	7	288	6
XTP	7	336	6
XTP	8	48	5
BRK	8	144	1
BRK	8	144	6
TAP	8	240	0
TAP	8	288	0
HLD	9	0	2	96
TAP	9	96	0
STR	9	192	1
SI_	9	192	1	96	48	3
TAP	9	192	7
HLD	10	0	5	96
TAP	10	96	7
TAP	10	192	0
STR	10	192	6
SI_	10	192	6	96	48	4
HLD	11	0	2	96
TAP	11	96	0
STR	11	192	1
SI_	11	192	1	96	48	3
TAP	11	192	7
HLD	12	0	5	96
TAP	12	96	7
TAP	12	192	0
STR	12	192	6
SI_	12	192	6	96	48	4
HLD	13	0	2	384
TAP	13	96	0
TAP	13	192	7
TAP	13	288	6
HLD	14	0	5	288
TAP	14	96	4
TAP	14	192	3
TAP	14	288	2
TAP	15	0	1
TAP	15	48	1
TAP	15	96	0
TAP	15	144	0
TAP	15	192	7
TAP	15	240	7
TAP	15	288	6
TTP	16	0	0	C	1	M1
BRK	16	288	1
BRK	16	288	6
TAP	17	0	0
HLD	17	0	7	192
TTP	17	192	0	B	0	M1
TTP	17	288	0	C	0	M1
TTP	18	0	4	B	0	M1
TAP	18	96	6
TAP	18	144	6
TAP	18	288	0
TAP	18	288	5
HLD	19	0	3	192
TAP	19	0	4
TTP	19	192	4	B	0	M1
TTP	19	288	0	C	0	M1
TTP	20	0	0	B	0	M1
TAP	20	96	2
TAP	20	144	2
TAP	20	288	1
TAP	20	288	4
TAP	21	0	0
HLD	21	0	6	192
TTP	21	192	7	B	0	M1
TTP	21	288	0	C	0	M1
TTP	22	0	3	B	0	M1
TAP	22	96	5
TAP	22	144	5
TAP	22	288	3
TAP	22	288	6
HLD	23	0	2	192
TAP	23	0	4
TTP	23	192	3	B	0	M1
TTP	23	288	0	C	0	M1
TTP	24	0	7	B	0	M1
TAP	24	96	0
TAP	24	144	0
BRK	24	240	2
BRK	24	240	5
BRK	24	288	2
BRK	24	288	5
TAP	25	0	0
HLD	25	0	7	192
TTP	25	192	0	B	0	M1
TTP	25	288	0	C	0	M1
TTP	26	0	4	B	0	M1
TAP	26	96	5
HLD	26	144	5	96
TAP	26	240	7
TAP	26	288	7
HLD	27	0	3	192
TAP	27	0	4
TTP	27	192	4	B	0	M1
TTP	27	288	0	C	0	M1
TTP	28	0	0	B	0	M1
TAP	28	96	1
HLD	28	144	1	96
TAP	28	240	3
TAP	28	288	3
HLD	29	0	2	96
TAP	29	96	3
HLD	29	144	3	96
TAP	29	240	4
HLD	29	288	4	96
TAP	30	0	5
TAP	30	96	0
TAP	30	96	6
TAP	30	192	2
TAP	30	192	3
TAP	30	288	1
TAP	30	288	7
HLD	31	0	3	96
TTP	31	96	3	B	0	M1
HLD	31	192	2	96
TTP	31	288	2	B	0	M1
HLD	32	0	1	96
TTP	32	96	1	B	0	M1
HLD	32	192	3	96
TTP	32	288	3	B	0	M1
HLD	33	0	4	96
TTP	33	96	4	B	0	M1
HLD	33	192	5	96
TTP	33	288	5	B	0	M1
HLD	34	0	6	96
TTP	34	96	6	B	0	M1
HLD	34	192	4	96
TTP	34	288	4	B	0	M1
HLD	35	0	2	96
TTP	35	96	2	B	0	M1
HLD	35	192	3	96
TTP	35	288	3	B	0	M1
HLD	36	0	4	96
TTP	36	96	4	B	0	M1
HLD	36	192	5	96
TTP	36	288	5	B	0	M1
TAP	37	48	3
TAP	37	96	3
TAP	37	192	4
TAP	37	240	3
TAP	37	288	4
TTP	38	0	2	B	0	M1
TTP	38	96	5	B	0	M1
TTP	38	192	0	C	0	M1
HLD	39	0	1	96
TAP	39	0	6
TAP	39	96	3
TAP	39	144	3
TAP	39	192	2
TAP	39	288	0
TAP	39	288	5
TAP	40	48	7
TAP	40	96	7
TAP	40	192	0
TAP	40	192	6
TAP	40	288	1
TAP	40	288	5
TAP	41	0	6
TAP	41	48	6
TAP	41	96	4
TAP	41	192	1
TAP	41	240	1
TAP	41	288	3
TAP	42	48	0
TAP	42	48	7
STR	42	96	0
SCR	42	96	0	96	96	3
STR	42	96	7
SCL	42	96	7	96	96	4
TAP	43	0	1
HLD	43	0	6	96
TAP	43	96	4
TAP	43	144	4
TAP	43	192	5
TAP	43	288	2
TAP	43	288	7
TAP	44	48	0
TAP	44	48	1
TAP	44	96	0
TAP	44	96	1
TAP	44	192	2
STR	44	192	5
SCR	44	192	5	96	48	7
HLD	45	0	0	96
STR	45	96	3
SSL	45	96	3	96	192	7
HLD	46	0	0	192
TAP	46	192	7
BRK	46	288	1
BRK	46	288	5
TAP	47	0	2
TAP	47	96	1
TAP	47	96	3
TAP	47	192	5
TAP	47	288	4
TAP	47	288	6
TAP	48	0	7
TAP	48	48	7
TAP	48	96	1
TAP	48	144	1
TAP	48	192	3
TAP	48	240	3
TAP	48	288	0
TAP	49	0	5
TAP	49	96	4
TAP	49	96	7
TAP	49	192	2
TAP	49	288	0
TAP	49	288	3
TAP	50	0	6
TAP	50	48	6
TAP	50	96	4
TAP	50	144	4
TAP	50	192	7
BRK	50	288	2
BRK	50	288	6
TAP	51	0	1
TAP	51	96	0
TAP	51	96	2
TAP	51	192	6
TAP	51	288	5
TAP	51	288	7
HLD	52	0	0	96
TAP	52	96	4
BRK	52	192	2
BRK	52	192	6
BRK	52	240	2
BRK	52	240	6
TAP	53	0	5
TAP	53	48	5
STR	53	96	0
SSL	53	96	0	96	192	4
HLD	54	0	5	192
TAP	54	192	4
BRK	54	288	1
BRK	54	288	6
TAP	55	0	2
TAP	55	48	2
TAP	55	96	4
TAP	55	192	5
TAP	55	240	5
TAP	55	288	3
XTP	55	336	3
XTP	56	48	2
XTP	56	48	6
HLD	56	144	0	144
TAP	56	240	7
TAP	56	288	7
TAP	57	0	6
TAP	57	48	6
TAP	57	96	0
TAP	57	192	1
TAP	57	240	1
TAP	57	288	7
XTP	57	336	7
XTP	58	48	2
XTP	58	48	6
HLD	58	144	4	144
TAP	58	240	3
TAP	58	288	3
TAP	59	0	2
TAP	59	48	3
TAP	59	96	1
TAP	59	192	5
TAP	59	240	4
TAP	59	288	6
XTP	59	336	6
XTP	60	48	0
XTP	60	48	4
XTP	60	144	1
XTP	60	144	6
TAP	60	240	0
TAP	60	288	0
TAP	61	0	2
TAP	61	0	3
TAP	61	96	0
TAP	61	96	7
TAP	61	192	4
TAP	61	192	5
TAP	61	288	0
TAP	61	288	7
STR	61	336	0
SLL	61	336	0	96	144	4
STR	61	336	7
SLR	61	336	7	96	144	3
BRK	62	288	1
BRK	62	288	6
HLD	63	0	4	288
STR	63	0	5
SXL	63	0	5	96	192	0
STR	64	0	2
SXR	64	0	2	96	192	7
HLD	64	0	3	288
THO	65	0	0	384	C	1	M1
TAP	66	0	0
TAP	66	96	0
TAP	66	192	0
BRK	66	288	7
TAP	67	0	0
HLD	67	0	1	192
TAP	67	96	4
TTP	67	192	4	E	0	M1
TTP	67	288	0	C	0	M1
TTP	68	0	0	E	0	M1
TAP	68	96	0
HLD	68	144	0	96
TAP	68	240	3
TAP	68	288	3
HLD	69	0	6	192
TAP	69	0	7
TAP	69	96	3
TTP	69	192	4	E	0	M1
TTP	69	288	0	C	0	M1
TTP	70	0	0	E	0	M1
TAP	70	96	7
HLD	70	144	7	96
TAP	70	240	4
TAP	70	288	4
HLD	71	0	2	192
TAP	71	0	3
TAP	71	96	7
TTP	71	192	0	B	0	M1
TTP	71	288	0	C	0	M1
TTP	72	0	4	B	0	M1
TAP	72	96	2
TAP	72	96	7
HLD	72	144	2	96
TAP	72	144	7
TAP	72	240	0
TAP	72	288	0
TAP	73	0	4
HLD	73	0	5	192
TAP	73	96	0
TTP	73	192	7	B	0	M1
TTP	73	288	0	C	0	M1
TTP	74	0	3	B	0	M1
TAP	74	96	0
TAP	74	96	5
TAP	74	144	0
HLD	74	144	5	96
TAP	74	240	7
TAP	74	288	7
THO	75	0	0	96	C	1	M1
TAP	75	192	0
TAP	75	192	7
TAP	75	288	4
TAP	75	288	5
TAP	76	0	1
TAP	76	48	1
TAP	76	96	4
TAP	76	144	4
HLD	76	192	2	96
BRK	76	288	7
TAP	77	0	0
TAP	77	0	6
TAP	77	96	4
TAP	77	96	5
TAP	77	192	1
TAP	77	192	7
TAP	77	288	2
TAP	77	288	3
TAP	78	0	6
TAP	78	48	6
TAP	78	96	3
TAP	78	144	3
HLD	78	192	5	96
BRK	78	288	0
XTP	79	0	0
XTP	79	0	7
XTP	79	96	1
XTP	79	96	3
XTP	79	144	1
XTP	79	144	3
XTP	79	240	4
XTP	79	240	6
XTP	79	288	4
XTP	79	288	6
HLD	79	336	7	96
TAP	80	48	0
TAP	80	96	0
TAP	80	144	5
TAP	80	192	5
BRK	80	288	1
BRK	80	288	6
XTP	81	0	2
XTP	81	0	4
XTP	81	96	6
XTP	81	96	7
XTP	81	144	6
XTP	81	144	7
XTP	81	240	2
XTP	81	240	3
XTP	81	288	2
XTP	81	288	3
HLD	81	336	1	96
TAP	82	48	7
TAP	82	96	7
TAP	82	144	2
TAP	82	192	2
BRK	82	288	1
BRK	82	288	6
XTP	83	0	0
XTP	83	0	7
XTP	83	96	3
XTP	83	96	4
XTP	83	144	3
XTP	83	144	4
XTP	83	240	0
XTP	83	240	7
XTP	83	288	0
XTP	83	288	7
HLD	83	336	1	240
HLD	83	336	6	240
TTP	84	288	0	C	1	M1
HLD	85	0	2	96
TTP	85	96	2	B	0	M1
HLD	85	192	1	96
TTP	85	288	1	B	0	M1
HLD	86	0	2	96
TTP	86	96	2	B	0	M1
HLD	86	192	3	96
TTP	86	288	3	B	0	M1
HLD	87	0	5	96
TTP	87	96	5	B	0	M1
HLD	87	192	6	96
TTP	87	288	6	B	0	M1
HLD	88	0	5	96
TTP	88	96	5	B	0	M1
HLD	88	192	4	96
TTP	88	288	4	B	0	M1
HLD	89	0	2	96
TTP	89	96	2	B	0	M1
HLD	89	192	3	96
TTP	89	288	3	B	0	M1
HLD	90	0	4	96
TTP	90	96	4	B	0	M1
HLD	90	192	5	96
TTP	90	288	5	B	0	M1
TAP	91	48	2
TAP	91	48	5
TAP	91	96	2
TAP	91	96	5
TAP	91	192	3
TAP	91	240	4
TAP	91	288	3
TTP	92	0	1	B	0	M1
TTP	92	0	2	B	0	M1
TTP	92	96	5	B	0	M1
TTP	92	96	6	B	0	M1
TTP	92	192	0	C	1	M1

T_REC_TAP	245
T_REC_BRK	27
T_REC_XTP	55
T_REC_HLD	69
T_REC_XHO	0
T_REC_STR	13
T_REC_BST	0
T_REC_XST	0
T_REC_TTP	64
T_REC_THO	2
T_REC_SLD	13
T_REC_ALL	488
T_NUM_TAP	377
T_NUM_BRK	27
T_NUM_HLD	71
T_NUM_SLD	13
T_NUM_ALL	488
T_JUDGE_TAP	404
T_JUDGE_HLD	198
T_JUDGE_SLD	13
T_JUDGE_ALL	615
TTM_EACHPAIRS	95
TTM_SCR_TAP	188500
TTM_SCR_BRK	70200
TTM_SCR_HLD	71000
TTM_SCR_SLD	19500
TTM_SCR_ALL	349200
TTM_SCR_S	336150
TTM_SCR_SS	346500
TTM_RAT_ACV	10077

