VERSION	0.00.00	1.03.00
FES_MODE	0
BPM_DEF	175.000	175.000	175.000	175.000
MET_DEF	4	4
RESOLUTION	384
CLK_DEF	384
COMPATIBLE_CODE	MA2

BPM	0	0	175.000
MET	0	0	4	4

HLD	1	0	5	192
TAP	1	192	4
TAP	2	0	3
TAP	2	96	3
TAP	2	192	3
HLD	3	0	2	192
TAP	3	192	3
TAP	4	0	4
TAP	4	96	4
TAP	4	192	4
HLD	5	0	5	192
TAP	5	192	4
TAP	6	0	3
TAP	6	96	3
TAP	6	192	4
HLD	7	0	2	192
TAP	7	192	3
TAP	8	0	4
TAP	8	96	3
TAP	8	192	2
TAP	8	192	5
TAP	9	0	5
TAP	9	96	5
TAP	9	192	4
TAP	9	288	4
TAP	10	0	2
TAP	10	96	2
TAP	10	192	3
TAP	10	288	3
TAP	11	0	5
TAP	11	96	5
TAP	11	192	4
TAP	11	288	4
TAP	12	0	2
TAP	12	96	2
TAP	12	192	3
TAP	12	288	3
TAP	13	0	5
TAP	13	96	5
TAP	13	192	3
TAP	13	192	4
TAP	13	288	3
TAP	13	288	4
TAP	14	0	2
TAP	14	96	2
TAP	14	192	3
TAP	14	192	4
TAP	14	288	3
TAP	14	288	4
TAP	15	0	2
TAP	15	0	5
TAP	15	96	2
TAP	15	96	5
TAP	15	192	1
TAP	15	192	6
TAP	15	288	1
TAP	15	288	6
HLD	16	0	0	288
HLD	16	0	7	288
TAP	17	0	1
TAP	17	96	1
TAP	17	192	0
TAP	17	192	1
TAP	18	0	6
TAP	18	96	6
TAP	18	192	6
TAP	18	192	7
TAP	19	0	0
TAP	19	96	0
TAP	19	192	1
TAP	19	192	7
TAP	20	0	0
TAP	20	0	7
TAP	20	96	0
TAP	20	96	7
TAP	20	192	0
TAP	20	192	7
TAP	21	0	6
TAP	21	96	6
TAP	21	192	6
TAP	21	192	7
TAP	22	0	1
TAP	22	96	1
TAP	22	192	0
TAP	22	192	1
TAP	23	0	7
TAP	23	96	7
TAP	23	192	0
TAP	23	192	6
HLD	24	0	0	96
HLD	24	0	7	96
TAP	24	192	1
TAP	24	192	6
TAP	25	0	2
TAP	25	96	2
TAP	25	192	3
TAP	25	288	3
HLD	26	0	3	96
HLD	26	0	4	96
TAP	26	192	3
TAP	26	192	4
TAP	27	0	5
TAP	27	96	5
TAP	27	192	4
TAP	27	288	4
HLD	28	0	3	96
HLD	28	0	4	96
TAP	28	192	3
TAP	28	192	4
TAP	29	0	2
TAP	29	96	2
TAP	29	192	5
TAP	29	288	5
TAP	30	0	3
TAP	30	0	4
TAP	30	96	2
TAP	30	96	5
XTP	30	192	1
XTP	30	192	6
TTP	31	0	2	B	0	L1
TTP	31	192	0	C	0	L1
TTP	32	0	6	B	0	L1
TTP	33	0	5	B	0	L1
TTP	33	192	0	C	0	L1
TTP	34	0	1	B	0	L1
TTP	35	0	1	E	0	L1
TTP	35	192	0	C	0	L1
TTP	36	0	5	E	0	L1
THO	37	0	0	384	C	1	L1
XST	39	0	1
SI_	39	0	1	96	192	4
TAP	40	192	5
XST	41	0	6
SI_	41	0	6	96	192	3
TAP	42	192	2
XST	43	0	1
SCR	43	0	1	96	192	4
TAP	44	192	5
XST	45	0	3
SI_	45	0	3	96	192	0
XST	45	0	4
SI_	45	0	4	96	192	7
TAP	46	192	1
TAP	46	192	6
TAP	47	0	2
TAP	47	96	2
TAP	47	192	1
TAP	47	192	3
TAP	48	0	5
TAP	48	96	5
TAP	48	192	4
TAP	48	192	6
TAP	49	0	2
TAP	49	96	2
TAP	49	192	3
TAP	49	288	3
TAP	50	0	4
TAP	50	96	4
TAP	50	192	3
TAP	50	192	5
TAP	51	0	5
TAP	51	96	5
TAP	51	192	4
TAP	51	192	6
TAP	52	0	2
TAP	52	96	2
TAP	52	192	1
TAP	52	192	3
STR	53	0	0
SI_	53	0	0	96	192	3
STR	53	0	7
SI_	53	0	7	96	192	4
TAP	54	192	2
TAP	54	192	5
HLD	55	0	2	96
TAP	55	96	3
HLD	55	192	4	96
TAP	55	288	3
TAP	56	0	2
TAP	56	96	2
TAP	56	192	1
TAP	56	192	3
HLD	57	0	5	96
TAP	57	96	4
HLD	57	192	3	96
TAP	57	288	4
TAP	58	0	5
TAP	58	96	5
TAP	58	192	4
TAP	58	192	6
HLD	59	0	2	96
TAP	59	96	3
HLD	59	192	5	96
TAP	59	288	4
TAP	60	0	3
TAP	60	96	2
TAP	60	192	1
TAP	60	192	3
TAP	61	0	7
TAP	61	96	7
TAP	61	192	0
TAP	61	288	0
TAP	62	0	0
TAP	62	0	7
TAP	62	96	0
TAP	62	96	7
XTP	62	192	1
XTP	62	192	6
STR	63	0	4
SCR	63	0	4	96	192	7
TAP	64	192	0
STR	64	288	0
SCR	64	288	0	96	192	3
TAP	66	0	4
TAP	66	96	3
BRK	66	192	2
BRK	66	192	5
TAP	67	0	2
TAP	67	96	2
TAP	67	96	3
TAP	67	192	5
TAP	67	288	4
TAP	67	288	5
TAP	68	0	2
TAP	68	96	2
TAP	68	192	1
TAP	68	192	3
TAP	69	0	5
TAP	69	96	4
TAP	69	96	5
TAP	69	192	2
TAP	69	288	2
TAP	69	288	3
TAP	70	0	5
TAP	70	96	5
TAP	70	192	4
TAP	70	192	6
TAP	71	0	1
TAP	71	96	0
TAP	71	96	1
TAP	71	192	6
TAP	71	288	6
TAP	71	288	7
TAP	72	0	1
TAP	72	96	1
TAP	72	192	0
TAP	72	192	2
TAP	73	0	6
TAP	73	96	6
TAP	73	192	0
TAP	73	192	7
TAP	73	288	0
TAP	73	288	7
TAP	74	0	1
TAP	74	96	1
XTP	74	192	0
XTP	74	192	2
TAP	75	0	1
TAP	75	96	2
TAP	75	192	3
TAP	75	288	4
TAP	76	0	3
TAP	76	0	4
TAP	76	96	3
TAP	76	96	4
TAP	76	192	2
TAP	76	192	5
STR	77	0	3
SI_	77	0	3	96	192	0
STR	77	0	4
SI_	77	0	4	96	192	7
XTP	78	192	1
XTP	78	192	6
TAP	79	0	1
TAP	79	96	2
TAP	79	192	3
TAP	79	192	4
TAP	80	0	5
TAP	80	96	5
TAP	80	192	4
TAP	80	192	6
TAP	81	0	6
TAP	81	96	5
TAP	81	192	3
TAP	81	192	4
TAP	82	0	2
TAP	82	96	2
TAP	82	96	3
TAP	82	192	1
TAP	82	192	4
TAP	83	0	2
TAP	83	96	1
TAP	83	192	0
TAP	83	192	7
TAP	84	0	0
TAP	84	0	7
TAP	84	96	1
TAP	84	96	6
XTP	84	192	2
XTP	84	192	5
TTP	85	0	1	E	0	L1
TTP	85	192	0	C	0	L1
TTP	86	0	5	E	0	L1
XTP	86	192	6
TTP	87	0	7	E	0	L1
TTP	87	192	0	C	0	L1
TTP	88	0	3	E	0	L1
XTP	88	192	1
TTP	89	0	1	E	0	L1
TTP	89	192	0	C	0	L1
TTP	90	0	5	E	0	L1
XTP	90	192	6
TTP	91	0	7	E	0	L1
TTP	91	192	1	E	0	L1
THO	92	0	0	192	C	0	L1

T_REC_TAP	238
T_REC_BRK	2
T_REC_XTP	13
T_REC_HLD	18
T_REC_XHO	0
T_REC_STR	6
T_REC_BST	0
T_REC_XST	5
T_REC_TTP	20
T_REC_THO	2
T_REC_SLD	11
T_REC_ALL	315
T_NUM_TAP	282
T_NUM_BRK	2
T_NUM_HLD	20
T_NUM_SLD	11
T_NUM_ALL	315
T_JUDGE_TAP	284
T_JUDGE_HLD	64
T_JUDGE_SLD	11
T_JUDGE_ALL	359
TTM_EACHPAIRS	70
TTM_SCR_TAP	141000
TTM_SCR_BRK	5200
TTM_SCR_HLD	20000
TTM_SCR_SLD	16500
TTM_SCR_ALL	182700
TTM_SCR_S	177050
TTM_SCR_SS	182500
TTM_RAT_ACV	10010

