VERSION	0.00.00	1.03.00
FES_MODE	0
BPM_DEF	210.000	210.000	210.000	210.000
MET_DEF	4	4
RESOLUTION	384
CLK_DEF	384
COMPATIBLE_CODE	MA2

BPM	0	0	210.000
MET	0	0	4	4

TAP	2	288	4
TAP	2	336	3
TAP	3	0	3
TAP	3	0	4
TAP	3	96	2
TAP	3	192	2
TAP	3	288	2
TAP	4	0	2
TTP	4	0	6	B	0	M1
TAP	4	96	2
TTP	4	96	6	B	0	M1
TAP	4	192	2
TTP	4	192	6	B	0	M1
TAP	4	288	2
TTP	4	288	6	B	0	M1
THO	5	0	0	144	C	1	M1
TAP	5	0	2
TTP	5	0	6	B	0	M1
TAP	5	96	2
TTP	5	96	6	B	0	M1
TAP	5	192	2
TTP	5	192	6	B	0	M1
TAP	5	288	2
TTP	5	288	6	B	0	M1
THO	6	0	0	144	C	1	M1
TAP	6	0	2
TTP	6	0	6	B	0	M1
TAP	6	96	2
TTP	6	96	6	B	0	M1
TAP	6	192	2
TTP	6	192	6	B	0	M1
TAP	6	288	2
TTP	6	288	6	B	0	M1
THO	7	0	0	144	C	1	M1
TAP	7	0	2
TTP	7	0	6	B	0	M1
TAP	7	96	2
TTP	7	96	6	B	0	M1
TAP	7	192	2
TTP	7	192	6	B	0	M1
TAP	7	288	2
TTP	7	288	6	B	0	M1
THO	8	0	0	144	C	1	M1
TAP	8	0	2
TTP	8	0	6	B	0	M1
TAP	8	96	2
TTP	8	96	6	B	0	M1
TAP	8	192	3
TTP	8	192	7	B	0	M1
TTP	8	288	0	B	0	M1
TAP	8	288	4
THO	9	0	0	144	C	1	M1
TTP	9	0	1	B	0	M1
TAP	9	0	5
TTP	9	96	1	B	0	M1
TAP	9	96	5
TTP	9	192	1	B	0	M1
TAP	9	192	5
TTP	9	288	1	B	0	M1
TAP	9	288	5
THO	10	0	0	144	C	1	M1
TTP	10	0	1	B	0	M1
TAP	10	0	5
TTP	10	96	1	B	0	M1
TAP	10	96	5
TTP	10	192	1	B	0	M1
TAP	10	192	5
TTP	10	288	1	B	0	M1
TAP	10	288	5
THO	11	0	0	144	C	1	M1
TTP	11	0	1	B	0	M1
TAP	11	0	5
TTP	11	96	1	B	0	M1
TAP	11	96	5
TTP	11	192	1	B	0	M1
TAP	11	192	5
TTP	11	288	1	B	0	M1
TAP	11	288	5
THO	12	0	0	144	C	0	M1
TTP	12	0	1	B	0	M1
TAP	12	0	5
TTP	12	96	1	B	0	M1
TAP	12	96	5
TAP	12	192	7
TAP	12	216	0
TAP	12	240	7
TAP	12	264	0
BRK	12	288	7
HLD	13	0	4	576
TAP	13	0	5
TTP	13	144	1	B	0	M1
TTP	13	192	7	B	0	M1
TTP	13	240	2	B	0	M1
TTP	13	288	6	B	0	M1
TTP	13	336	3	B	0	M1
TTP	14	0	5	B	0	M1
TTP	14	48	2	E	0	M1
TTP	14	96	7	E	0	M1
TTP	14	144	3	E	0	M1
TTP	14	192	5	E	0	M1
STR	14	288	2
SXL	14	288	2	96	72	4
TAP	14	288	6
HLD	15	0	5	144
TAP	15	144	7
TAP	15	192	1
TAP	15	240	3
TAP	15	288	5
TAP	15	336	7
TAP	16	0	0
TAP	16	0	6
TAP	16	48	7
TAP	16	96	7
TAP	16	144	0
TAP	16	144	6
TAP	16	192	7
TAP	16	240	7
XTP	16	288	0
XTP	16	288	6
TAP	17	0	2
HLD	17	0	3	576
TTP	17	144	6	B	0	M1
TTP	17	192	0	B	0	M1
TTP	17	240	5	B	0	M1
TTP	17	288	1	B	0	M1
TTP	17	336	4	B	0	M1
TTP	18	0	2	B	0	M1
TTP	18	48	6	E	0	M1
TTP	18	96	1	E	0	M1
TTP	18	144	5	E	0	M1
TTP	18	192	3	E	0	M1
TAP	18	288	1
STR	18	288	5
SXR	18	288	5	96	72	3
HLD	19	0	2	144
TAP	19	144	0
TAP	19	192	6
TAP	19	240	4
TAP	19	288	2
TAP	19	336	0
TTP	20	0	6	E	0	M1
TTP	20	48	4	E	0	M1
TTP	20	96	2	E	0	M1
TTP	20	144	0	E	0	M1
TTP	20	192	4	B	0	M1
TTP	20	192	5	B	0	M1
TTP	20	240	2	B	0	M1
TTP	20	240	3	B	0	M1
TTP	20	288	0	C	0	M1
TAP	21	0	6
HLD	21	0	7	96
TAP	21	96	6
HLD	21	192	0	96
TAP	21	192	1
TAP	21	288	1
TAP	22	0	4
TAP	22	0	6
TAP	22	96	1
TAP	22	96	3
TAP	22	192	0
TAP	22	192	7
BRK	22	288	2
BRK	22	288	5
STR	23	0	3
SLR	23	0	3	96	96	2
TAP	23	48	0
TAP	23	96	3
STR	23	192	6
SLL	23	192	6	96	96	7
TAP	23	240	1
TAP	23	288	6
STR	24	0	3
SLR	24	0	3	96	96	2
TAP	24	48	0
TAP	24	96	3
STR	24	192	6
SLL	24	192	6	96	96	7
TAP	24	240	1
TAP	24	288	6
TAP	25	0	2
HLD	25	48	2	144
TAP	25	96	3
TAP	25	192	1
HLD	25	240	1	144
TAP	25	288	0
STR	26	0	2
SI_	26	0	2	96	48	5
TAP	26	192	1
TAP	26	192	6
TAP	26	240	4
TAP	26	288	4
TAP	26	336	4
STR	27	0	4
SLL	27	0	4	96	96	5
TAP	27	48	7
TAP	27	96	4
STR	27	192	1
SLR	27	192	1	96	96	0
TAP	27	240	6
TAP	27	288	1
STR	28	0	4
SLL	28	0	4	96	96	5
TAP	28	48	7
TAP	28	96	4
STR	28	192	1
SLR	28	192	1	96	96	0
TAP	28	240	6
TAP	28	288	1
TAP	29	0	5
HLD	29	48	5	144
TAP	29	96	4
TAP	29	192	6
HLD	29	240	6	144
TAP	29	288	7
STR	30	0	5
SI_	30	0	5	96	48	2
SI_	30	0	5	96	48	3
XST	30	96	5
SI_	30	96	5	96	48	0
SI_	30	96	5	96	48	7
XTP	30	192	5
TAP	31	0	2
TAP	31	0	4
TAP	31	48	3
STR	31	96	2
SLR	31	96	2	96	96	0
STR	31	96	4
SLL	31	96	4	96	96	6
TAP	31	144	3
TAP	32	0	3
TAP	32	0	5
TAP	32	48	4
STR	32	96	3
SLR	32	96	3	96	96	1
STR	32	96	5
SLL	32	96	5	96	96	7
TAP	32	144	4
TAP	33	0	2
HLD	33	48	2	144
TAP	33	96	1
TAP	33	192	5
HLD	33	240	5	144
TAP	33	288	6
TAP	34	0	0
STR	34	96	0
SLL	34	96	0	96	96	3
STR	34	96	7
SLR	34	96	7	96	96	4
TAP	35	0	2
TAP	35	0	4
TAP	35	48	2
TAP	35	48	4
TAP	35	96	3
TAP	35	96	5
TAP	35	144	3
TAP	35	144	5
TAP	35	192	2
TAP	35	192	4
TAP	35	240	3
TAP	35	264	3
TAP	35	288	3
TAP	35	336	2
TAP	35	336	4
TAP	36	0	2
TAP	36	0	3
TAP	36	48	2
TAP	36	48	3
TAP	36	96	4
TAP	36	96	5
TAP	36	144	4
TAP	36	144	5
XST	36	192	2
SI_	36	192	2	96	36	6
XST	36	192	5
SI_	36	192	5	96	36	1
XTP	36	288	2
XTP	36	288	5
BRK	37	0	0
TAP	37	48	4
TAP	37	96	4
BRK	37	144	0
TAP	37	192	4
TAP	37	240	4
BRK	37	288	0
TAP	37	336	4
BRK	38	0	0
BRK	38	48	0
TAP	38	96	4
BST	38	144	0
SSL	38	144	0	96	48	4
XTP	38	240	7
XST	38	288	7
SCL	38	288	7	96	96	3
XST	39	0	3
SCL	39	0	3	96	96	7
STR	39	96	7
SUL	39	96	7	96	96	2
STR	39	192	2
SUL	39	192	2	96	96	6
STR	39	288	6
SCL	39	288	6	96	96	2
STR	40	0	2
SCL	40	0	2	96	96	6
STR	40	96	6
SI_	40	96	6	96	48	2
BRK	40	192	3
STR	40	288	0
SCR	40	288	0	96	96	4
STR	41	0	4
SCR	41	0	4	96	96	0
STR	41	96	0
SUR	41	96	0	96	96	5
STR	41	192	5
SUR	41	192	5	96	96	1
STR	41	288	1
SCR	41	288	1	96	96	5
STR	42	0	5
SCR	42	0	5	96	96	1
STR	42	96	1
SI_	42	96	1	96	48	5
BRK	42	192	4
TAP	42	288	7
TAP	43	0	0
TAP	43	48	7
TAP	43	96	6
HLD	43	144	5	192
TAP	43	240	4
STR	43	288	3
SV_	43	288	3	96	48	6
HLD	43	336	2	144
STR	44	0	3
SV_	44	0	3	96	48	0
TAP	44	192	7
TAP	44	240	0
TAP	44	240	6
TAP	44	288	1
TAP	44	288	5
TAP	44	336	2
TAP	44	336	4
TAP	45	0	3
TAP	45	48	4
TAP	45	96	5
HLD	45	144	6	192
TAP	45	240	7
TAP	45	288	0
TAP	45	336	1
BRK	46	0	6
TAP	46	32	4
TAP	46	64	4
BRK	46	96	1
TAP	46	128	3
TAP	46	160	3
BRK	46	192	6
TAP	46	224	4
TAP	46	256	4
BRK	46	288	1
TAP	46	320	3
TAP	46	352	3
TAP	47	0	7
TAP	47	48	0
TAP	47	96	1
HLD	47	144	2	192
TAP	47	240	3
STR	47	288	4
SV_	47	288	4	96	48	1
HLD	47	336	5	144
STR	48	0	4
SV_	48	0	4	96	48	7
TAP	48	192	0
TAP	48	240	1
TAP	48	240	7
TAP	48	288	2
TAP	48	288	6
TAP	48	336	3
TAP	48	336	5
TAP	49	0	4
TAP	49	48	3
TAP	49	96	2
HLD	49	144	1	192
TAP	49	240	0
TAP	49	288	7
TAP	49	336	6
BRK	50	0	1
TAP	50	32	3
TAP	50	64	3
BRK	50	96	6
TAP	50	128	4
TAP	50	160	4
BRK	50	192	1
TAP	50	224	3
TAP	50	256	3
BRK	50	288	6
TAP	50	320	4
TAP	50	352	4
XTP	51	0	0
XTP	51	48	0
TAP	51	96	5
TAP	51	120	7
TAP	51	144	5
TAP	51	168	7
XTP	51	192	6
XTP	51	240	6
TAP	51	288	2
TAP	51	312	0
TAP	51	336	2
TAP	51	360	0
XTP	52	0	1
TAP	52	24	1
TAP	52	48	1
TAP	52	72	1
XTP	52	96	0
TAP	52	120	0
TAP	52	144	0
TAP	52	168	0
XTP	52	192	7
TAP	52	216	7
TAP	52	240	7
TAP	52	264	7
BRK	52	288	6
TAP	53	0	4
TAP	53	0	5
TAP	53	96	6
TAP	53	144	7
TAP	53	240	7
STR	53	288	6
SI_	53	288	6	96	48	4
STR	53	336	4
SI_	53	336	4	96	48	6
STR	54	0	6
SI_	54	0	6	96	48	0
STR	54	48	0
SI_	54	48	0	96	48	2
STR	54	96	2
SLR	54	96	2	96	96	6
BRK	54	288	3
TTP	55	0	3	E	0	M1
TTP	55	24	5	B	0	M1
TTP	55	48	1	B	0	M1
TTP	55	72	7	E	0	M1
XTP	55	96	0
TAP	55	192	7
TAP	55	240	0
TAP	55	288	6
TAP	55	336	1
TAP	56	0	2
TAP	56	0	3
TAP	56	48	2
TAP	56	96	4
TAP	56	96	5
TAP	56	144	5
XTP	56	192	1
TAP	56	208	2
TAP	56	224	3
XTP	56	240	7
TAP	56	256	6
TAP	56	272	5
BRK	56	288	0
BRK	56	288	4
TAP	57	0	2
TAP	57	0	3
TAP	57	96	1
TAP	57	144	0
TAP	57	240	0
STR	57	288	1
SI_	57	288	1	96	48	3
STR	57	336	3
SI_	57	336	3	96	48	1
STR	58	0	1
SI_	58	0	1	96	48	7
STR	58	48	7
SI_	58	48	7	96	48	5
STR	58	96	5
SLL	58	96	5	96	96	1
BRK	58	288	4
TTP	59	0	2	E	0	M1
TTP	59	24	4	E	0	M1
TTP	59	48	1	E	0	M1
TTP	59	72	5	E	0	M1
XTP	59	96	7
TTP	59	192	6	E	0	M1
TTP	59	216	4	E	0	M1
TTP	59	240	7	E	0	M1
TTP	59	264	3	E	0	M1
XTP	59	288	0
TAP	60	0	3
TAP	60	32	0
TAP	60	64	2
TAP	60	96	7
TAP	60	128	1
TAP	60	160	6
TAP	60	192	0
TAP	60	224	5
TAP	60	256	7
BRK	60	288	0
BRK	60	288	4
TAP	61	0	2
TAP	61	0	3
TAP	61	96	2
TAP	61	96	3
HLD	61	192	1	24
HLD	61	192	2	24
HLD	61	240	1	24
HLD	61	240	2	24
HLD	61	288	1	24
HLD	61	288	2	24
HLD	61	336	1	24
HLD	61	336	2	24
HLD	62	0	0	96
HLD	62	0	3	96
HLD	62	144	2	96
HLD	62	144	5	96
TAP	62	288	0
TAP	62	288	7
TAP	63	0	4
TAP	63	0	5
TAP	63	96	4
TAP	63	96	5
HLD	63	192	5	24
HLD	63	192	6	24
HLD	63	240	5	24
HLD	63	240	6	24
HLD	63	288	5	24
HLD	63	288	6	24
HLD	63	336	5	24
HLD	63	336	6	24
HLD	64	0	4	96
HLD	64	0	7	96
HLD	64	144	2	96
HLD	64	144	5	96
TAP	64	288	0
STR	64	288	7
SCL	64	288	7	96	336	1
TAP	65	0	0
TAP	65	48	0
TAP	65	96	0
TAP	65	144	0
TAP	65	192	0
TAP	65	240	0
TAP	65	288	0
TAP	65	336	0
TAP	66	0	0
TAP	66	24	7
TAP	66	48	0
TAP	66	72	7
TAP	66	96	1
TAP	66	120	6
TAP	66	144	1
TAP	66	168	6
XTP	66	192	2
XTP	66	208	5
XTP	66	224	2
XTP	66	240	5
XTP	66	256	2
XTP	66	272	5
XST	66	288	2
SI_	66	288	2	96	36	4
SCL	66	288	2	96	36	7
STR	67	96	5
SI_	67	96	5	96	36	3
SCR	67	96	5	96	36	0
STR	67	288	2
SI_	67	288	2	96	36	4
SCL	67	288	2	96	36	7
STR	68	96	5
SI_	68	96	5	96	36	3
SCR	68	96	5	96	36	0
STR	68	288	2
SI_	68	288	2	96	36	4
SCL	68	288	2	96	36	7
STR	69	96	5
SI_	69	96	5	96	36	3
SCR	69	96	5	96	36	0
TAP	69	288	2
XHO	70	0	3	96
BRK	70	96	7
TAP	70	192	4
TAP	70	224	2
TAP	70	256	5
TAP	70	288	1
TAP	70	320	6
TAP	70	352	0
STR	71	0	7
SLR	71	0	7	96	96	6
TAP	71	48	4
TAP	71	96	7
STR	71	192	2
SLL	71	192	2	96	96	3
TAP	71	240	5
TAP	71	288	2
STR	72	0	7
SLR	72	0	7	96	96	6
TAP	72	48	4
TAP	72	96	7
STR	72	192	2
SLL	72	192	2	96	96	3
TAP	72	240	5
TAP	72	288	2
TAP	73	0	7
HLD	73	48	7	144
TTP	73	96	0	B	0	M1
TTP	73	96	1	E	0	M1
TAP	73	192	4
HLD	73	240	4	144
TTP	73	288	3	B	0	M1
TTP	73	288	3	E	0	M1
STR	74	0	7
SI_	74	0	7	96	48	3
TAP	74	192	1
TAP	74	192	5
TAP	74	240	0
TAP	74	288	0
TAP	74	336	0
STR	75	0	0
SLL	75	0	0	96	96	1
TAP	75	48	3
TAP	75	96	0
STR	75	192	5
SLR	75	192	5	96	96	4
TAP	75	240	2
TAP	75	288	5
STR	76	0	0
SLL	76	0	0	96	96	1
TAP	76	48	3
TAP	76	96	0
STR	76	192	5
SLR	76	192	5	96	96	4
TAP	76	240	2
TAP	76	288	5
TAP	77	0	0
HLD	77	48	0	144
TTP	77	96	7	B	0	M1
TTP	77	96	7	E	0	M1
TAP	77	192	3
HLD	77	240	3	144
TTP	77	288	4	B	0	M1
TTP	77	288	5	E	0	M1
BRK	78	0	0
BRK	78	96	1
BRK	78	96	2
BRK	78	192	5
BRK	78	192	6
TTP	78	288	3	B	0	M1
TTP	78	288	4	B	0	M1
STR	79	0	3
SXL	79	0	3	96	672	2
TTP	79	96	0	C	1	M1
HLD	80	0	7	96
HLD	80	144	7	96
TAP	80	288	7
STR	81	0	7
SXL	81	0	7	96	672	6
TTP	81	96	0	C	1	M1
HLD	82	0	3	96
BRK	82	192	4
STR	83	0	3
SXL	83	0	3	96	672	2
TTP	83	96	0	C	1	M1
HLD	84	0	7	96
HLD	84	144	7	96
TAP	84	288	7
TAP	85	0	7
TAP	85	64	1
TAP	85	64	7
TAP	85	128	0
TAP	85	128	6
TAP	85	192	5
TAP	85	192	7
TAP	85	256	0
TAP	85	256	6
TAP	85	320	1
TAP	85	320	7
TAP	86	0	2
TAP	86	32	0
TAP	86	64	1
TAP	86	96	5
TAP	86	128	7
TAP	86	160	6
TAP	86	192	0
TAP	86	204	1
TAP	86	216	2
TAP	86	228	3
TAP	86	240	4
TAP	86	252	5
TAP	86	264	6
TAP	86	276	7
XST	86	288	0
SCR	86	288	0	96	96	4
XST	87	0	4
SCR	87	0	4	96	96	0
STR	87	96	0
SUR	87	96	0	96	96	5
STR	87	192	5
SUR	87	192	5	96	96	1
STR	87	288	1
SCR	87	288	1	96	96	5
STR	88	0	5
SCR	88	0	5	96	96	1
STR	88	96	1
SI_	88	96	1	96	48	5
BRK	88	192	4
XST	88	288	7
SCL	88	288	7	96	96	3
STR	89	0	3
SCL	89	0	3	96	96	7
STR	89	96	7
SUL	89	96	7	96	96	2
STR	89	192	2
SUL	89	192	2	96	96	6
STR	89	288	6
SCL	89	288	6	96	96	2
STR	90	0	2
SCL	90	0	2	96	96	6
STR	90	96	6
SI_	90	96	6	96	48	2
BRK	90	192	3
XST	90	288	0
SCL	90	288	0	96	96	4
STR	91	0	4
SCL	91	0	4	96	96	0
STR	91	96	0
SUL	91	96	0	96	96	4
STR	91	192	4
SUL	91	192	4	96	96	7
STR	91	288	7
SCL	91	288	7	96	96	3
STR	92	0	3
SCL	92	0	3	96	96	7
STR	92	96	7
SI_	92	96	7	96	48	3
BRK	92	192	5
XST	92	288	7
SCR	92	288	7	96	96	3
STR	93	0	3
SCR	93	0	3	96	96	7
STR	93	96	7
SUR	93	96	7	96	96	3
STR	93	192	3
SUR	93	192	3	96	96	0
STR	93	288	0
SCR	93	288	0	96	96	4
STR	94	0	4
SCR	94	0	4	96	96	0
STR	94	96	0
SI_	94	96	0	96	48	4
BRK	94	192	2
TAP	94	288	1
TAP	94	288	6
XTP	95	0	3
TAP	95	32	4
TAP	95	64	5
TAP	95	96	3
TAP	95	128	4
TAP	95	160	5
XTP	95	192	2
TAP	95	224	3
TAP	95	256	4
TAP	95	288	2
TAP	95	320	3
TAP	95	352	4
XTP	96	0	1
TAP	96	32	2
TAP	96	64	3
TAP	96	96	1
TAP	96	128	2
TAP	96	160	3
XTP	96	192	0
TAP	96	224	1
TAP	96	256	2
TAP	96	288	0
TAP	96	320	1
TAP	96	352	2
XST	97	0	0
SI_	97	0	0	96	48	4
TAP	97	48	0
STR	97	96	5
SI_	97	96	5	96	48	1
TAP	97	144	5
STR	97	192	7
SI_	97	192	7	96	48	2
TAP	97	240	7
STR	97	288	3
SI_	97	288	3	96	48	6
TAP	97	336	3
TAP	98	0	7
TAP	98	24	0
TAP	98	48	1
TAP	98	72	2
HLD	98	96	3	84
TTP	98	192	2	B	0	M1
TTP	98	192	4	B	0	M1
TTP	98	204	1	B	0	M1
TTP	98	204	5	B	0	M1
TTP	98	216	1	E	0	M1
TTP	98	216	6	E	0	M1
XTP	98	288	6
XTP	98	288	7
XTP	99	0	4
TAP	99	32	3
TAP	99	64	2
TAP	99	96	4
TAP	99	128	3
TAP	99	160	2
XTP	99	192	5
TAP	99	224	4
TAP	99	256	3
TAP	99	288	5
TAP	99	320	4
TAP	99	352	3
XTP	100	0	6
TAP	100	32	5
TAP	100	64	4
TAP	100	96	6
TAP	100	128	5
TAP	100	160	4
XTP	100	192	7
TAP	100	224	6
TAP	100	256	5
TAP	100	288	7
TAP	100	320	6
TAP	100	352	5
XST	101	0	7
SI_	101	0	7	96	48	3
TAP	101	48	7
STR	101	96	2
SI_	101	96	2	96	48	6
TAP	101	144	2
STR	101	192	0
SI_	101	192	0	96	48	5
TAP	101	240	0
STR	101	288	4
SI_	101	288	4	96	48	1
TAP	101	336	4
TAP	102	0	0
TAP	102	24	7
TAP	102	48	6
TAP	102	72	5
HLD	102	96	4	84
TTP	102	192	3	B	0	M1
TTP	102	192	5	B	0	M1
TTP	102	204	2	B	0	M1
TTP	102	204	6	B	0	M1
TTP	102	216	2	E	0	M1
TTP	102	216	7	E	0	M1
STR	103	0	0
SI_	103	0	0	96	48	4
STR	103	48	7
SI_	103	48	7	96	48	5
TAP	103	96	0
TAP	103	144	7
STR	103	192	2
SI_	103	192	2	96	48	0
STR	103	240	3
SI_	103	240	3	96	48	7
TAP	103	288	2
TAP	103	336	3
HLD	104	0	2	144
TAP	104	96	0
TAP	104	112	7
TAP	104	128	6
HLD	104	144	5	144
TAP	104	240	1
TAP	104	256	2
TAP	104	272	3
BRK	104	288	4
STR	105	0	7
SI_	105	0	7	96	48	3
STR	105	48	0
SI_	105	48	0	96	48	2
TAP	105	96	7
TAP	105	144	0
STR	105	192	5
SI_	105	192	5	96	48	7
STR	105	240	4
SI_	105	240	4	96	48	0
TAP	105	288	5
TAP	105	336	4
HLD	106	0	5	144
TAP	106	96	7
TAP	106	112	0
TAP	106	128	1
HLD	106	144	2	144
TAP	106	240	6
TAP	106	256	5
TAP	106	272	4
BRK	106	288	3
STR	107	0	1
SI_	107	0	1	96	48	5
STR	107	48	0
SI_	107	48	0	96	48	6
TAP	107	96	1
TAP	107	144	0
STR	107	192	2
SI_	107	192	2	96	48	6
STR	107	240	3
SI_	107	240	3	96	48	5
TAP	107	288	2
TAP	107	336	3
HLD	108	0	7	144
TAP	108	96	5
TAP	108	112	4
TAP	108	128	3
HLD	108	144	2	144
TAP	108	240	6
TAP	108	256	7
TAP	108	272	0
BRK	108	288	1
STR	109	0	6
SI_	109	0	6	96	48	2
STR	109	48	7
SI_	109	48	7	96	48	1
TAP	109	96	6
TAP	109	144	7
STR	109	192	5
SI_	109	192	5	96	48	1
STR	109	240	4
SI_	109	240	4	96	48	2
TAP	109	288	5
TAP	109	336	4
HLD	110	0	0	144
TAP	110	96	1
TAP	110	112	2
TAP	110	128	3
HLD	110	144	4	96
BRK	110	288	2
BRK	110	288	5
TAP	111	0	0
THO	111	0	0	672	C	0	M1
TAP	111	48	0
TAP	111	96	1
TAP	111	144	1
TAP	111	192	2
TAP	111	240	2
TAP	111	288	3
TAP	111	336	3
TAP	112	0	4
TAP	112	48	4
TAP	112	96	5
TAP	112	144	5
TAP	112	192	6
TAP	112	240	6
TAP	112	288	7
TAP	112	336	7
TAP	113	0	0
TAP	113	0	2
TAP	113	48	1
TAP	113	48	7
TAP	113	96	0
TAP	113	96	6
TAP	113	144	5
TAP	113	144	7
TAP	113	192	4
TAP	113	192	7
TAP	113	240	0
TAP	113	240	5
TAP	113	288	1
TAP	113	288	6
TAP	113	336	2
TAP	113	336	7
TAP	114	0	3
TAP	114	0	7
TAP	114	48	2
TAP	114	48	6
TAP	114	96	1
TAP	114	96	5
TAP	114	144	0
TAP	114	144	4
TAP	114	192	0
TAP	114	204	1
TAP	114	216	2
TAP	114	228	3
TAP	114	240	4
TAP	114	252	5
TAP	114	264	6
TAP	114	276	7
TAP	114	288	0
TAP	114	300	1
TAP	114	312	2
TAP	114	324	3
TAP	114	336	4
TAP	114	348	5
TAP	114	360	6
TAP	114	372	7
BRK	115	0	0
BRK	115	0	4

T_REC_TAP	486
T_REC_BRK	43
T_REC_XTP	34
T_REC_HLD	61
T_REC_XHO	1
T_REC_STR	107
T_REC_BST	1
T_REC_XST	13
T_REC_TTP	100
T_REC_THO	9
T_REC_SLD	129
T_REC_ALL	984
T_NUM_TAP	740
T_NUM_BRK	44
T_NUM_HLD	71
T_NUM_SLD	129
T_NUM_ALL	984
T_JUDGE_TAP	784
T_JUDGE_HLD	195
T_JUDGE_SLD	129
T_JUDGE_ALL	1108
TTM_EACHPAIRS	86
TTM_SCR_TAP	370000
TTM_SCR_BRK	114400
TTM_SCR_HLD	71000
TTM_SCR_SLD	193500
TTM_SCR_ALL	748900
TTM_SCR_S	722200
TTM_SCR_SS	744500
TTM_RAT_ACV	10059

