VERSION	0.00.00	1.03.00
FES_MODE	0
BPM_DEF	210.000	210.000	210.000	210.000
MET_DEF	4	4
RESOLUTION	384
CLK_DEF	384
COMPATIBLE_CODE	MA2

BPM	0	0	210.000
MET	0	0	4	4

TAP	2	288	3
TAP	2	336	4
TAP	3	0	3
TAP	3	0	4
TAP	3	96	5
TAP	3	192	5
TAP	3	288	5
TAP	4	0	5
TAP	4	96	5
TAP	4	192	5
TAP	4	288	5
THO	5	0	0	144	C	1	M1
TAP	5	0	5
TAP	5	96	5
TAP	5	192	5
TAP	5	288	5
THO	6	0	0	144	C	1	M1
TAP	6	0	5
TAP	6	96	5
TAP	6	192	5
TAP	6	288	5
THO	7	0	0	144	C	1	M1
TAP	7	0	5
TAP	7	96	5
TAP	7	192	5
TAP	7	288	5
THO	8	0	0	144	C	1	M1
TAP	8	0	5
TAP	8	96	5
TAP	8	192	4
TAP	8	288	3
THO	9	0	0	144	C	1	M1
TAP	9	0	2
TAP	9	96	2
TAP	9	192	2
TAP	9	288	2
THO	10	0	0	144	C	1	M1
TAP	10	0	2
TAP	10	96	2
TAP	10	192	2
TAP	10	288	2
THO	11	0	0	144	C	1	M1
TAP	11	0	2
TAP	11	96	2
TAP	11	192	2
TAP	11	288	2
THO	12	0	0	144	C	1	M1
TAP	12	0	2
TAP	12	288	2
TAP	12	288	5
HLD	13	0	3	96
HLD	13	0	4	96
TTP	13	144	5	E	0	M1
TTP	13	192	1	E	0	M1
TTP	13	240	7	E	0	M1
TTP	13	288	3	E	0	M1
TTP	13	336	5	B	0	M1
TTP	14	0	1	B	0	M1
TTP	14	48	6	B	0	M1
TTP	14	96	0	E	0	M1
TTP	14	144	0	C	0	M1
TTP	14	192	4	E	0	M1
TAP	14	288	2
TAP	14	288	5
HLD	15	0	3	96
HLD	15	0	4	96
TTP	15	144	5	E	0	M1
TTP	15	192	1	E	0	M1
TTP	15	240	7	E	0	M1
TTP	15	288	3	E	0	M1
TTP	15	336	5	B	0	M1
TAP	16	0	3
TAP	16	0	4
TAP	16	48	2
TAP	16	96	2
TAP	16	144	3
TAP	16	144	4
TAP	16	192	5
TAP	16	240	5
XTP	16	288	3
XTP	16	288	4
HLD	17	0	3	96
HLD	17	0	4	96
TTP	17	144	3	E	0	M1
TTP	17	192	7	E	0	M1
TTP	17	240	1	E	0	M1
TTP	17	288	5	E	0	M1
TTP	17	336	2	B	0	M1
TTP	18	0	6	B	0	M1
TTP	18	48	1	B	0	M1
TTP	18	96	0	E	0	M1
TTP	18	144	0	C	0	M1
TTP	18	192	4	E	0	M1
TAP	18	288	2
TAP	18	288	5
HLD	19	0	3	96
HLD	19	0	4	96
TTP	19	144	3	E	0	M1
TTP	19	192	7	E	0	M1
TTP	19	240	1	E	0	M1
TTP	19	288	5	E	0	M1
TTP	19	336	2	B	0	M1
TTP	20	0	6	B	0	M1
TTP	20	48	1	B	0	M1
TTP	20	96	5	B	0	M1
TTP	20	144	3	E	0	M1
TTP	20	192	7	E	0	M1
TTP	20	240	1	E	0	M1
TAP	20	288	2
TAP	20	288	5
TAP	21	0	3
HLD	21	0	4	96
TAP	21	96	3
HLD	21	192	3	96
TAP	21	192	4
TAP	21	288	4
TAP	22	0	2
TAP	22	0	3
TAP	22	96	3
TAP	22	96	4
TAP	22	192	4
TAP	22	192	5
TAP	22	288	3
TAP	22	288	4
TAP	23	0	2
STR	23	0	3
SI_	23	0	3	96	48	0
TAP	23	96	1
TAP	23	96	3
STR	23	192	3
SI_	23	192	3	96	48	0
TAP	23	192	4
TAP	23	288	3
TAP	23	288	5
TAP	24	0	2
STR	24	0	3
SI_	24	0	3	96	48	0
TAP	24	96	1
TAP	24	96	3
HLD	24	192	3	96
HLD	24	192	4	96
TTP	25	0	0	E	0	M1
TTP	25	0	4	E	0	M1
TAP	25	96	4
TAP	25	96	6
TTP	25	192	0	E	0	M1
TTP	25	192	4	E	0	M1
TAP	25	288	1
TAP	25	288	3
TAP	26	0	4
TAP	26	0	6
TAP	26	96	1
TAP	26	96	3
TTP	26	192	0	E	0	M1
TTP	26	192	4	E	0	M1
STR	27	0	4
SI_	27	0	4	96	48	7
TAP	27	0	5
TAP	27	96	4
TAP	27	96	6
TAP	27	192	3
STR	27	192	4
SI_	27	192	4	96	48	7
TAP	27	288	2
TAP	27	288	4
STR	28	0	4
SI_	28	0	4	96	48	7
TAP	28	0	5
TAP	28	96	4
TAP	28	96	6
HLD	28	192	3	96
HLD	28	192	4	96
TTP	29	0	0	E	0	M1
TTP	29	0	4	E	0	M1
TAP	29	96	1
TAP	29	96	3
TTP	29	192	0	E	0	M1
TTP	29	192	4	E	0	M1
TAP	29	288	4
TAP	29	288	6
TAP	30	0	1
TAP	30	0	3
TAP	30	96	4
TAP	30	96	6
TTP	30	192	0	E	0	M1
TTP	30	192	4	E	0	M1
TAP	31	0	4
TAP	31	0	5
TAP	31	96	2
STR	31	96	3
SCL	31	96	3	96	96	0
TAP	31	192	3
HLD	31	192	4	96
TAP	32	0	2
TAP	32	0	3
STR	32	96	4
SCR	32	96	4	96	96	7
TAP	32	96	5
HLD	32	192	3	96
TAP	32	192	4
TTP	33	0	1	B	0	M1
TTP	33	0	2	E	0	M1
TTP	33	0	6	B	0	M1
TTP	33	0	6	E	0	M1
TAP	33	96	3
TAP	33	96	4
TTP	33	192	2	E	0	M1
TTP	33	192	2	B	0	M1
TTP	33	192	5	B	0	M1
TTP	33	192	6	E	0	M1
TAP	33	288	0
TAP	33	288	7
TAP	34	0	3
TAP	34	0	4
STR	34	96	0
SI_	34	96	0	96	48	4
STR	34	96	7
SI_	34	96	7	96	48	3
TAP	34	192	0
TAP	34	192	7
TAP	35	0	5
TAP	35	48	4
TAP	35	96	3
TAP	35	144	2
TAP	35	192	5
TAP	35	240	3
TAP	35	264	4
TAP	35	288	3
TAP	35	336	2
TAP	36	0	5
TAP	36	48	4
TAP	36	96	3
TAP	36	96	4
TTP	36	192	0	B	0	M1
TTP	36	192	1	E	0	M1
TTP	36	192	7	E	0	M1
TTP	36	192	7	B	0	M1
TTP	36	288	3	E	0	M1
TTP	36	288	3	B	0	M1
TTP	36	288	4	B	0	M1
TTP	36	288	5	E	0	M1
TAP	37	0	0
TAP	37	0	7
TAP	37	48	1
TAP	37	96	1
TAP	37	144	0
TAP	37	144	7
TAP	37	192	6
TAP	37	240	6
TAP	37	288	0
TAP	37	288	7
TAP	37	336	1
TAP	38	0	0
TAP	38	0	7
TAP	38	48	0
TAP	38	48	7
TAP	38	96	6
TAP	38	144	0
TAP	38	144	7
TAP	38	192	1
TAP	38	240	1
TAP	38	288	0
TAP	38	288	7
STR	39	0	7
SCL	39	0	7	96	96	3
STR	39	96	3
SCL	39	96	3	96	96	7
STR	39	192	7
SCL	39	192	7	96	96	3
STR	39	288	3
SCL	39	288	3	96	96	7
STR	40	0	7
SCL	40	0	7	96	96	3
TAP	40	96	3
HLD	40	192	7	96
STR	41	0	0
SCR	41	0	0	96	96	4
STR	41	96	4
SCR	41	96	4	96	96	0
STR	41	192	0
SCR	41	192	0	96	96	4
STR	41	288	4
SCR	41	288	4	96	96	0
STR	42	0	0
SCR	42	0	0	96	96	4
TAP	42	96	4
XTP	42	192	0
TAP	42	288	3
TAP	42	288	4
TTP	43	0	2	E	0	M1
TTP	43	48	6	E	0	M1
TTP	43	96	4	E	0	M1
TTP	43	144	0	E	0	M1
TAP	43	192	3
TAP	43	240	2
TAP	43	288	1
TAP	43	336	0
HLD	44	0	0	48
HLD	44	0	1	48
HLD	44	96	2	48
HLD	44	96	3	48
HLD	44	192	3	48
HLD	44	192	4	48
HLD	44	288	2	48
HLD	44	288	3	48
TTP	45	0	2	E	0	M1
TTP	45	48	6	E	0	M1
TTP	45	96	4	E	0	M1
TTP	45	144	0	E	0	M1
TAP	45	192	3
TAP	45	240	2
TAP	45	288	1
TAP	45	336	0
XTP	46	0	7
XTP	46	32	3
XTP	46	64	6
XTP	46	96	2
XTP	46	128	5
XTP	46	160	1
XTP	46	192	4
XTP	46	224	0
XTP	46	256	5
XTP	46	288	1
TTP	47	0	6	E	0	M1
TTP	47	48	2	E	0	M1
TTP	47	96	4	E	0	M1
TTP	47	144	0	E	0	M1
TAP	47	192	4
TAP	47	240	5
TAP	47	288	6
TAP	47	336	7
HLD	48	0	6	48
HLD	48	0	7	48
HLD	48	96	4	48
HLD	48	96	5	48
HLD	48	192	3	48
HLD	48	192	4	48
HLD	48	288	4	48
HLD	48	288	5	48
TTP	49	0	6	E	0	M1
TTP	49	48	2	E	0	M1
TTP	49	96	4	E	0	M1
TTP	49	144	0	E	0	M1
TAP	49	192	4
TAP	49	240	5
TAP	49	288	6
TAP	49	336	7
XTP	50	0	0
XTP	50	32	4
XTP	50	64	1
XTP	50	96	5
XTP	50	128	2
XTP	50	160	6
XTP	50	192	3
XTP	50	224	7
XTP	50	256	2
XTP	50	288	6
TAP	51	0	3
TAP	51	0	4
TAP	51	48	3
TAP	51	48	4
TAP	51	96	2
TAP	51	120	3
TAP	51	144	2
TAP	51	192	3
TAP	51	192	4
TAP	51	240	3
TAP	51	240	4
TAP	51	288	5
TAP	51	312	4
TAP	51	336	5
TAP	52	0	3
TAP	52	24	4
TAP	52	48	3
TAP	52	72	4
TAP	52	96	2
TAP	52	120	5
TAP	52	144	2
TAP	52	168	5
TAP	52	192	1
TAP	52	216	6
TAP	52	240	1
TAP	52	264	6
BRK	52	288	0
TAP	53	0	2
TAP	53	0	3
TAP	53	96	5
TAP	53	144	4
TAP	53	192	3
TAP	53	240	2
TAP	53	288	2
TAP	53	336	4
TAP	54	0	4
TAP	54	48	0
TAP	54	96	0
TAP	54	144	7
TTP	54	192	0	E	0	M1
TTP	54	240	0	C	0	M1
TTP	54	288	4	E	0	M1
TAP	55	0	2
STR	55	0	5
SI_	55	0	5	96	48	7
TAP	55	48	1
TAP	55	96	0
TAP	55	192	2
TAP	55	240	2
TAP	55	288	4
TAP	55	336	4
TAP	56	0	0
TAP	56	48	0
TAP	56	96	6
TAP	56	144	6
TAP	56	192	3
TAP	56	288	2
TAP	56	288	4
TAP	57	0	4
TAP	57	0	5
TAP	57	96	2
TAP	57	144	3
TAP	57	192	4
TAP	57	240	5
TAP	57	288	5
TAP	57	336	3
TAP	58	0	3
TAP	58	48	7
TAP	58	96	7
TAP	58	144	0
TTP	58	192	0	E	0	M1
TTP	58	240	0	C	0	M1
TTP	58	288	4	E	0	M1
STR	59	0	2
SI_	59	0	2	96	48	0
TAP	59	0	5
TAP	59	48	6
TAP	59	96	7
TAP	59	192	2
STR	59	192	5
SI_	59	192	5	96	48	7
TAP	59	240	1
TAP	59	288	0
TAP	60	0	2
TAP	60	32	3
TAP	60	64	1
TAP	60	96	5
TAP	60	128	4
TAP	60	160	6
TAP	60	192	2
TAP	60	224	3
TAP	60	256	1
BRK	60	288	7
TAP	61	0	2
TAP	61	0	5
TAP	61	96	2
TAP	61	96	5
TTP	61	192	6	E	0	M1
TTP	61	240	7	E	0	M1
TTP	61	288	1	E	0	M1
TTP	61	336	2	E	0	M1
HLD	62	0	0	96
HLD	62	0	7	96
HLD	62	144	0	96
HLD	62	144	7	96
TAP	62	288	0
TAP	62	288	7
TAP	63	0	2
TAP	63	0	5
TAP	63	96	2
TAP	63	96	5
TTP	63	192	2	E	0	M1
TTP	63	240	1	E	0	M1
TTP	63	288	7	E	0	M1
TTP	63	336	6	E	0	M1
HLD	64	0	0	96
HLD	64	0	7	96
HLD	64	144	0	96
HLD	64	144	7	96
TAP	64	288	0
STR	64	288	7
SCL	64	288	7	96	336	1
TAP	65	0	0
TAP	65	48	0
TAP	65	96	0
TAP	65	144	0
TAP	65	192	0
TAP	65	240	0
TAP	65	288	0
TAP	65	336	0
TAP	66	0	0
TAP	66	24	7
TAP	66	48	0
TAP	66	72	7
TAP	66	96	0
TAP	66	120	7
TAP	66	144	0
TAP	66	168	7
TAP	66	192	0
TAP	66	216	7
TAP	66	240	0
XTP	66	288	1
XTP	66	288	5
TTP	67	0	0	B	0	M1
TTP	67	0	0	E	0	M1
TTP	67	0	3	B	0	M1
TTP	67	0	4	E	0	M1
TAP	67	96	5
TAP	67	96	6
TTP	67	192	0	E	0	M1
TTP	67	192	4	B	0	M1
TTP	67	192	4	E	0	M1
TTP	67	192	7	B	0	M1
TAP	67	288	1
TAP	67	288	2
TTP	68	0	0	E	0	M1
TTP	68	0	0	B	0	M1
TTP	68	0	3	B	0	M1
TTP	68	0	4	E	0	M1
TAP	68	96	5
TAP	68	96	6
TTP	68	192	0	E	0	M1
TTP	68	192	4	E	0	M1
TTP	68	192	4	B	0	M1
TTP	68	192	7	B	0	M1
TAP	68	288	1
TAP	68	288	2
TTP	69	0	0	E	0	M1
TTP	69	0	0	B	0	M1
TTP	69	0	3	B	0	M1
TTP	69	0	4	E	0	M1
TAP	69	96	5
TAP	69	96	6
TTP	69	192	0	E	0	M1
TTP	69	192	4	E	0	M1
TTP	69	192	4	B	0	M1
TTP	69	192	7	B	0	M1
TAP	69	288	1
TAP	69	288	2
TTP	70	0	0	E	0	M1
TTP	70	0	0	B	0	M1
TTP	70	0	3	B	0	M1
TTP	70	0	4	E	0	M1
TAP	70	96	5
TAP	70	96	6
TTP	70	192	0	E	0	M1
TTP	70	192	4	B	0	M1
TTP	70	192	4	E	0	M1
TTP	70	192	7	B	0	M1
STR	71	0	4
SI_	71	0	4	96	48	7
TAP	71	0	5
TAP	71	96	4
TAP	71	96	6
TAP	71	192	3
STR	71	192	4
SI_	71	192	4	96	48	7
TAP	71	288	2
TAP	71	288	4
STR	72	0	4
SI_	72	0	4	96	48	7
TAP	72	0	5
TAP	72	96	4
TAP	72	96	6
HLD	72	192	3	96
HLD	72	192	4	96
TTP	73	0	0	E	0	M1
TTP	73	0	4	E	0	M1
TAP	73	96	1
TAP	73	96	3
TTP	73	192	0	E	0	M1
TTP	73	192	4	E	0	M1
TAP	73	288	4
TAP	73	288	6
TAP	74	0	1
TAP	74	0	3
TAP	74	96	4
TAP	74	96	6
TTP	74	192	0	E	0	M1
TTP	74	192	4	E	0	M1
TAP	75	0	2
STR	75	0	3
SI_	75	0	3	96	48	0
TAP	75	96	1
TAP	75	96	3
STR	75	192	3
SI_	75	192	3	96	48	0
TAP	75	192	4
TAP	75	288	3
TAP	75	288	5
TAP	76	0	2
STR	76	0	3
SI_	76	0	3	96	48	0
TAP	76	96	1
TAP	76	96	3
HLD	76	192	3	96
HLD	76	192	4	96
TTP	77	0	0	E	0	M1
TTP	77	0	4	E	0	M1
TAP	77	96	4
TAP	77	96	6
TTP	77	192	0	E	0	M1
TTP	77	192	4	E	0	M1
TAP	77	288	1
TAP	77	288	3
TAP	78	0	4
TAP	78	0	6
TAP	78	96	1
TAP	78	96	3
TTP	78	192	0	E	0	M1
TTP	78	192	4	E	0	M1
TAP	78	288	2
TAP	78	288	5
STR	79	0	0
SCR	79	0	0	96	576	7
TAP	79	0	7
TTP	79	96	0	C	1	M1
HLD	80	0	0	96
HLD	80	144	0	96
TAP	80	288	0
TAP	81	0	0
STR	81	0	7
SCL	81	0	7	96	576	0
TTP	81	96	0	C	1	M1
HLD	82	0	7	192
STR	83	0	0
SCR	83	0	0	96	576	7
TAP	83	0	7
TTP	83	96	0	C	1	M1
HLD	84	0	0	96
HLD	84	144	0	96
TAP	84	288	0
XTP	85	0	7
XTP	85	64	7
XTP	85	128	7
XTP	85	192	0
XTP	85	256	0
XTP	85	320	0
TAP	86	0	5
TAP	86	32	4
TAP	86	64	6
TAP	86	96	2
TAP	86	128	3
TAP	86	160	1
TAP	86	192	7
TAP	86	288	3
TAP	86	288	4
STR	87	0	0
SCR	87	0	0	96	96	4
STR	87	96	4
SCR	87	96	4	96	96	0
STR	87	192	0
SCR	87	192	0	96	96	4
STR	87	288	4
SCR	87	288	4	96	96	0
STR	88	0	0
SCR	88	0	0	96	96	4
TAP	88	96	4
HLD	88	192	0	96
STR	89	0	7
SCL	89	0	7	96	96	3
STR	89	96	3
SCL	89	96	3	96	96	7
STR	89	192	7
SCL	89	192	7	96	96	3
STR	89	288	3
SCL	89	288	3	96	96	7
STR	90	0	7
SCL	90	0	7	96	96	3
TAP	90	96	3
XTP	90	192	7
TAP	90	288	3
TAP	90	288	4
STR	91	0	0
SCR	91	0	0	96	96	4
STR	91	96	4
SCR	91	96	4	96	96	0
STR	91	192	0
SCR	91	192	0	96	96	4
STR	91	288	4
SCR	91	288	4	96	96	0
STR	92	0	0
SCR	92	0	0	96	96	4
TAP	92	96	4
TTP	92	192	0	C	1	M1
STR	93	0	7
SCL	93	0	7	96	96	3
STR	93	96	3
SCL	93	96	3	96	96	7
STR	93	192	7
SCL	93	192	7	96	96	3
STR	93	288	3
SCL	93	288	3	96	96	7
STR	94	0	7
SCL	94	0	7	96	96	3
TAP	94	96	3
TTP	94	192	0	C	0	M1
TAP	94	288	2
TAP	94	288	4
TAP	95	0	3
TAP	95	0	5
TAP	95	48	6
TAP	95	96	7
TAP	95	144	0
STR	95	192	1
SI_	95	192	1	96	48	4
STR	95	240	5
SI_	95	240	5	96	48	0
TAP	95	288	1
TAP	95	336	5
TAP	96	0	2
TAP	96	48	2
TAP	96	96	7
TAP	96	144	7
TAP	96	192	0
TAP	96	192	7
TAP	96	240	1
TAP	96	240	6
TAP	96	288	2
TAP	96	288	5
TAP	96	336	3
TAP	96	336	4
STR	97	0	0
SI_	97	0	0	96	48	4
TAP	97	0	5
TAP	97	48	5
TAP	97	96	0
TAP	97	96	6
TAP	97	144	6
TAP	97	192	2
STR	97	192	7
SI_	97	192	7	96	48	3
TAP	97	240	2
TAP	97	288	1
TAP	97	288	7
TAP	97	336	1
STR	98	0	0
SI_	98	0	0	96	48	4
TAP	98	0	5
TAP	98	48	5
TAP	98	96	0
TAP	98	96	6
TAP	98	144	6
BRK	98	192	1
BRK	98	192	5
TAP	98	288	3
TAP	98	288	4
TAP	99	0	2
TAP	99	0	4
TAP	99	48	1
TAP	99	96	0
TAP	99	144	7
STR	99	192	6
SI_	99	192	6	96	48	3
STR	99	240	2
SI_	99	240	2	96	48	7
TAP	99	288	6
TAP	99	336	2
TAP	100	0	5
TAP	100	48	5
TAP	100	96	0
TAP	100	144	0
TAP	100	192	0
TAP	100	192	7
TAP	100	240	1
TAP	100	240	6
TAP	100	288	2
TAP	100	288	5
TAP	100	336	3
TAP	100	336	4
TAP	101	0	2
STR	101	0	7
SI_	101	0	7	96	48	3
TAP	101	48	2
TAP	101	96	1
TAP	101	96	7
TAP	101	144	1
STR	101	192	0
SI_	101	192	0	96	48	4
TAP	101	192	5
TAP	101	240	5
TAP	101	288	0
TAP	101	288	6
TAP	101	336	6
TAP	102	0	2
STR	102	0	7
SI_	102	0	7	96	48	3
TAP	102	48	2
TAP	102	96	1
TAP	102	96	7
TAP	102	144	1
BRK	102	192	2
BRK	102	192	6
STR	103	0	0
SI_	103	0	0	96	48	3
STR	103	48	4
SI_	103	48	4	96	48	7
TAP	103	96	0
TAP	103	144	4
STR	103	192	0
SI_	103	192	0	96	48	3
STR	103	240	4
SI_	103	240	4	96	48	7
TAP	103	288	0
TAP	103	336	4
HLD	104	0	0	96
TTP	104	144	0	E	0	M1
HLD	104	144	2	96
STR	105	0	7
SI_	105	0	7	96	48	4
STR	105	48	3
SI_	105	48	3	96	48	0
TAP	105	96	7
TAP	105	144	3
STR	105	192	7
SI_	105	192	7	96	48	4
STR	105	240	3
SI_	105	240	3	96	48	0
TAP	105	288	7
TAP	105	336	3
HLD	106	0	7	96
TTP	106	144	0	E	0	M1
HLD	106	144	5	96
STR	107	0	6
SI_	107	0	6	96	48	3
STR	107	48	2
SI_	107	48	2	96	48	7
TAP	107	96	6
TAP	107	144	2
STR	107	192	6
SI_	107	192	6	96	48	3
STR	107	240	2
SI_	107	240	2	96	48	7
TAP	107	288	6
TAP	107	336	2
HLD	108	0	6	96
TTP	108	144	0	E	0	M1
HLD	108	144	4	96
STR	109	0	1
SI_	109	0	1	96	48	4
STR	109	48	5
SI_	109	48	5	96	48	0
TAP	109	96	1
TAP	109	144	5
STR	109	192	1
SI_	109	192	1	96	48	4
STR	109	240	5
SI_	109	240	5	96	48	0
TAP	109	288	1
TAP	109	336	5
HLD	110	0	1	96
TTP	110	144	0	E	0	M1
HLD	110	144	3	96
TAP	110	288	3
TAP	110	288	4
TAP	111	0	0
TAP	111	48	0
TAP	111	96	0
TAP	111	144	0
TAP	111	192	7
TAP	111	240	7
TAP	111	288	7
TAP	111	336	7
TAP	112	0	0
TAP	112	48	0
TAP	112	96	5
TAP	112	144	5
TAP	112	192	2
TAP	112	240	2
TAP	112	288	6
TAP	112	336	6
TAP	113	0	0
TAP	113	24	7
TAP	113	48	0
TAP	113	72	7
TAP	113	96	1
TAP	113	120	6
TAP	113	144	1
TAP	113	168	6
TAP	113	192	2
TAP	113	216	5
TAP	113	240	2
TAP	113	264	5
TAP	113	288	3
TAP	113	312	4
TAP	113	336	3
TAP	113	360	4
TAP	114	0	3
TAP	114	24	4
TAP	114	48	2
TAP	114	72	5
TAP	114	96	1
TAP	114	120	6
TAP	114	144	0
TAP	114	168	7
TAP	114	192	0
TAP	114	204	1
TAP	114	216	2
TAP	114	228	3
TAP	114	240	4
TAP	114	252	5
TAP	114	264	6
TAP	114	276	7
TAP	114	288	0
TAP	114	300	1
TAP	114	312	2
TAP	114	324	3
TAP	114	336	4
TAP	114	348	5
TAP	114	360	6
TAP	114	372	7
TTP	115	0	0	C	1	M1

T_REC_TAP	498
T_REC_BRK	6
T_REC_XTP	32
T_REC_HLD	59
T_REC_XHO	0
T_REC_STR	79
T_REC_BST	0
T_REC_XST	0
T_REC_TTP	148
T_REC_THO	8
T_REC_SLD	79
T_REC_ALL	909
T_NUM_TAP	757
T_NUM_BRK	6
T_NUM_HLD	67
T_NUM_SLD	79
T_NUM_ALL	909
T_JUDGE_TAP	763
T_JUDGE_HLD	128
T_JUDGE_SLD	79
T_JUDGE_ALL	970
TTM_EACHPAIRS	151
TTM_SCR_TAP	378500
TTM_SCR_BRK	15600
TTM_SCR_HLD	67000
TTM_SCR_SLD	118500
TTM_SCR_ALL	579600
TTM_SCR_S	561650
TTM_SCR_SS	579000
TTM_RAT_ACV	10010

