VERSION	0.00.00	1.03.00
FES_MODE	0
BPM_DEF	210.000	210.000	210.000	210.000
MET_DEF	4	4
RESOLUTION	384
CLK_DEF	384
COMPATIBLE_CODE	MA2

BPM	0	0	210.000
MET	0	0	4	4

HLD	2	0	3	288
TAP	2	288	4
TAP	3	0	3
HLD	3	0	5	576
TAP	3	96	4
TAP	3	192	4
TAP	3	288	4
TAP	4	0	3
TAP	4	96	3
TAP	4	192	3
XTP	4	288	3
XHO	5	0	3	144
TAP	5	0	4
TAP	5	96	5
HLD	5	144	5	144
TAP	5	240	4
TAP	5	288	4
XHO	6	0	3	144
TAP	6	0	4
TAP	6	96	5
HLD	6	144	5	144
TAP	6	240	4
TAP	6	288	4
XHO	7	0	3	144
TAP	7	0	4
TAP	7	96	5
HLD	7	144	5	144
TAP	7	240	4
TAP	7	288	4
XHO	8	0	3	144
TAP	8	0	4
TAP	8	96	5
TAP	8	144	5
TAP	8	240	4
TAP	8	240	6
TAP	8	288	4
TAP	8	288	6
TAP	9	0	3
XHO	9	0	4	144
TAP	9	96	2
HLD	9	144	2	144
TAP	9	240	3
TAP	9	288	3
TAP	10	0	3
XHO	10	0	4	144
TAP	10	96	2
HLD	10	144	2	144
TAP	10	240	3
TAP	10	288	3
TAP	11	0	4
TAP	11	48	4
TAP	11	96	2
TAP	11	144	2
TAP	11	192	5
TAP	11	240	5
TAP	11	288	4
TAP	11	336	4
HLD	12	0	6	96
TAP	12	96	4
TAP	12	192	0
TAP	12	192	7
BRK	12	288	1
BRK	12	288	6
XTP	13	0	3
XTP	13	0	4
TAP	13	96	5
TAP	13	144	5
TAP	13	192	4
TAP	13	288	3
TAP	13	288	5
TAP	14	0	2
TAP	14	48	2
TAP	14	96	3
TAP	14	192	1
TAP	14	192	4
TAP	14	288	2
TAP	14	288	3
XTP	15	0	3
XTP	15	0	4
TAP	15	96	5
TAP	15	144	5
TAP	15	192	3
TAP	15	288	2
TAP	15	288	4
HLD	16	0	2	96
HLD	16	0	4	96
HLD	16	144	3	96
HLD	16	144	5	96
TAP	16	288	2
TAP	16	288	6
XTP	17	0	0
XTP	17	0	7
TAP	17	96	1
TAP	17	144	1
TAP	17	192	3
TAP	17	288	2
TAP	17	288	4
TAP	18	0	6
TAP	18	48	6
TAP	18	96	4
TAP	18	192	2
TAP	18	192	4
TAP	18	288	1
XTP	19	0	0
XTP	19	0	7
TAP	19	96	6
TAP	19	144	6
TAP	19	192	4
TAP	19	288	3
TAP	19	288	5
TAP	20	0	2
TAP	20	0	4
TAP	20	96	1
TAP	20	96	5
XTP	20	192	0
XTP	20	192	6
TTP	21	0	4	B	0	M1
TTP	21	0	5	B	0	M1
TTP	21	0	6	E	0	M1
TTP	21	192	2	B	0	M1
TTP	21	192	2	E	0	M1
TTP	21	192	3	B	0	M1
TTP	22	0	6	B	0	M1
TTP	22	0	7	E	0	M1
TTP	22	96	1	E	0	M1
TTP	22	96	1	B	0	M1
TTP	22	192	0	C	1	M1
TAP	23	0	2
TAP	23	0	3
TAP	23	96	5
TAP	23	192	2
TAP	23	192	3
TAP	23	288	1
TAP	24	0	2
TAP	24	0	3
HLD	24	96	5	192
TAP	24	192	4
TAP	24	288	4
TAP	25	0	3
TAP	25	0	6
XTP	25	48	3
XTP	25	48	6
TAP	25	192	1
TAP	25	192	4
XTP	25	240	1
XTP	25	240	4
TAP	26	0	3
HLD	26	0	5	192
TAP	26	96	4
TAP	26	192	7
TAP	27	0	4
TAP	27	0	5
TAP	27	96	2
TAP	27	192	4
TAP	27	192	5
TAP	27	288	6
TAP	28	0	4
TAP	28	0	5
TAP	28	96	2
HLD	28	192	6	96
TAP	28	288	4
TAP	29	0	0
TAP	29	0	5
XTP	29	48	0
XTP	29	48	5
TAP	29	192	2
TAP	29	192	7
XTP	29	240	2
XTP	29	240	7
HLD	30	0	2	192
TAP	30	0	4
TAP	30	96	3
XTP	30	192	0
TAP	31	0	3
TAP	31	0	6
TAP	31	96	2
HLD	31	192	1	96
HLD	31	192	3	96
TAP	32	0	2
TAP	32	96	3
TAP	32	96	6
HLD	32	192	4	96
HLD	32	192	5	96
TAP	33	0	3
TAP	33	0	6
XTP	33	48	3
XTP	33	48	6
TAP	33	192	1
TAP	33	192	4
XTP	33	240	1
XTP	33	240	4
TAP	34	0	3
HLD	34	0	5	192
TAP	34	96	4
XTP	34	192	7
TAP	35	0	5
TAP	35	48	5
TAP	35	96	3
TAP	35	144	3
TAP	35	192	5
TAP	35	288	4
TAP	35	288	6
TAP	36	0	0
TAP	36	0	7
TAP	36	48	0
TAP	36	48	7
TAP	36	96	0
TAP	36	96	7
XTP	36	192	1
XTP	36	192	6
XTP	36	288	1
XTP	36	288	6
TTP	37	0	2	B	0	M1
TTP	37	96	0	C	0	M1
TTP	37	192	7	E	0	M1
TTP	37	288	0	E	0	M1
TTP	38	0	1	E	0	M1
TTP	38	96	0	C	0	M1
XTP	38	192	1
XTP	38	192	6
HLD	39	0	5	96
TAP	39	96	4
HLD	39	192	1	96
TAP	39	288	3
HLD	40	0	6	96
TAP	40	96	7
XTP	40	192	0
XTP	40	192	5
HLD	41	0	1	96
TAP	41	96	0
HLD	41	192	5	96
TAP	41	288	7
HLD	42	0	2	96
TAP	42	96	3
XTP	42	192	3
XTP	42	192	6
TAP	43	0	2
TAP	43	48	2
TAP	43	96	5
TAP	43	144	5
TAP	43	192	4
TAP	43	288	3
TAP	43	288	6
TAP	44	0	5
TAP	44	48	5
TAP	44	96	2
TAP	44	144	2
TAP	44	192	3
TAP	44	288	1
TAP	44	288	4
HLD	45	0	1	96
TAP	45	96	0
HLD	45	192	6	96
STR	45	288	7
SCR	45	288	7	96	288	3
XTP	46	288	7
TAP	47	0	5
TAP	47	48	5
TAP	47	96	3
TAP	47	144	3
TAP	47	192	5
TAP	47	288	1
TAP	47	288	4
TAP	48	0	2
TAP	48	48	2
TAP	48	96	4
TAP	48	144	4
TAP	48	192	1
TAP	48	288	2
TAP	48	288	7
HLD	49	0	6	96
TAP	49	96	7
HLD	49	192	1	96
STR	49	288	0
SCR	49	288	0	96	288	5
XTP	50	288	0
TAP	51	0	6
TAP	51	48	6
HLD	51	96	3	96
TAP	51	192	4
TAP	51	240	4
HLD	51	288	2	96
TAP	52	0	3
TAP	52	48	3
TAP	52	96	0
TAP	52	144	0
TAP	52	192	1
TAP	52	192	6
BRK	52	288	3
BRK	52	288	4
HLD	53	0	2	144
TAP	53	96	3
TAP	53	144	3
TAP	53	240	1
TAP	53	240	4
TAP	53	288	1
TAP	53	288	4
TAP	54	0	0
TAP	54	96	2
TAP	54	192	4
XTP	54	288	3
XTP	54	288	5
TAP	55	0	6
TAP	55	48	6
TAP	55	96	0
TAP	55	144	0
TAP	55	192	7
TAP	55	288	1
TAP	55	288	6
HLD	56	0	0	96
HLD	56	96	1	96
HLD	56	192	2	96
XTP	56	288	3
HLD	57	0	5	144
TAP	57	96	4
TAP	57	144	4
TAP	57	240	3
TAP	57	240	6
TAP	57	288	3
TAP	57	288	6
TAP	58	0	7
TAP	58	96	5
TAP	58	192	3
XTP	58	288	2
XTP	58	288	4
TAP	59	0	5
TAP	59	48	5
TAP	59	96	4
TAP	59	96	6
TAP	59	192	3
TAP	59	192	4
TAP	59	288	1
STR	59	288	3
SCR	59	288	3	96	192	0
BRK	60	288	2
BRK	60	288	7
HLD	61	0	3	96
TAP	61	0	4
TTP	61	192	4	B	0	M1
TTP	61	288	0	C	0	M1
TTP	62	0	0	B	0	M1
XTP	62	96	1
XTP	62	96	7
XTP	62	144	1
XTP	62	144	7
XTP	62	288	5
TAP	63	0	3
HLD	63	0	4	96
TTP	63	192	3	B	0	M1
TTP	63	288	0	C	0	M1
TTP	64	0	7	B	0	M1
XTP	64	96	0
XTP	64	96	6
XTP	64	144	0
XTP	64	144	6
TAP	64	288	3
TAP	64	288	4
THO	65	0	0	576	C	1	M1
TAP	66	0	7
TAP	66	96	7
BRK	66	192	7
HLD	67	0	5	96
TTP	67	96	5	B	0	M1
HLD	67	192	3	96
TTP	67	288	3	B	0	M1
HLD	68	0	6	96
TTP	68	96	6	B	0	M1
HLD	68	192	2	96
TTP	68	288	2	B	0	M1
TTP	69	0	1	E	0	M1
TTP	69	96	0	E	0	M1
TTP	69	96	2	E	0	M1
TTP	69	192	3	E	0	M1
TTP	69	192	7	E	0	M1
TTP	69	288	4	E	0	M1
TTP	69	288	6	E	0	M1
TTP	70	0	5	E	0	M1
TAP	70	96	3
TAP	70	96	4
TTP	70	192	0	C	1	M1
TAP	71	0	1
TAP	71	0	3
TAP	71	96	5
TAP	71	192	1
TAP	71	192	3
TAP	71	288	0
TAP	72	0	1
TAP	72	0	3
HLD	72	96	7	96
TAP	72	192	0
TAP	72	288	2
TAP	72	288	5
XTP	73	0	1
XTP	73	0	3
XTP	73	48	1
XTP	73	48	3
XTP	73	192	4
XTP	73	192	6
XTP	73	240	4
XTP	73	240	6
STR	74	0	7
SI_	74	0	7	96	48	3
TAP	74	96	0
XTP	74	192	1
XTP	74	192	5
TAP	75	0	4
TAP	75	0	6
TAP	75	96	7
TAP	75	192	4
TAP	75	192	6
TAP	75	288	2
TAP	76	0	4
TAP	76	0	6
HLD	76	96	2	144
TAP	76	96	3
XTP	76	192	7
XTP	76	240	7
XTP	77	0	4
XTP	77	0	6
XTP	77	48	4
XTP	77	48	6
XTP	77	192	1
XTP	77	192	3
XTP	77	240	1
XTP	77	240	3
HLD	78	0	6	96
TAP	78	0	7
TAP	78	96	4
XTP	78	192	1
XTP	78	192	5
XTP	78	240	1
XTP	78	240	5
HLD	79	0	3	96
HLD	79	144	2	96
HLD	79	144	4	96
STR	79	288	2
SSL	79	288	2	96	288	6
TAP	79	288	4
HLD	81	0	7	96
HLD	81	144	1	96
HLD	81	144	6	96
TAP	81	288	1
STR	81	288	6
SXL	81	288	6	96	192	4
TAP	83	0	3
HLD	83	0	4	96
HLD	83	144	3	96
HLD	83	144	5	96
TAP	83	288	3
TAP	83	288	5
HLD	84	0	3	96
TAP	84	0	4
HLD	84	144	2	96
HLD	84	144	4	96
TAP	84	288	2
TAP	84	288	4
XHO	85	0	1	64
XHO	85	64	2	64
XTP	85	128	3
XHO	85	192	6	64
XHO	85	256	5	64
XTP	85	320	4
THO	86	0	0	288	C	1	M1
TAP	87	0	0
TAP	87	0	7
TAP	87	96	2
TAP	87	96	3
TAP	87	192	1
TAP	87	192	2
TAP	87	288	3
TAP	87	288	4
TAP	88	0	1
TAP	88	0	2
TAP	88	96	4
TAP	88	96	5
TTP	88	192	0	C	0	M1
TTP	88	192	0	B	0	M1
TTP	88	192	1	B	0	M1
TAP	89	0	3
TAP	89	0	4
TAP	89	96	6
TAP	89	96	7
TAP	89	192	3
TAP	89	192	4
TAP	89	288	5
TAP	89	288	6
TAP	90	0	2
TAP	90	0	3
TAP	90	96	6
TAP	90	96	7
TTP	90	192	0	C	0	M1
TTP	90	192	2	B	0	M1
TTP	90	192	3	B	0	M1
TAP	91	0	4
HLD	91	0	5	96
TAP	91	96	7
HLD	91	192	4	96
TAP	91	192	5
TAP	91	288	0
HLD	92	0	2	96
TAP	92	0	3
TAP	92	96	7
TTP	92	192	0	C	0	M1
TTP	92	192	4	B	0	M1
TTP	92	192	5	B	0	M1
HLD	93	0	2	96
TAP	93	0	3
TAP	93	96	0
TAP	93	192	2
HLD	93	192	3	96
TAP	93	288	7
HLD	94	0	4	96
TAP	94	0	5
TAP	94	96	7
TTP	94	192	0	C	1	M1
TTP	94	192	5	B	0	M1
TTP	94	192	6	B	0	M1
TAP	95	0	5
TAP	95	48	5
TAP	95	96	2
TAP	95	144	2
TAP	95	192	6
TAP	95	240	6
TAP	95	288	3
TAP	95	336	3
TAP	96	0	7
TAP	96	48	7
TAP	96	96	4
TAP	96	144	4
HLD	96	192	6	96
TAP	96	288	7
STR	97	0	4
SI_	97	0	4	96	48	0
HLD	97	0	5	96
HLD	97	192	2	96
STR	97	192	3
SI_	97	192	3	96	48	7
TAP	98	0	0
XTP	98	96	1
XTP	98	96	6
TTP	98	192	0	C	1	M1
TAP	99	0	2
TAP	99	48	2
TAP	99	96	5
TAP	99	144	5
TAP	99	192	1
TAP	99	240	1
TAP	99	288	4
TAP	99	336	4
TAP	100	0	0
TAP	100	48	0
TAP	100	96	3
TAP	100	144	3
HLD	100	192	1	96
TAP	100	288	0
HLD	101	0	2	96
STR	101	0	3
SI_	101	0	3	96	48	7
STR	101	192	4
SI_	101	192	4	96	48	0
HLD	101	192	5	96
XTP	102	0	7
XTP	102	96	2
XTP	102	96	5
TTP	102	192	0	C	1	M1
TTP	102	192	1	B	0	M1
TTP	102	192	6	B	0	M1
TAP	103	0	2
TAP	103	48	2
TAP	103	96	3
TAP	103	144	1
TAP	103	192	7
TAP	103	240	7
XTP	103	288	7
TAP	104	0	4
HLD	104	0	5	96
TTP	104	144	4	B	0	M1
TTP	104	144	6	B	0	M1
XTP	104	288	2
XTP	104	288	3
TAP	105	0	5
TAP	105	48	5
TAP	105	96	4
TAP	105	144	6
TAP	105	192	1
TAP	105	240	1
XTP	105	288	0
HLD	106	0	2	96
TAP	106	0	3
TTP	106	144	1	B	0	M1
TTP	106	144	4	B	0	M1
XTP	106	288	3
XTP	106	288	6
TAP	107	0	1
TAP	107	48	1
TAP	107	96	0
TAP	107	144	2
TAP	107	192	5
TAP	107	240	5
XTP	107	288	4
HLD	108	0	6	96
TAP	108	0	7
TTP	108	144	0	E	0	M1
TTP	108	144	5	E	0	M1
XTP	108	288	2
XTP	108	288	3
TAP	109	0	6
TAP	109	48	6
TAP	109	96	7
TAP	109	144	5
TAP	109	192	3
TAP	109	240	3
XTP	109	288	4
TAP	110	0	0
HLD	110	0	1	96
TTP	110	144	0	E	0	M1
TTP	110	144	3	E	0	M1
BRK	110	288	1
BRK	110	288	6
TAP	111	0	0
TAP	111	48	0
TAP	111	96	1
TAP	111	144	1
TAP	111	192	2
TAP	111	240	2
HLD	111	288	3	96
TAP	112	0	7
TAP	112	48	7
TAP	112	96	6
TAP	112	144	6
TAP	112	192	5
TAP	112	240	5
HLD	112	288	4	96
TAP	113	0	3
TAP	113	48	3
TAP	113	96	4
TAP	113	144	4
TAP	113	192	2
TAP	113	240	2
TAP	113	288	5
TAP	113	336	5
TAP	114	0	1
TAP	114	48	1
TAP	114	96	6
TAP	114	144	6
TAP	114	192	0
TAP	114	192	7
TAP	114	240	0
TAP	114	240	7
TAP	114	288	0
TAP	114	288	7
BRK	115	0	2
BRK	115	0	5

T_REC_TAP	381
T_REC_BRK	11
T_REC_XTP	92
T_REC_HLD	77
T_REC_XHO	10
T_REC_STR	10
T_REC_BST	0
T_REC_XST	0
T_REC_TTP	60
T_REC_THO	2
T_REC_SLD	10
T_REC_ALL	653
T_NUM_TAP	543
T_NUM_BRK	11
T_NUM_HLD	89
T_NUM_SLD	10
T_NUM_ALL	653
T_JUDGE_TAP	554
T_JUDGE_HLD	228
T_JUDGE_SLD	10
T_JUDGE_ALL	792
TTM_EACHPAIRS	153
TTM_SCR_TAP	271500
TTM_SCR_BRK	28600
TTM_SCR_HLD	89000
TTM_SCR_SLD	15000
TTM_SCR_ALL	404100
TTM_SCR_S	390950
TTM_SCR_SS	403000
TTM_RAT_ACV	10027

