VERSION	0.00.00	1.03.00
FES_MODE	0
BPM_DEF	210.000	210.000	210.000	210.000
MET_DEF	4	4
RESOLUTION	384
CLK_DEF	384
COMPATIBLE_CODE	MA2

BPM	0	0	210.000
MET	0	0	4	4

HLD	5	0	5	192
TAP	5	96	4
TAP	5	192	4
HLD	6	0	2	192
TAP	6	96	3
TAP	6	192	3
HLD	7	0	5	192
TAP	7	96	4
TAP	7	192	4
TAP	8	0	3
TAP	8	96	3
TAP	8	192	3
TAP	8	192	4
HLD	9	0	2	192
TAP	9	96	3
TAP	9	192	3
HLD	10	0	5	192
TAP	10	96	4
TAP	10	192	4
TAP	11	0	2
TAP	11	96	2
TAP	11	192	3
TAP	11	288	3
TAP	12	0	4
TAP	12	0	5
TAP	12	96	4
TAP	12	96	5
XTP	12	192	3
XTP	12	192	6
TAP	13	0	5
TAP	13	96	5
TAP	13	192	3
TAP	13	288	3
TAP	14	0	4
TAP	14	96	4
TAP	14	192	3
TAP	14	192	5
TAP	15	0	2
TAP	15	96	2
TAP	15	192	4
TAP	15	288	4
HLD	16	0	3	96
HLD	16	0	5	96
TAP	16	192	3
TAP	16	192	5
TAP	17	0	3
TAP	17	96	3
TAP	17	192	5
TAP	17	288	5
TAP	18	0	4
TAP	18	96	4
TAP	18	192	3
TAP	18	192	5
TAP	19	0	2
TAP	19	96	2
TAP	19	192	4
TAP	19	288	4
TAP	20	0	3
TAP	20	96	3
TAP	20	192	2
TAP	20	192	4
XHO	21	0	3	192
XHO	21	192	4	192
XTP	22	0	3
XTP	22	96	3
XTP	22	192	2
XTP	22	192	4
TAP	23	0	2
TAP	23	96	3
TAP	23	192	3
TAP	23	192	4
TAP	24	0	5
TAP	24	96	4
TAP	24	192	3
TAP	24	192	4
STR	25	0	2
SI_	25	0	2	96	192	7
TAP	26	0	6
TAP	26	96	6
XTP	26	192	6
TAP	27	0	5
TAP	27	96	4
TAP	27	192	3
TAP	27	192	4
TAP	28	0	2
TAP	28	96	3
TAP	28	192	3
TAP	28	192	4
STR	29	0	5
SI_	29	0	5	96	192	0
TAP	30	0	1
TAP	30	96	1
XTP	30	192	1
TAP	31	0	1
TAP	31	96	1
TAP	31	192	0
TAP	31	192	1
TAP	32	0	6
TAP	32	96	6
TAP	32	192	6
TAP	32	192	7
STR	33	0	0
SI_	33	0	0	96	192	4
TAP	34	0	5
TAP	34	96	5
XTP	34	192	5
TTP	35	0	4	E	0	L1
TTP	35	192	4	B	0	L1
TTP	36	0	3	B	0	L1
TTP	36	192	3	E	0	L1
TTP	36	192	5	E	0	L1
THO	37	0	0	384	C	1	L1
TAP	39	0	6
TAP	39	96	6
TAP	39	192	4
TAP	39	192	5
TAP	40	0	3
TAP	40	96	3
TAP	40	192	2
TAP	40	192	4
TAP	41	0	1
TAP	41	96	1
TAP	41	192	2
TAP	41	192	3
TAP	42	0	3
TAP	42	96	3
TAP	42	192	2
TAP	42	192	4
TAP	43	0	3
TAP	43	96	2
TAP	43	192	1
TAP	43	288	0
TAP	44	0	7
TAP	44	96	6
TAP	44	192	4
TAP	44	192	5
TAP	45	0	5
TAP	45	96	5
TAP	45	192	4
TAP	45	288	4
HLD	46	0	3	96
HLD	46	0	4	96
XTP	46	192	2
XTP	46	192	5
TAP	47	0	4
TAP	47	96	5
TAP	47	192	6
TAP	47	288	7
TAP	48	0	0
TAP	48	96	1
TAP	48	192	2
TAP	48	192	3
TAP	49	0	2
TAP	49	96	2
TAP	49	192	3
TAP	49	288	3
HLD	50	0	3	96
HLD	50	0	4	96
XTP	50	192	2
XTP	50	192	5
HLD	51	0	2	96
HLD	51	0	3	96
HLD	51	192	3	96
HLD	51	192	4	96
HLD	52	0	4	96
HLD	52	0	5	96
XTP	52	192	3
XTP	52	192	6
TAP	53	0	2
TAP	53	96	2
TAP	53	192	3
TAP	53	288	3
TAP	54	0	2
TAP	54	0	4
TAP	54	96	2
TAP	54	96	4
TAP	54	192	2
TAP	54	192	4
TAP	55	0	5
TAP	55	96	5
TAP	55	192	6
TAP	55	288	6
TAP	56	0	0
TAP	56	0	7
TAP	56	96	0
TAP	56	96	7
TAP	56	192	0
TAP	56	192	7
TAP	57	0	1
TAP	57	96	1
TAP	57	192	2
TAP	57	288	3
TAP	58	0	2
TAP	58	0	4
TAP	58	96	2
TAP	58	96	4
TAP	58	192	2
TAP	58	192	4
TAP	59	0	5
TAP	59	96	5
TAP	59	192	4
TAP	59	288	4
TAP	60	0	3
TAP	60	0	4
BRK	60	192	2
BRK	60	192	5
STR	61	0	5
SI_	61	0	5	96	192	1
TAP	62	192	0
STR	63	0	2
SI_	63	0	2	96	192	6
TAP	64	192	7
STR	65	0	0
SI_	65	0	0	96	192	3
STR	65	0	7
SI_	65	0	7	96	192	4
XTP	66	192	2
XTP	66	192	5
HLD	67	0	2	192
HLD	67	192	3	192
TAP	68	0	2
TAP	68	96	2
TAP	68	192	2
TAP	68	192	3
HLD	69	0	5	192
HLD	69	192	4	192
TAP	70	0	5
TAP	70	96	5
XTP	70	192	4
XTP	70	192	6
TAP	71	0	6
TAP	71	96	7
TAP	71	192	0
TAP	71	192	7
TAP	72	0	1
TAP	72	96	0
TAP	72	192	0
TAP	72	192	7
STR	73	0	6
SI_	73	0	6	96	192	3
TAP	74	0	2
TAP	74	96	2
XTP	74	192	2
XTP	74	192	3
TAP	75	0	1
TAP	75	96	0
TAP	75	192	0
TAP	75	192	7
TAP	76	0	6
TAP	76	96	7
TAP	76	192	0
TAP	76	192	7
STR	77	0	1
SI_	77	0	1	96	192	4
TAP	78	0	5
TAP	78	96	5
XTP	78	192	4
XTP	78	192	5
TTP	79	0	3	B	0	L1
TTP	79	192	0	C	0	L1
TTP	80	0	7	B	0	L1
TTP	81	0	6	B	0	L1
TTP	81	192	0	C	0	L1
TTP	82	0	2	B	0	L1
TTP	83	0	1	E	0	L1
TTP	83	192	0	C	0	L1
TTP	84	0	5	E	0	L1
THO	85	0	0	384	C	1	L1
TAP	87	0	0
TAP	87	96	0
TAP	87	192	1
TAP	87	288	1
TAP	88	0	2
TAP	88	96	2
TAP	88	192	1
TAP	88	192	3
TAP	89	0	7
TAP	89	96	7
TAP	89	192	6
TAP	89	288	6
TAP	90	0	5
TAP	90	96	5
TAP	90	192	4
TAP	90	192	6
TAP	91	0	2
TAP	91	96	2
TAP	91	192	1
TAP	91	288	1
TAP	92	0	0
TAP	92	96	0
TAP	92	192	0
TAP	92	192	7
TAP	93	0	5
TAP	93	96	5
TAP	93	192	6
TAP	93	288	6
TAP	94	0	0
TAP	94	0	7
TAP	94	96	0
TAP	94	96	7
TAP	94	192	1
TAP	94	192	6
STR	95	0	7
SCL	95	0	7	96	192	4
TAP	96	192	2
TAP	96	192	3
TAP	97	0	1
TAP	97	96	1
TAP	97	192	0
TAP	97	288	0
HLD	98	0	0	96
HLD	98	0	7	96
XTP	98	192	1
XTP	98	192	6
STR	99	0	0
SCR	99	0	0	96	192	3
TAP	100	192	4
TAP	100	192	5
TAP	101	0	6
TAP	101	96	6
TAP	101	192	7
TAP	101	288	7
HLD	102	0	0	96
HLD	102	0	7	96
XTP	102	192	1
XTP	102	192	6
TTP	103	0	1	E	0	L1
TTP	103	192	0	C	0	L1
TTP	104	0	5	E	0	L1
TTP	104	0	6	E	0	L1
TTP	105	0	7	E	0	L1
TTP	105	192	0	C	0	L1
TTP	106	0	2	E	0	L1
TTP	106	0	3	E	0	L1
TTP	107	0	4	E	0	L1
TTP	107	192	0	C	0	L1
TTP	108	0	0	B	0	L1
TTP	108	0	7	B	0	L1
HLD	109	0	7	192
HLD	109	192	0	192
TAP	110	0	7
TAP	110	96	1
TAP	110	96	7
XTP	110	192	0
XTP	110	192	6
STR	111	0	7
SCL	111	0	7	96	384	2
STR	113	0	0
SCR	113	0	0	96	384	5
TAP	115	0	3
TAP	115	0	4

T_REC_TAP	237
T_REC_BRK	2
T_REC_XTP	29
T_REC_HLD	27
T_REC_XHO	2
T_REC_STR	13
T_REC_BST	0
T_REC_XST	0
T_REC_TTP	26
T_REC_THO	2
T_REC_SLD	13
T_REC_ALL	351
T_NUM_TAP	305
T_NUM_BRK	2
T_NUM_HLD	31
T_NUM_SLD	13
T_NUM_ALL	351
T_JUDGE_TAP	307
T_JUDGE_HLD	100
T_JUDGE_SLD	13
T_JUDGE_ALL	420
TTM_EACHPAIRS	66
TTM_SCR_TAP	152500
TTM_SCR_BRK	5200
TTM_SCR_HLD	31000
TTM_SCR_SLD	19500
TTM_SCR_ALL	208200
TTM_SCR_S	201800
TTM_SCR_SS	208000
TTM_RAT_ACV	10009

