VERSION	0.00.00	1.03.00
FES_MODE	0
BPM_DEF	210.000	210.000	210.000	210.000
MET_DEF	4	4
RESOLUTION	384
CLK_DEF	384
COMPATIBLE_CODE	MA2

BPM	0	0	210.000
MET	0	0	4	4

TAP	5	0	0
TAP	6	0	0
TAP	7	0	1
TAP	8	0	1
TAP	9	0	2
TAP	10	0	2
TAP	11	0	3
TAP	12	0	3
HLD	13	0	4	384
HLD	15	0	5	384
HLD	17	0	6	384
TAP	19	0	0
TAP	19	0	7
TAP	20	0	0
TAP	20	0	7
XTP	21	0	0
XTP	21	192	7
BRK	22	0	0
TAP	23	0	7
TAP	23	192	7
TAP	24	0	7
HLD	25	0	6	384
TAP	27	0	5
TAP	27	192	5
TAP	28	0	5
HLD	29	0	4	384
TAP	31	0	3
TAP	31	192	3
TAP	32	0	3
HLD	33	0	3	384
HLD	33	0	4	384
TAP	35	0	2
TAP	35	192	2
TAP	36	0	1
TAP	36	192	1
TAP	37	0	0
TAP	37	192	0
TAP	38	0	7
TAP	38	192	7
STR	39	0	7
SI_	39	0	7	96	288	4
STR	41	0	0
SI_	41	0	0	96	288	3
TAP	43	0	7
TAP	43	192	7
XTP	44	0	0
XTP	44	0	7
TAP	45	0	0
TAP	45	192	0
XTP	46	0	0
XTP	46	0	7
TAP	47	0	1
TAP	47	192	1
TAP	48	0	2
TAP	48	192	2
TAP	49	0	3
TAP	49	192	3
XTP	50	0	3
XTP	50	0	4
STR	51	0	3
SI_	51	0	3	96	288	0
STR	51	0	4
SI_	51	0	4	96	288	7
TAP	53	0	7
TAP	53	96	7
TAP	53	192	7
TAP	54	0	7
TAP	54	96	7
TAP	54	192	7
TAP	55	0	6
TAP	55	96	6
TAP	55	192	6
TAP	56	0	6
TAP	56	96	6
TAP	56	192	6
TAP	57	0	5
TAP	57	96	5
TAP	57	192	5
TAP	58	0	5
TAP	58	96	5
TAP	58	192	5
TAP	59	0	4
TAP	59	96	4
TAP	59	192	4
TAP	60	0	3
TAP	60	0	4
TTP	61	0	3	B	0	L1
TTP	62	0	4	B	0	L1
TTP	63	0	2	B	0	L1
TTP	64	0	5	B	0	L1
TTP	65	0	0	C	1	L1
TAP	67	0	3
TAP	67	96	3
TAP	67	192	3
TAP	68	0	3
TAP	68	96	3
TAP	68	192	3
TAP	69	0	2
TAP	69	96	2
TAP	69	192	2
TAP	70	0	2
TAP	70	96	2
TAP	70	192	2
TAP	71	0	1
TAP	71	96	1
TAP	71	192	1
TAP	72	0	1
TAP	72	96	1
TAP	72	192	1
TAP	73	0	0
TAP	73	96	0
TAP	73	192	0
XTP	74	0	0
XTP	74	0	7
TAP	75	0	7
TAP	75	96	7
TAP	75	192	7
TAP	76	0	0
TAP	76	96	0
TAP	76	192	0
TAP	77	0	7
TAP	77	96	7
TAP	77	192	7
BRK	78	0	0
BRK	78	0	7
TTP	79	0	0	B	0	L1
TTP	80	0	7	B	0	L1
TTP	81	0	1	B	0	L1
TTP	82	0	6	B	0	L1
THO	83	0	0	768	C	1	L1
TAP	87	0	7
TAP	87	192	7
TAP	88	0	6
TAP	88	96	6
TAP	88	192	6
TAP	89	0	5
TAP	89	192	5
TAP	90	0	4
TAP	90	96	4
TAP	90	192	4
TAP	91	0	3
TAP	91	192	3
TAP	92	0	2
TAP	92	96	2
TAP	92	192	2
TAP	93	0	1
TAP	93	192	1
TAP	94	0	0
TAP	94	96	0
TAP	94	192	0
HLD	95	0	7	384
TAP	97	0	0
TAP	97	192	0
TAP	98	0	1
TAP	98	96	1
TAP	98	192	1
TAP	99	0	2
TAP	99	192	2
TAP	100	0	3
TAP	100	96	3
TAP	100	192	3
TAP	101	0	4
TAP	101	192	4
TAP	102	0	5
TAP	102	96	5
TAP	102	192	5
HLD	103	0	6	384
HLD	105	0	7	384
HLD	107	0	0	384
HLD	109	0	1	384
TTP	111	0	2	B	0	L1
TTP	112	0	3	B	0	L1
TTP	113	0	4	B	0	L1
TTP	114	0	5	B	0	L1
TTP	115	0	0	C	1	L1

T_REC_TAP	127
T_REC_BRK	3
T_REC_XTP	10
T_REC_HLD	12
T_REC_XHO	0
T_REC_STR	4
T_REC_BST	0
T_REC_XST	0
T_REC_TTP	14
T_REC_THO	1
T_REC_SLD	4
T_REC_ALL	175
T_NUM_TAP	155
T_NUM_BRK	3
T_NUM_HLD	13
T_NUM_SLD	4
T_NUM_ALL	175
T_JUDGE_TAP	158
T_JUDGE_HLD	112
T_JUDGE_SLD	4
T_JUDGE_ALL	274
TTM_EACHPAIRS	10
TTM_SCR_TAP	77500
TTM_SCR_BRK	7800
TTM_SCR_HLD	13000
TTM_SCR_SLD	6000
TTM_SCR_ALL	104300
TTM_SCR_S	100900
TTM_SCR_SS	104000
TTM_RAT_ACV	10028

