VERSION	0.00.00	1.03.00
FES_MODE	0
BPM_DEF	222.000	222.000	222.000	222.000
MET_DEF	4	4
RESOLUTION	384
CLK_DEF	384
COMPATIBLE_CODE	MA2

BPM	0	0	222.000
MET	0	0	4	4

BST	2	0	7
SCR	2	0	7	96	384	7
STR	3	0	7
SCR	3	0	7	96	384	7
BST	4	0	7
SCR	4	0	7	96	384	7
STR	5	0	7
SCR	5	0	7	96	384	7
BST	6	0	3
SUR	6	0	3	96	288	0
STR	7	0	4
SUL	7	0	4	96	288	7
BST	8	0	1
SCR	8	0	1	96	288	6
BST	9	0	1
SCR	9	0	1	96	288	6
TAP	10	0	1
TAP	10	96	6
HLD	10	144	1	96
TAP	10	240	5
HLD	10	288	1	96
TAP	11	0	4
HLD	11	48	1	96
TAP	11	144	3
TAP	11	192	1
TAP	11	288	3
TAP	11	288	4
TAP	12	0	1
HLD	12	0	6	96
TAP	12	96	2
HLD	12	144	6	96
TAP	12	240	3
HLD	12	288	6	96
TAP	13	0	4
HLD	13	48	6	96
TAP	13	144	5
TAP	13	192	5
TAP	13	192	6
TAP	13	288	3
TAP	13	288	4
TTP	14	0	0	C	1	M1
TTP	14	0	2	B	0	M1
TTP	14	0	5	B	0	M1
XTP	14	96	0
XTP	14	96	7
XTP	14	144	0
XTP	14	144	7
TAP	14	240	1
TAP	14	240	6
TAP	14	288	1
TAP	14	288	6
TAP	15	0	2
TAP	15	0	3
TAP	15	48	2
TAP	15	48	3
TAP	15	144	4
TAP	15	144	5
TAP	15	192	4
TAP	15	192	5
TAP	15	288	3
TAP	15	288	4
XHO	16	0	1	96
XHO	16	0	3	96
HLD	16	192	4	96
HLD	16	192	6	96
HLD	17	0	2	96
HLD	17	0	3	96
XTP	17	192	0
XTP	17	240	0
XTP	17	288	0
XTP	17	288	5
XTP	18	0	1
XTP	18	16	2
XTP	18	32	3
XTP	18	96	1
XTP	18	112	2
XTP	18	128	3
XTP	18	192	1
XTP	18	208	2
XTP	18	224	3
XTP	18	288	1
XTP	18	304	2
XTP	18	320	3
XTP	19	0	0
XTP	19	16	1
XTP	19	32	2
XTP	19	96	0
XTP	19	112	1
XTP	19	128	2
XTP	19	192	0
XTP	19	208	1
XTP	19	224	2
XTP	19	288	7
XTP	20	0	6
XTP	20	16	5
XTP	20	32	4
XTP	20	96	6
XTP	20	112	5
XTP	20	128	4
XTP	20	192	6
XTP	20	208	5
XTP	20	224	4
XTP	20	288	6
XTP	20	304	5
XTP	20	320	4
XTP	21	0	7
XTP	21	16	6
XTP	21	32	5
XTP	21	96	7
XTP	21	112	6
XTP	21	128	5
XTP	21	192	7
XTP	21	208	6
XTP	21	224	5
XTP	21	288	0
TAP	22	0	1
TAP	22	48	1
TAP	22	96	2
TAP	22	144	2
TAP	22	192	3
TAP	22	240	3
TAP	22	288	4
TAP	22	336	4
TAP	23	0	5
TAP	23	48	5
TAP	23	96	6
TAP	23	144	6
TAP	23	192	7
TAP	23	240	7
TAP	23	288	0
TAP	23	336	0
XTP	24	0	7
XTP	24	24	1
XTP	24	48	7
XTP	24	72	1
XTP	24	96	7
XTP	24	120	1
XTP	24	144	7
XTP	24	168	1
XTP	24	192	6
XTP	24	216	2
XTP	24	240	6
XTP	24	264	2
XTP	24	288	5
XTP	24	312	3
XTP	24	336	5
XTP	24	360	3
XST	25	0	4
SI_	25	0	4	96	48	2
XST	25	96	1
SI_	25	96	1	96	48	5
XST	25	192	6
SI_	25	192	6	96	48	2
BRK	25	288	7
XST	26	0	0
SI_	26	0	0	96	48	4
XTP	26	96	4
TAP	26	192	3
TAP	26	192	5
TAP	26	240	6
TAP	26	264	7
TAP	26	288	6
TAP	26	312	7
HLD	26	336	5	48
TAP	27	0	2
TAP	27	24	3
TAP	27	48	2
TAP	27	72	3
HLD	27	96	1	48
TAP	27	144	6
TAP	27	168	7
TAP	27	192	6
TAP	27	216	7
HLD	27	240	5	48
TAP	27	288	1
TAP	27	312	0
TAP	27	336	1
TAP	27	360	0
XST	28	0	2
SI_	28	0	2	96	48	5
XTP	28	96	7
TAP	28	192	4
TAP	28	192	6
TAP	28	240	2
TAP	28	264	3
TAP	28	288	2
TAP	28	312	3
HLD	28	336	1	48
TAP	29	0	5
TAP	29	24	4
TAP	29	48	5
TAP	29	72	4
TAP	29	96	6
XTP	29	144	0
XTP	29	144	7
BRK	29	240	1
TAP	29	240	5
BRK	29	288	1
TAP	29	288	5
BRK	29	336	2
TAP	29	336	4
BST	30	0	1
SI_	30	0	1	96	48	6
STR	30	0	5
SI_	30	0	5	96	48	2
XTP	30	192	0
XTP	30	192	4
TAP	30	240	1
TAP	30	264	3
TAP	30	288	1
TAP	30	312	3
HLD	30	336	2	48
TAP	31	0	6
TAP	31	24	4
TAP	31	48	6
TAP	31	72	4
HLD	31	96	5	48
TAP	31	144	1
TAP	31	168	3
TAP	31	192	1
TAP	31	216	3
HLD	31	240	0	48
TAP	31	288	6
TAP	31	312	7
TAP	31	336	6
TAP	31	360	7
XST	32	0	5
SI_	32	0	5	96	48	2
XTP	32	96	2
TAP	32	192	1
TAP	32	192	3
TAP	32	240	0
TAP	32	264	7
TAP	32	288	0
TAP	32	312	7
TAP	32	336	0
TAP	33	48	1
TAP	33	48	5
TAP	33	96	1
TAP	33	96	5
TAP	33	192	2
STR	33	192	6
SV_	33	192	6	96	48	7
BST	34	0	1
SI_	34	0	1	96	48	5
BRK	34	96	5
TAP	34	192	4
TAP	34	192	6
TAP	34	240	7
TAP	34	264	0
TAP	34	288	7
TAP	34	312	0
HLD	34	336	6	48
TAP	35	0	1
TAP	35	24	3
TAP	35	48	1
TAP	35	72	3
HLD	35	96	2	48
TAP	35	144	6
TAP	35	168	4
TAP	35	192	6
TAP	35	216	4
HLD	35	240	5	48
TAP	35	288	1
TAP	35	312	3
TAP	35	336	1
TAP	35	360	3
BST	36	0	0
SI_	36	0	0	96	48	4
BRK	36	96	4
TAP	36	192	3
TAP	36	192	5
TAP	36	240	6
TAP	36	264	2
TAP	36	288	6
TAP	36	312	2
HLD	36	336	4	48
TAP	37	0	1
TAP	37	24	5
TAP	37	48	1
TAP	37	72	5
TAP	37	96	7
STR	37	144	0
SI_	37	144	0	96	48	4
STR	37	144	6
SI_	37	144	6	96	48	3
XTP	37	240	0
XTP	37	240	6
TAP	38	0	6
TAP	38	48	6
TAP	38	96	5
TAP	38	144	5
TAP	38	192	4
TAP	38	240	4
TAP	38	288	3
TAP	38	336	3
TAP	39	0	2
TAP	39	48	2
TAP	39	96	1
TAP	39	144	1
TAP	39	192	0
TAP	39	240	0
TAP	39	288	7
TAP	39	336	7
TAP	40	0	0
TAP	40	24	6
TAP	40	48	0
TAP	40	72	6
TAP	40	96	0
TAP	40	120	6
TAP	40	144	0
TAP	40	168	6
TAP	40	192	1
TAP	40	216	5
TAP	40	240	1
TAP	40	264	5
TAP	40	288	2
TAP	40	312	4
TAP	40	336	2
TAP	40	360	4
STR	41	0	3
SLL	41	0	3	96	192	7
SLR	41	0	3	96	192	7
HLD	42	0	1	192
TAP	42	96	3
HLD	42	192	4	192
TAP	42	288	3
HLD	43	0	2	192
TAP	43	96	3
HLD	43	192	4	192
TAP	43	288	3
HLD	44	0	1	192
TAP	44	96	2
HLD	44	192	7	192
TAP	44	288	6
TAP	45	0	0
TAP	45	96	1
TAP	45	96	4
TAP	45	144	1
TAP	45	144	4
TAP	45	192	2
TAP	45	192	3
TAP	45	288	3
TAP	45	288	4
HLD	46	0	2	192
TAP	46	0	5
TAP	46	96	4
HLD	46	192	6	192
TAP	46	288	4
HLD	47	0	3	192
TAP	47	96	4
HLD	47	192	5	192
TAP	47	288	4
HLD	48	0	2	192
TAP	48	96	1
HLD	48	192	6	192
TAP	48	288	7
TAP	49	0	4
TAP	49	96	3
TAP	49	96	4
TAP	49	192	2
TAP	49	192	3
TAP	49	288	1
TAP	49	288	4
TAP	50	0	2
HLD	50	0	3	192
TTP	50	96	0	C	0	M1
HLD	50	192	2	192
TTP	50	288	2	E	0	M1
HLD	51	0	3	192
TTP	51	96	5	E	0	M1
HLD	51	192	2	192
TTP	51	288	1	E	0	M1
HLD	52	0	5	192
TTP	52	96	7	E	0	M1
HLD	52	192	4	192
TTP	52	288	3	E	0	M1
TAP	53	0	5
TAP	53	96	3
TAP	53	96	6
TAP	53	144	3
TAP	53	144	6
TAP	53	192	4
TAP	53	192	5
TAP	53	288	3
TAP	53	288	5
TAP	54	0	2
HLD	54	0	4	672
TTP	54	96	0	C	0	M1
TTP	54	96	4	B	0	M1
TTP	54	96	5	B	0	M1
TAP	54	192	2
TTP	54	288	0	C	0	M1
TTP	54	288	4	B	0	M1
TTP	54	288	5	B	0	M1
TAP	55	0	2
TTP	55	96	0	C	0	M1
TTP	55	96	4	B	0	M1
TTP	55	96	5	B	0	M1
TAP	55	192	2
TTP	55	288	0	C	0	M1
TTP	55	288	4	B	0	M1
TTP	55	288	5	B	0	M1
TAP	56	0	1
TAP	56	0	6
TTP	56	96	0	C	0	M1
TTP	56	96	4	B	0	M1
TTP	56	96	5	B	0	M1
TTP	56	144	0	C	0	M1
TTP	56	144	4	B	0	M1
TTP	56	144	5	B	0	M1
TTP	56	192	0	C	0	M1
TTP	56	192	4	B	0	M1
TTP	56	192	5	B	0	M1
TTP	56	240	0	C	0	M1
TTP	56	240	4	B	0	M1
TTP	56	240	5	B	0	M1
TTP	56	288	0	C	0	M1
TTP	56	288	4	B	0	M1
TTP	56	288	5	B	0	M1
TTP	56	336	0	C	0	M1
TTP	56	336	4	B	0	M1
TTP	56	336	5	B	0	M1
THO	57	0	0	192	C	0	M1
TTP	57	0	4	B	0	M1
TTP	57	0	5	B	0	M1
BRK	57	192	7
TAP	58	0	1
TAP	58	0	7
TAP	58	96	2
TAP	58	96	3
TAP	58	144	2
TAP	58	144	3
HLD	58	192	1	96
TAP	58	192	4
HLD	58	288	0	96
XTP	59	0	1
XTP	59	24	0
XTP	59	24	2
XTP	59	48	3
XTP	59	48	7
XTP	59	72	4
XTP	59	72	6
XTP	59	96	5
XTP	59	144	4
XTP	59	144	6
TAP	59	240	1
TAP	59	240	3
TAP	59	288	1
TAP	59	288	3
STR	60	0	3
SI_	60	0	3	96	48	0
TAP	60	0	4
STR	60	96	7
SLL	60	96	7	96	96	1
STR	60	192	1
SLR	60	192	1	96	96	7
TAP	60	240	0
TAP	60	288	0
TAP	60	336	0
HLD	61	0	0	96
TAP	61	96	7
HLD	61	144	0	96
TAP	61	144	6
TAP	61	240	6
BRK	61	288	1
BRK	61	288	5
TAP	62	0	0
TAP	62	0	6
TAP	62	96	4
TAP	62	96	5
TAP	62	144	4
TAP	62	144	5
TAP	62	192	3
HLD	62	192	6	96
HLD	62	288	7	96
XTP	63	0	6
XTP	63	24	5
XTP	63	24	7
XTP	63	48	0
XTP	63	48	4
XTP	63	72	1
XTP	63	72	3
XTP	63	96	2
XTP	63	144	1
XTP	63	144	3
TAP	63	240	2
TAP	63	240	5
TAP	63	288	2
TAP	63	288	5
TAP	64	0	3
STR	64	0	4
SI_	64	0	4	96	48	7
STR	64	96	0
SLR	64	96	0	96	96	6
TAP	64	192	6
TAP	64	240	7
STR	64	288	7
SV_	64	288	7	96	288	1
SV_	64	288	7	96	288	4
TAP	64	336	7
TAP	66	0	3
TAP	66	0	5
TAP	66	96	6
TAP	66	96	7
TAP	66	144	6
TAP	66	144	7
TAP	66	192	0
HLD	66	192	5	96
HLD	66	288	4	96
XTP	67	0	5
XTP	67	24	4
XTP	67	24	6
XTP	67	48	3
XTP	67	48	7
XTP	67	72	0
XTP	67	72	2
XTP	67	96	1
XTP	67	144	0
XTP	67	144	2
TAP	67	240	1
TAP	67	240	6
TAP	67	288	1
TAP	67	288	6
TAP	68	0	0
STR	68	0	7
SI_	68	0	7	96	48	4
STR	68	96	3
SLL	68	96	3	96	96	5
STR	68	192	5
SLR	68	192	5	96	96	3
TAP	68	240	4
TAP	68	288	4
TAP	68	336	4
HLD	69	0	4	96
TAP	69	96	3
HLD	69	144	4	48
TAP	69	192	2
TAP	69	240	4
BRK	69	288	1
BRK	69	288	5
TAP	70	0	2
TAP	70	0	4
TAP	70	96	0
TAP	70	96	1
TAP	70	144	0
TAP	70	144	1
HLD	70	192	2	96
TAP	70	192	7
HLD	70	288	3	96
XTP	71	0	2
XTP	71	24	1
XTP	71	24	3
XTP	71	48	0
XTP	71	48	4
XTP	71	72	5
XTP	71	72	7
XTP	71	96	6
XTP	71	144	5
XTP	71	144	7
TAP	71	240	0
TAP	71	240	6
TAP	71	288	0
TAP	71	288	6
TAP	72	0	7
TAP	72	48	7
TAP	72	96	5
TAP	72	144	5
TAP	72	192	3
TAP	72	240	3
TAP	72	288	1
TAP	72	336	1
XTP	73	0	6
XTP	73	32	4
XTP	73	64	5
XTP	73	96	1
XTP	73	128	3
XTP	73	160	2
XTP	73	192	4
XTP	73	216	3
XTP	73	240	4
XTP	73	264	3
XTP	73	288	4
XTP	73	312	3
XTP	73	336	4
XTP	73	360	3
TTP	74	0	0	C	1	M1
HLD	78	0	2	288
HLD	78	0	3	1440
HLD	79	0	1	288
HLD	80	0	0	288
TAP	81	0	0
TAP	81	96	1
TAP	81	192	2
TAP	81	288	1
HLD	82	0	0	96
STR	82	0	4
SCR	82	0	4	96	192	0
HLD	82	192	1	96
STR	83	0	2
SCL	83	0	2	96	192	6
HLD	83	0	6	96
HLD	83	192	5	96
HLD	84	0	1	96
STR	84	0	4
SUR	84	0	4	96	192	1
HLD	84	192	2	96
STR	85	0	3
SUL	85	0	3	96	192	6
HLD	85	0	6	96
HLD	85	192	5	96
TAP	86	0	4
TAP	86	0	5
TAP	86	96	3
TAP	86	96	4
TAP	86	192	2
TAP	86	192	3
TAP	86	288	1
TAP	86	288	2
TAP	87	0	0
TAP	87	0	1
TAP	87	96	0
TAP	87	96	7
TAP	87	192	6
TAP	87	192	7
TAP	87	288	0
TAP	87	336	0
TAP	87	360	7
TAP	88	0	1
TAP	88	48	1
TAP	88	96	2
TAP	88	144	2
TAP	88	192	3
TAP	88	240	3
STR	88	288	4
SCR	88	288	4	96	288	2
TAP	88	336	3
TAP	89	0	2
HLD	90	0	0	192
BRK	90	0	4
BRK	91	0	3
HLD	91	0	7	192
BRK	92	0	0
THO	92	0	0	192	C	0	M1
THO	93	0	0	192	C	0	M1
BRK	93	0	7
BRK	94	0	1
BRK	94	0	6
TAP	94	96	3
STR	94	96	4
SI_	94	96	4	96	480	7
TAP	94	192	2
TAP	94	288	1
BRK	95	0	0
TAP	95	48	0
TAP	95	96	0
TAP	95	144	0
TAP	95	192	0
TAP	95	240	0
TAP	95	288	0
TAP	95	336	0
BRK	96	0	0
TAP	96	24	7
TAP	96	48	0
TAP	96	72	7
TAP	96	96	0
TAP	96	120	7
TAP	96	144	0
TAP	96	168	7
TAP	96	192	1
TAP	96	216	6
TAP	96	240	0
TAP	96	264	7
TAP	96	288	1
TAP	96	312	6
TAP	96	336	0
TAP	96	360	7
XTP	97	0	1
XTP	97	0	6
XST	97	192	2
SI_	97	192	2	96	48	0
XTP	97	192	5
BRK	97	288	2
XTP	98	0	1
STR	98	0	4
SI_	98	0	4	96	48	0
TAP	98	96	2
TAP	98	144	3
STR	98	192	4
SI_	98	192	4	96	48	0
STR	98	240	7
SI_	98	240	7	96	48	5
TAP	98	288	4
STR	98	336	7
SI_	98	336	7	96	48	3
STR	99	48	0
SCR	99	48	0	96	48	2
STR	99	48	7
SCL	99	48	7	96	48	5
STR	99	144	0
SI_	99	144	0	96	48	4
TAP	99	144	7
TAP	99	240	0
TAP	99	240	4
TAP	99	288	5
TAP	99	336	6
STR	100	0	7
SI_	100	0	7	96	48	3
TAP	100	48	3
TAP	100	96	2
TAP	100	96	7
STR	100	144	1
SI_	100	144	1	96	48	5
STR	100	240	0
SCL	100	240	0	96	48	6
TAP	100	240	1
STR	100	336	0
SI_	100	336	0	96	48	4
STR	100	336	1
SCR	100	336	1	96	48	3
TAP	101	48	0
TAP	101	48	1
XTP	101	144	1
XTP	101	144	7
XTP	101	192	1
XTP	101	192	7
XTP	101	288	2
XTP	101	288	6
XTP	101	336	3
XTP	101	336	5
XST	102	0	4
SI_	102	0	4	96	48	0
TAP	102	96	2
TAP	102	144	3
STR	102	192	4
SI_	102	192	4	96	48	0
STR	102	240	7
SI_	102	240	7	96	48	5
TAP	102	288	4
STR	102	336	7
SI_	102	336	7	96	48	3
STR	103	48	0
SCR	103	48	0	96	48	2
STR	103	48	7
SCL	103	48	7	96	48	5
STR	103	144	0
SI_	103	144	0	96	48	4
TAP	103	144	7
TAP	103	240	0
TAP	103	240	4
TAP	103	288	5
TAP	103	336	6
STR	104	0	7
SI_	104	0	7	96	48	3
TAP	104	48	3
TAP	104	96	7
STR	104	144	1
SI_	104	144	1	96	48	7
STR	104	240	1
SI_	104	240	1	96	48	3
STR	104	288	5
SI_	104	288	5	96	48	1
TAP	104	336	1
TAP	105	0	5
TAP	105	96	3
TAP	105	96	7
TAP	105	192	2
TAP	105	192	4
TAP	105	288	3
TAP	105	288	5
TAP	106	0	6
TAP	106	0	7
XST	106	48	0
SI_	106	48	0	96	48	2
TAP	106	96	5
XST	106	144	0
SI_	106	144	0	96	48	6
TAP	106	192	3
XST	106	240	0
SI_	106	240	0	96	48	2
TAP	106	288	4
XST	106	336	0
SI_	106	336	0	96	48	6
TAP	107	0	3
XST	107	48	0
SI_	107	48	0	96	48	2
TAP	107	96	5
XST	107	144	0
SI_	107	144	0	96	48	4
TAP	107	192	3
XTP	107	240	0
TAP	107	288	6
XTP	107	336	1
XST	107	336	7
SI_	107	336	7	96	48	5
XTP	107	360	2
XTP	108	0	3
XST	108	48	7
SI_	108	48	7	96	48	1
TAP	108	96	4
XST	108	144	7
SI_	108	144	7	96	48	5
TAP	108	192	2
XST	108	240	7
SI_	108	240	7	96	48	1
TAP	108	288	4
XST	108	336	7
SI_	108	336	7	96	48	5
TAP	109	0	2
XTP	109	48	7
TAP	109	96	4
XTP	109	144	7
TAP	109	192	3
XTP	109	192	7
TAP	109	288	1
TAP	109	288	5
TAP	110	0	2
TAP	110	0	4
TAP	110	48	1
TAP	110	96	0
TAP	110	144	7
TAP	110	192	6
TAP	110	240	5
TAP	110	288	4
TAP	110	336	3
TAP	111	0	2
TAP	111	0	4
TAP	111	48	5
TAP	111	96	3
TAP	111	96	6
TAP	111	144	2
TAP	111	192	1
TAP	111	192	5
TAP	111	240	6
TAP	111	288	0
HLD	111	288	7	96
TAP	112	0	2
TAP	112	24	6
TAP	112	48	2
TAP	112	72	6
BRK	112	96	1
TAP	112	120	5
TAP	112	144	1
TAP	112	168	5
TAP	112	192	0
TAP	112	216	4
BRK	112	240	0
TAP	112	264	4
STR	112	288	7
SI_	112	288	7	96	48	3
TAP	112	312	3
TAP	112	336	7
TAP	112	360	3
BRK	113	0	7
BRK	113	96	5
BRK	113	144	5
BRK	113	192	2
BRK	113	192	6
BRK	113	240	2
BRK	113	240	6
BRK	113	288	0
BRK	113	288	4
XTP	114	0	0
XTP	114	16	1
XTP	114	32	2
XTP	114	96	0
XTP	114	112	1
XTP	114	128	2
XTP	114	192	1
XTP	114	208	2
XTP	114	224	3
XTP	114	288	1
XTP	114	304	2
XTP	114	320	3
XTP	115	0	0
XTP	115	16	1
XTP	115	32	2
XTP	115	96	1
XTP	115	112	2
XTP	115	128	3
XTP	115	192	0
XTP	115	208	1
XTP	115	224	2
XTP	115	288	7
XTP	116	0	7
XTP	116	16	6
XTP	116	32	5
XTP	116	96	7
XTP	116	112	6
XTP	116	128	5
XTP	116	192	6
XTP	116	208	5
XTP	116	224	4
XTP	116	288	6
XTP	116	304	5
XTP	116	320	4
XTP	117	0	7
XTP	117	16	6
XTP	117	32	5
XTP	117	96	6
XTP	117	112	5
XTP	117	128	4
XTP	117	192	7
XTP	117	208	6
XTP	117	224	5
XTP	117	288	0
TAP	118	0	0
TAP	118	0	7
TAP	118	48	0
TAP	118	96	1
TAP	118	96	3
TAP	118	144	1
TAP	118	192	2
TAP	118	192	4
TAP	118	240	2
TAP	118	288	3
TAP	118	288	5
TAP	118	336	3
TAP	119	0	4
TAP	119	0	6
TAP	119	48	4
TAP	119	96	5
TAP	119	96	7
TAP	119	144	5
TAP	119	192	0
TAP	119	192	6
TAP	119	240	6
TAP	119	288	1
TAP	119	288	7
TAP	119	336	7
TAP	120	0	0
TAP	120	0	1
TAP	120	24	7
TAP	120	48	6
TAP	120	72	5
TAP	120	96	3
TAP	120	96	4
TAP	120	120	2
TAP	120	144	1
TAP	120	168	0
XTP	120	192	7
XTP	120	204	0
TAP	120	216	1
TAP	120	228	2
TAP	120	240	3
TAP	120	252	4
TAP	120	264	5
TAP	120	276	6
TAP	120	288	7
TAP	120	300	0
TAP	120	312	1
TAP	120	324	2
TAP	120	336	3
TAP	121	48	0
STR	121	96	7
SI_	121	96	7	96	48	3
STR	121	144	0
SI_	121	144	0	96	48	4
STR	121	192	7
SI_	121	192	7	96	48	5
STR	121	240	0
SI_	121	240	0	96	48	2
TAP	121	288	7
TAP	121	336	0
TTP	122	0	0	C	1	M1

T_REC_TAP	466
T_REC_BRK	31
T_REC_XTP	196
T_REC_HLD	68
T_REC_XHO	2
T_REC_STR	50
T_REC_BST	8
T_REC_XST	19
T_REC_TTP	43
T_REC_THO	3
T_REC_SLD	79
T_REC_ALL	965
T_NUM_TAP	774
T_NUM_BRK	39
T_NUM_HLD	73
T_NUM_SLD	79
T_NUM_ALL	965
T_JUDGE_TAP	813
T_JUDGE_HLD	232
T_JUDGE_SLD	79
T_JUDGE_ALL	1124
TTM_EACHPAIRS	152
TTM_SCR_TAP	387000
TTM_SCR_BRK	101400
TTM_SCR_HLD	73000
TTM_SCR_SLD	118500
TTM_SCR_ALL	679900
TTM_SCR_S	655750
TTM_SCR_SS	676000
TTM_RAT_ACV	10057

