VERSION	0.00.00	1.03.00
FES_MODE	0
BPM_DEF	222.000	222.000	222.000	222.000
MET_DEF	4	4
RESOLUTION	384
CLK_DEF	384
COMPATIBLE_CODE	MA2

BPM	0	0	222.000
MET	0	0	4	4
CLK	0	0
CLK	0	96
CLK	0	192
CLK	0	288

XTP	2	0	1
XST	2	0	6
SCR	2	0	6	96	192	1
XST	3	0	2
SCR	3	0	2	96	192	5
XTP	3	0	5
XTP	4	0	2
XST	4	0	5
SCR	4	0	5	96	192	2
XST	5	0	1
SCR	5	0	1	96	192	6
XTP	5	0	6
XTP	6	0	3
XST	6	0	6
SCR	6	0	6	96	192	3
XST	7	0	0
SCR	7	0	0	96	192	5
XTP	7	0	5
HLD	8	0	5	192
XST	8	0	7
SCR	8	0	7	96	192	4
XST	9	0	0
SCL	9	0	0	96	192	3
HLD	9	0	2	192
HLD	10	0	6	96
HLD	10	0	7	96
HLD	10	144	0	96
HLD	10	144	6	96
HLD	10	288	1	96
HLD	10	288	6	96
HLD	11	48	2	96
HLD	11	48	6	96
TAP	11	192	3
TAP	11	192	6
TAP	11	288	1
TAP	11	288	4
HLD	12	0	0	96
HLD	12	0	1	96
HLD	12	144	1	96
HLD	12	144	7	96
TAP	12	288	1
TAP	12	288	6
TAP	12	336	1
TAP	12	336	6
HLD	13	48	1	96
HLD	13	48	5	96
TAP	13	192	2
TAP	13	192	4
TAP	13	288	3
TAP	13	288	5
HLD	14	0	6	96
HLD	14	0	7	96
HLD	14	144	0	96
HLD	14	144	6	96
HLD	14	288	1	96
HLD	14	288	6	96
HLD	15	48	2	96
HLD	15	48	6	96
TAP	15	192	3
TAP	15	192	6
TAP	15	288	1
TAP	15	288	4
XST	16	0	0
SCL	16	0	0	96	192	4
TAP	16	0	2
TAP	16	96	2
TAP	16	192	2
TAP	16	288	2
TAP	17	0	2
TAP	17	0	3
TAP	17	96	1
TAP	17	96	3
XTP	17	192	0
XTP	17	240	0
XTP	17	288	7
STR	18	0	6
SV_	18	0	6	96	48	3
STR	18	96	7
SCR	18	96	7	96	48	2
STR	18	192	6
SV_	18	192	6	96	48	3
STR	18	288	7
SCR	18	288	7	96	48	2
STR	19	0	5
SV_	19	0	5	96	48	2
TAP	19	96	7
TAP	19	192	7
TAP	19	240	0
TAP	19	288	1
TAP	19	288	6
STR	20	0	1
SV_	20	0	1	96	48	4
STR	20	96	0
SCL	20	96	0	96	48	5
STR	20	192	1
SV_	20	192	1	96	48	4
STR	20	288	0
SCL	20	288	0	96	48	5
STR	21	0	2
SV_	21	0	2	96	48	5
TAP	21	96	0
TAP	21	192	0
TAP	21	240	7
TAP	21	288	1
TAP	21	288	6
STR	22	0	7
SI_	22	0	7	96	48	3
TAP	22	48	7
TAP	22	96	1
TAP	22	144	1
STR	22	192	0
SI_	22	192	0	96	48	4
TAP	22	240	0
TAP	22	288	6
TAP	22	336	6
STR	23	0	7
SCL	23	0	7	96	48	4
TAP	23	48	7
TAP	23	96	1
TAP	23	144	1
STR	23	192	0
SCR	23	192	0	96	48	3
TAP	23	240	0
TAP	23	288	6
TAP	23	336	6
TAP	24	0	7
TAP	24	24	0
TAP	24	48	7
TAP	24	72	0
TAP	24	96	7
TAP	24	120	0
TAP	24	144	7
TAP	24	168	0
TAP	24	192	6
TAP	24	216	1
TAP	24	240	6
TAP	24	264	1
TAP	24	288	6
TAP	24	312	1
TAP	24	336	6
TAP	24	360	1
STR	25	0	6
SI_	25	0	6	96	48	2
SI_	25	0	6	96	48	4
TAP	25	192	1
TAP	25	192	5
BRK	25	288	0
BRK	25	288	7
STR	26	0	1
SI_	26	0	1	96	48	6
STR	26	0	5
SI_	26	0	5	96	48	2
TAP	26	192	0
TAP	26	192	4
TAP	26	240	2
TAP	26	264	3
TAP	26	288	2
TAP	26	312	3
TAP	26	336	2
TAP	27	0	4
TAP	27	24	3
TAP	27	48	4
TAP	27	72	3
TAP	27	96	4
TAP	27	144	1
TAP	27	168	3
TAP	27	192	1
TAP	27	216	3
TAP	27	240	1
TAP	27	288	7
TAP	27	336	1
STR	28	0	2
SI_	28	0	2	96	48	5
STR	28	0	6
SI_	28	0	6	96	48	1
TAP	28	192	3
TAP	28	192	7
TAP	28	240	5
TAP	28	264	4
TAP	28	288	5
TAP	28	312	4
TAP	28	336	5
TAP	29	0	3
TAP	29	24	4
TAP	29	48	3
TAP	29	72	4
TAP	29	96	3
TTP	29	144	0	C	0	M1
TAP	29	240	7
TAP	29	288	0
TAP	29	336	1
STR	30	0	1
SI_	30	0	1	96	48	4
STR	30	0	5
SI_	30	0	5	96	48	0
TAP	30	192	2
TAP	30	192	7
TAP	30	240	1
TAP	30	264	0
TAP	30	288	1
TAP	30	312	0
TAP	30	336	1
TAP	31	0	7
TAP	31	24	0
TAP	31	48	7
TAP	31	72	0
TAP	31	96	7
TAP	31	144	2
TAP	31	168	0
TAP	31	192	2
TAP	31	216	0
TAP	31	240	2
TAP	31	288	7
TAP	31	336	6
STR	32	0	2
SI_	32	0	2	96	48	7
STR	32	0	6
SI_	32	0	6	96	48	3
TAP	32	192	0
TAP	32	192	5
TAP	32	240	6
TAP	32	264	7
TAP	32	288	6
TAP	32	312	7
STR	32	336	6
SCL	32	336	6	96	144	1
BRK	33	288	0
BRK	33	288	7
STR	34	0	2
SI_	34	0	2	96	48	5
STR	34	0	6
SI_	34	0	6	96	48	1
TAP	34	192	3
TAP	34	192	7
TAP	34	240	6
TAP	34	264	4
TAP	34	288	6
TAP	34	312	4
TAP	34	336	6
TAP	35	0	2
TAP	35	24	4
TAP	35	48	2
TAP	35	72	4
TAP	35	96	2
TAP	35	144	7
TAP	35	168	4
TAP	35	192	7
TAP	35	216	4
TAP	35	240	7
TAP	35	288	0
TAP	35	336	6
STR	36	0	1
SI_	36	0	1	96	48	6
STR	36	0	5
SI_	36	0	5	96	48	2
TAP	36	192	0
TAP	36	192	4
TAP	36	240	1
TAP	36	264	3
TAP	36	288	1
TAP	36	312	3
TAP	36	336	1
TAP	37	0	6
TAP	37	24	3
TAP	37	48	6
TAP	37	72	3
TAP	37	96	6
TTP	37	144	0	C	0	M1
BRK	37	240	0
BRK	37	240	7
TAP	38	0	0
TAP	38	48	0
TAP	38	96	6
TAP	38	144	6
TAP	38	192	2
TAP	38	240	2
TAP	38	288	4
TAP	38	336	4
TAP	39	0	3
TAP	39	48	3
TAP	39	96	5
TAP	39	144	5
TAP	39	192	1
TAP	39	240	1
TAP	39	288	6
TAP	39	336	6
TAP	40	0	0
TAP	40	24	7
TAP	40	48	0
TAP	40	72	7
TAP	40	96	0
TAP	40	120	7
TAP	40	144	0
TAP	40	168	7
TAP	40	192	0
TAP	40	216	7
TAP	40	240	0
TAP	40	264	7
TAP	40	288	0
TAP	40	312	7
TAP	40	336	0
STR	40	360	7
SLL	40	360	7	96	216	3
SLR	40	360	7	96	216	3
TAP	42	0	2
TAP	42	0	3
TAP	42	96	1
TAP	42	192	2
TAP	42	192	3
TAP	42	240	2
TAP	42	288	7
TAP	43	0	4
TAP	43	0	5
TAP	43	96	6
TAP	43	192	4
TAP	43	192	5
TAP	43	240	5
TAP	43	288	0
TAP	44	0	2
TAP	44	0	3
TAP	44	96	1
TAP	44	192	2
TAP	44	192	3
TAP	44	240	2
TAP	44	288	7
TAP	45	0	4
TAP	45	0	5
TAP	45	48	5
TAP	45	96	2
TAP	45	144	3
TAP	45	192	0
TAP	45	288	1
TAP	45	288	6
TAP	46	0	4
TAP	46	0	5
TAP	46	96	6
TAP	46	192	4
TAP	46	192	5
TAP	46	240	5
TAP	46	288	0
TAP	47	0	2
TAP	47	0	3
TAP	47	96	1
TAP	47	192	2
TAP	47	192	3
TAP	47	240	2
TAP	47	288	7
TAP	48	0	4
TAP	48	0	5
TAP	48	96	6
TAP	48	192	4
TAP	48	192	5
TAP	48	240	5
TAP	48	288	0
XTP	49	0	4
XTP	49	0	5
XTP	49	96	2
XTP	49	96	4
XTP	49	192	4
XTP	49	192	6
XTP	49	288	1
XTP	49	288	4
TAP	50	0	4
TAP	50	0	5
TAP	50	96	0
TAP	50	192	4
TAP	50	192	5
TAP	50	240	6
TAP	50	288	0
TAP	50	288	7
TAP	51	0	2
TAP	51	0	3
TAP	51	96	7
TAP	51	192	2
TAP	51	192	3
TAP	51	240	1
TAP	51	288	0
TAP	51	288	7
TAP	52	0	4
TAP	52	0	5
TAP	52	96	0
TAP	52	192	4
TAP	52	192	5
TAP	52	240	6
TAP	52	288	0
TAP	52	288	7
TAP	53	0	2
TAP	53	0	3
TAP	53	48	2
TAP	53	96	5
TAP	53	144	4
TAP	53	192	7
TAP	53	288	1
TAP	53	288	6
STR	54	0	0
SI_	54	0	0	96	48	4
TAP	54	0	1
TAP	54	96	3
STR	54	192	3
SI_	54	192	3	96	48	7
TAP	54	288	6
STR	55	0	6
SI_	55	0	6	96	48	2
TAP	55	96	1
STR	55	192	1
SI_	55	192	1	96	48	5
TAP	55	288	6
STR	56	0	6
SI_	56	0	6	96	48	1
STR	56	96	2
SI_	56	96	2	96	48	5
STR	56	192	7
SI_	56	192	7	96	48	4
STR	56	288	3
SI_	56	288	3	96	48	0
STR	57	0	6
SI_	57	0	6	96	48	2
STR	57	96	2
SLL	57	96	2	96	96	4
SLL	57	96	2	96	96	5
TAP	58	0	3
TAP	58	0	6
TAP	58	96	2
TAP	58	144	1
TAP	58	144	3
TAP	58	240	6
TAP	58	240	7
TAP	58	288	0
TAP	58	288	5
TTP	59	0	7	E	0	M1
TTP	59	24	0	E	0	M1
TTP	59	24	6	E	0	M1
TTP	59	48	1	E	0	M1
TTP	59	48	5	E	0	M1
TTP	59	72	2	E	0	M1
TTP	59	72	4	E	0	M1
TTP	59	96	3	E	0	M1
TTP	59	144	0	C	0	M1
TAP	59	240	5
TAP	59	288	4
TAP	59	288	6
HLD	60	0	5	96
TTP	60	96	4	B	0	M1
TTP	60	96	5	B	0	M1
HLD	60	192	2	96
TTP	60	288	2	B	0	M1
TTP	60	288	3	B	0	M1
HLD	61	0	6	96
TTP	61	96	4	B	0	M1
TTP	61	96	5	B	0	M1
HLD	61	192	1	96
TTP	61	288	2	B	0	M1
TTP	61	288	3	B	0	M1
TAP	62	0	1
TAP	62	0	4
TAP	62	96	5
TAP	62	144	4
TAP	62	144	6
TAP	62	240	0
TAP	62	240	1
TAP	62	288	2
TAP	62	288	7
TTP	63	0	1	E	0	M1
TTP	63	24	0	E	0	M1
TTP	63	24	2	E	0	M1
TTP	63	48	3	E	0	M1
TTP	63	48	7	E	0	M1
TTP	63	72	4	E	0	M1
TTP	63	72	6	E	0	M1
TTP	63	96	5	E	0	M1
TTP	63	144	0	C	0	M1
TAP	63	240	2
TAP	63	288	1
TAP	63	288	3
HLD	64	0	2	96
TTP	64	96	2	B	0	M1
TTP	64	96	3	B	0	M1
HLD	64	192	5	96
TTP	64	288	4	B	0	M1
TTP	64	288	5	B	0	M1
XST	65	0	0
SV_	65	0	0	96	192	3
XST	65	0	6
SV_	65	0	6	96	192	3
TAP	66	0	2
TAP	66	0	7
TAP	66	96	6
TAP	66	144	5
TAP	66	144	7
TAP	66	240	2
TAP	66	240	3
TAP	66	288	1
TAP	66	288	4
TTP	67	0	3	E	0	M1
TTP	67	24	2	E	0	M1
TTP	67	24	4	E	0	M1
TTP	67	48	1	E	0	M1
TTP	67	48	5	E	0	M1
TTP	67	72	0	E	0	M1
TTP	67	72	6	E	0	M1
TTP	67	96	7	E	0	M1
TTP	67	144	0	C	0	M1
TAP	67	240	1
TAP	67	288	0
TAP	67	288	2
HLD	68	0	1	96
TTP	68	96	0	B	0	M1
TTP	68	96	1	B	0	M1
HLD	68	192	6	96
TTP	68	288	6	B	0	M1
TTP	68	288	7	B	0	M1
HLD	69	0	2	96
TTP	69	96	0	B	0	M1
TTP	69	96	1	B	0	M1
HLD	69	192	5	96
TTP	69	288	6	B	0	M1
TTP	69	288	7	B	0	M1
TAP	70	0	0
TAP	70	0	5
TAP	70	96	1
TAP	70	144	0
TAP	70	144	2
TAP	70	240	4
TAP	70	240	5
TAP	70	288	3
TAP	70	288	6
TTP	71	0	5	E	0	M1
TTP	71	24	4	E	0	M1
TTP	71	24	6	E	0	M1
TTP	71	48	3	E	0	M1
TTP	71	48	7	E	0	M1
TTP	71	72	0	E	0	M1
TTP	71	72	2	E	0	M1
TTP	71	96	1	E	0	M1
TTP	71	144	0	C	0	M1
TAP	71	240	6
TAP	71	288	5
TAP	71	288	7
TAP	72	0	1
TAP	72	48	7
TAP	72	96	3
TAP	72	144	5
TAP	72	192	0
TAP	72	240	6
TAP	72	288	2
TAP	72	336	4
XTP	73	0	1
XTP	73	32	3
XTP	73	64	2
XTP	73	96	6
XTP	73	128	4
XTP	73	160	5
XTP	73	192	0
XTP	73	216	7
XTP	73	240	0
XTP	73	264	7
XTP	73	288	0
XTP	73	312	7
XTP	73	336	0
XTP	73	360	7
XST	74	0	0
SF_	74	0	0	96	192	4
STR	75	0	7
SF_	75	0	7	96	192	3
STR	76	0	0
SI_	76	0	0	96	192	4
STR	76	0	1
SI_	76	0	1	96	192	3
STR	77	0	6
SI_	77	0	6	96	192	4
STR	77	0	7
SI_	77	0	7	96	192	3
STR	78	0	1
SI_	78	0	1	96	192	6
STR	78	0	2
SI_	78	0	2	96	192	5
STR	79	0	5
SI_	79	0	5	96	192	2
STR	79	0	6
SI_	79	0	6	96	192	1
STR	80	0	7
SF_	80	0	7	96	192	3
XTP	81	0	1
XTP	81	96	2
BRK	81	192	3
TTP	82	0	2	E	0	M1
TTP	82	96	5	B	0	M1
TTP	82	96	6	E	0	M1
TTP	82	192	3	E	0	M1
TTP	82	288	0	E	0	M1
TTP	82	288	7	B	0	M1
TTP	83	0	2	E	0	M1
TTP	83	96	5	B	0	M1
TTP	83	96	6	E	0	M1
TTP	83	192	3	E	0	M1
TTP	83	288	0	E	0	M1
TTP	83	288	7	B	0	M1
TTP	84	0	6	E	0	M1
TTP	84	96	2	B	0	M1
TTP	84	96	2	E	0	M1
TTP	84	192	5	E	0	M1
TTP	84	288	0	B	0	M1
TTP	84	288	0	E	0	M1
TTP	85	0	6	E	0	M1
TTP	85	96	2	B	0	M1
TTP	85	96	2	E	0	M1
TTP	85	192	5	E	0	M1
TTP	85	288	0	B	0	M1
TTP	85	288	0	E	0	M1
TTP	86	0	3	E	0	M1
TTP	86	0	5	E	0	M1
TTP	86	96	6	B	0	M1
TTP	86	96	7	E	0	M1
TTP	86	192	3	E	0	M1
TTP	86	192	5	E	0	M1
TTP	86	288	1	E	0	M1
TTP	86	288	1	B	0	M1
TTP	87	0	3	E	0	M1
TTP	87	0	5	E	0	M1
TTP	87	96	0	E	0	M1
TTP	87	96	6	B	0	M1
TTP	87	192	3	E	0	M1
TTP	87	192	5	E	0	M1
TTP	87	288	0	E	0	M1
TTP	87	288	1	B	0	M1
TTP	88	0	3	E	0	M1
TTP	88	0	3	B	0	M1
TTP	88	0	4	B	0	M1
TTP	88	0	5	E	0	M1
TTP	88	96	0	E	0	M1
TTP	88	96	6	E	0	M1
TTP	88	96	6	B	0	M1
TTP	88	96	7	B	0	M1
TTP	88	192	3	B	0	M1
TTP	88	192	3	E	0	M1
TTP	88	192	4	B	0	M1
TTP	88	192	5	E	0	M1
TTP	88	288	0	B	0	M1
TTP	88	288	0	E	0	M1
TTP	88	288	1	B	0	M1
TTP	88	288	2	E	0	M1
THO	89	0	0	192	C	1	M1
BST	90	0	1
SCR	90	0	1	96	144	5
TAP	90	192	0
BST	91	0	6
SCL	91	0	6	96	144	2
TAP	91	192	7
BST	92	0	1
SCR	92	0	1	96	144	5
BST	92	192	6
SCL	92	192	6	96	144	2
TAP	93	0	0
TAP	93	96	1
BRK	93	192	2
BRK	93	192	7
BRK	94	0	3
TAP	94	0	4
TAP	94	96	1
BRK	94	96	3
BRK	94	192	3
TAP	94	192	6
TAP	94	288	0
BRK	94	288	3
BRK	95	0	3
TAP	95	48	7
BRK	95	96	3
TAP	95	144	7
BRK	95	192	3
TAP	95	240	7
BRK	95	288	3
TAP	95	336	7
BRK	96	0	3
TAP	96	24	7
BRK	96	48	3
TAP	96	72	7
BRK	96	96	3
TAP	96	120	7
BRK	96	144	3
TAP	96	168	7
BRK	96	192	3
TAP	96	216	7
BRK	96	240	3
TAP	96	264	7
BRK	96	288	3
TAP	96	312	7
BRK	96	336	3
TAP	96	360	7
STR	97	0	3
SI_	97	0	3	96	48	7
STR	97	96	5
SI_	97	96	5	96	48	1
TAP	97	192	0
BRK	97	288	2
BRK	97	288	6
TAP	98	0	0
STR	98	0	4
SI_	98	0	4	96	48	0
TAP	98	96	3
TAP	98	144	3
TAP	98	240	1
TAP	98	264	0
TAP	98	288	1
TAP	98	336	2
TAP	98	336	7
TAP	99	0	3
TAP	99	0	6
TAP	99	48	5
TAP	99	96	1
TAP	99	96	4
TAP	99	144	0
XTP	99	192	0
XTP	99	192	5
XTP	99	256	2
XTP	99	256	7
XTP	99	336	3
XST	100	0	1
SI_	100	0	1	96	48	5
XTP	100	0	5
TAP	100	96	7
TAP	100	144	7
TAP	100	240	5
TAP	100	264	4
TAP	100	288	5
TAP	100	336	3
TAP	100	336	6
XTP	101	0	4
XTP	101	64	3
XTP	101	64	4
XTP	101	144	2
XTP	101	144	5
XST	101	192	2
SI_	101	192	2	96	48	4
XST	101	192	5
SI_	101	192	5	96	48	7
STR	102	0	3
SI_	102	0	3	96	48	7
TAP	102	0	6
TAP	102	96	4
TAP	102	144	4
TAP	102	240	6
TAP	102	264	7
TAP	102	288	6
TAP	102	336	0
TAP	102	336	5
TAP	103	0	1
TAP	103	0	4
TAP	103	48	2
TAP	103	96	3
TAP	103	96	6
TAP	103	144	7
XTP	103	192	2
XTP	103	192	7
XTP	103	256	0
XTP	103	256	5
XTP	103	336	4
XTP	104	0	2
XTP	104	0	6
TAP	104	48	7
TAP	104	96	0
XTP	104	144	1
XTP	104	144	5
TAP	104	192	0
TAP	104	240	7
XST	104	288	0
SI_	104	288	0	96	48	3
XTP	104	288	6
STR	105	0	0
SI_	105	0	0	96	48	5
STR	105	96	0
SI_	105	96	0	96	48	4
TAP	105	192	0
TAP	105	288	2
TAP	105	288	6
STR	106	0	1
SI_	106	0	1	96	48	4
TAP	106	48	1
STR	106	96	6
SI_	106	96	6	96	48	2
TAP	106	144	6
STR	106	192	1
SI_	106	192	1	96	48	4
TAP	106	240	1
STR	106	288	6
SI_	106	288	6	96	48	2
TAP	106	336	6
STR	107	0	7
SI_	107	0	7	96	48	3
TAP	107	48	7
STR	107	96	6
SI_	107	96	6	96	48	4
TAP	107	144	6
TAP	107	192	0
TAP	107	240	1
TAP	107	288	2
TAP	107	288	7
STR	108	0	6
SI_	108	0	6	96	48	3
TAP	108	48	6
STR	108	96	1
SI_	108	96	1	96	48	5
TAP	108	144	1
STR	108	192	6
SI_	108	192	6	96	48	3
TAP	108	240	6
STR	108	288	1
SI_	108	288	1	96	48	5
TAP	108	336	1
STR	109	0	0
SI_	109	0	0	96	48	4
TAP	109	48	0
STR	109	96	1
SI_	109	96	1	96	48	3
TAP	109	144	1
TAP	109	192	7
TAP	109	240	6
TAP	109	288	0
TAP	109	288	5
TAP	110	0	0
TAP	110	0	1
TAP	110	48	2
TAP	110	96	0
TAP	110	96	1
TAP	110	144	7
TAP	110	192	0
TAP	110	192	1
TAP	110	240	2
TAP	110	288	3
TAP	110	336	4
TAP	111	0	6
TAP	111	0	7
TAP	111	48	5
TAP	111	96	6
TAP	111	96	7
TAP	111	144	0
TAP	111	192	6
TAP	111	192	7
TAP	111	240	5
TAP	111	288	4
TAP	111	336	3
TAP	112	0	2
TAP	112	0	4
TAP	112	48	5
TAP	112	96	3
TAP	112	96	6
TAP	112	144	2
TAP	112	192	1
TAP	112	192	5
TAP	112	240	6
TAP	112	288	2
TAP	112	288	7
TAP	112	336	1
TAP	113	0	0
TAP	113	0	4
TAP	113	96	3
TAP	113	96	7
TAP	113	144	3
TAP	113	144	7
TAP	113	192	3
TAP	113	192	7
TAP	113	240	3
TAP	113	240	7
TAP	113	288	3
TAP	113	288	7
STR	114	0	6
SV_	114	0	6	96	48	3
STR	114	96	0
SCR	114	96	0	96	48	3
STR	114	192	7
SV_	114	192	7	96	48	4
STR	114	288	1
SCR	114	288	1	96	48	4
STR	115	0	0
SV_	115	0	0	96	48	5
TAP	115	96	3
TAP	115	192	3
TAP	115	240	2
TAP	115	288	1
TAP	115	288	5
STR	116	0	1
SV_	116	0	1	96	48	4
STR	116	96	7
SCL	116	96	7	96	48	4
STR	116	192	0
SV_	116	192	0	96	48	3
STR	116	288	6
SCL	116	288	6	96	48	3
STR	117	0	7
SV_	117	0	7	96	48	2
TAP	117	96	4
TAP	117	192	4
TAP	117	240	5
TAP	117	288	2
TAP	117	288	6
STR	118	0	3
SI_	118	0	3	96	48	7
TAP	118	48	3
TAP	118	96	5
TAP	118	144	5
STR	118	192	4
SI_	118	192	4	96	48	0
TAP	118	240	4
TAP	118	288	2
TAP	118	336	2
STR	119	0	3
SCL	119	0	3	96	48	0
TAP	119	48	3
TAP	119	96	5
TAP	119	144	5
STR	119	192	4
SCR	119	192	4	96	48	7
TAP	119	240	4
TAP	119	288	2
TAP	119	336	2
TAP	120	0	3
TAP	120	24	4
TAP	120	48	3
TAP	120	72	4
TAP	120	96	3
TAP	120	120	4
TAP	120	144	3
TAP	120	168	4
TAP	120	192	2
TAP	120	216	5
TAP	120	240	2
TAP	120	264	5
TAP	120	288	2
TAP	120	312	5
TAP	120	336	2
TAP	120	360	5
STR	121	0	2
SI_	121	0	2	96	96	0
STR	121	96	0
SV_	121	96	0	96	96	7
STR	121	192	7
SI_	121	192	7	96	96	5
TAP	121	288	5
BRK	122	0	4

T_REC_TAP	496
T_REC_BRK	28
T_REC_XTP	54
T_REC_HLD	34
T_REC_XHO	0
T_REC_STR	84
T_REC_BST	4
T_REC_XST	16
T_REC_TTP	114
T_REC_THO	1
T_REC_SLD	107
T_REC_ALL	938
T_NUM_TAP	764
T_NUM_BRK	32
T_NUM_HLD	35
T_NUM_SLD	107
T_NUM_ALL	938
T_JUDGE_TAP	796
T_JUDGE_HLD	76
T_JUDGE_SLD	107
T_JUDGE_ALL	979
TTM_EACHPAIRS	150
TTM_SCR_TAP	382000
TTM_SCR_BRK	83200
TTM_SCR_HLD	35000
TTM_SCR_SLD	160500
TTM_SCR_ALL	660700
TTM_SCR_S	637800
TTM_SCR_SS	657500
TTM_RAT_ACV	10048

