VERSION	0.00.00	1.03.00
FES_MODE	0
BPM_DEF	222.000	222.000	222.000	222.000
MET_DEF	4	4
RESOLUTION	384
CLK_DEF	384
COMPATIBLE_CODE	MA2

BPM	0	0	222.000
MET	0	0	4	4

XST	2	0	3
SLL	2	0	3	96	480	4
XST	2	0	5
SLR	2	0	5	96	480	4
XST	4	0	0
SI_	4	0	0	96	288	3
SI_	4	0	0	96	288	5
TAP	5	192	2
TAP	5	192	4
TAP	5	288	1
TAP	5	288	5
XST	6	0	0
SI_	6	0	0	96	288	4
XST	6	0	6
SI_	6	0	6	96	288	2
TAP	7	192	2
TAP	7	192	4
TAP	7	288	3
TAP	7	288	5
XST	8	0	4
SI_	8	0	4	96	144	0
XTP	8	0	6
XTP	9	0	1
XST	9	0	3
SI_	9	0	3	96	144	7
HLD	10	0	4	96
HLD	10	0	5	96
TAP	10	144	4
TAP	10	144	5
HLD	10	288	3	96
HLD	10	288	6	96
TAP	11	48	3
TAP	11	48	6
TAP	11	192	4
TAP	11	192	5
TAP	11	288	3
TAP	11	288	6
HLD	12	0	2	96
HLD	12	0	3	96
TAP	12	144	2
TAP	12	144	3
HLD	12	288	1	96
HLD	12	288	4	96
TAP	13	48	1
TAP	13	48	4
TAP	13	192	2
TAP	13	192	3
TAP	13	288	1
TAP	13	288	4
HLD	14	0	0	96
HLD	14	0	7	96
TAP	14	144	0
TAP	14	144	7
HLD	14	288	1	96
HLD	14	288	6	96
TAP	15	48	1
TAP	15	48	6
TAP	15	192	0
TAP	15	192	7
TAP	15	288	1
TAP	15	288	6
TAP	16	0	2
TAP	16	96	2
TAP	16	96	3
TAP	16	192	5
TAP	16	288	4
TAP	16	288	5
TAP	17	0	0
TAP	17	96	0
TAP	17	96	7
TTP	17	192	0	C	1	M1
TAP	18	0	4
TAP	18	0	5
TAP	18	96	4
TAP	18	96	5
TAP	18	192	5
TAP	18	192	6
TAP	18	288	5
TAP	18	288	6
TAP	19	0	4
TAP	19	0	5
TAP	19	96	4
TAP	19	96	5
TAP	19	192	3
TAP	19	192	6
TAP	20	0	2
TAP	20	0	3
TAP	20	96	2
TAP	20	96	3
TAP	20	192	1
TAP	20	192	2
TAP	20	288	1
TAP	20	288	2
TAP	21	0	2
TAP	21	0	3
TAP	21	96	2
TAP	21	96	3
TAP	21	192	0
TAP	21	192	7
BRK	21	288	1
BRK	21	288	6
TAP	22	0	4
TAP	22	48	4
TAP	22	96	4
TAP	22	192	2
TAP	22	240	2
TAP	22	288	2
TAP	23	0	6
TAP	23	48	6
TAP	23	96	6
TAP	23	192	0
TAP	23	240	0
TAP	23	288	0
TAP	24	0	1
TAP	24	0	6
TAP	24	48	1
TAP	24	48	6
TAP	24	96	1
TAP	24	96	6
TAP	24	192	0
TAP	24	216	7
TAP	24	240	0
TAP	24	264	7
TAP	24	288	0
TAP	24	312	7
TAP	24	336	0
TAP	24	360	7
STR	25	0	0
SI_	25	0	0	96	96	4
BRK	25	288	2
BRK	25	288	6
TAP	26	0	3
TAP	26	0	4
TAP	26	96	3
TAP	26	96	4
TAP	26	192	4
TAP	26	240	4
TAP	26	288	3
TAP	26	336	3
TAP	27	0	5
TAP	27	48	5
TAP	27	96	4
TAP	27	144	4
TAP	27	192	6
TAP	27	288	4
TAP	27	288	5
TAP	28	0	2
TAP	28	0	3
TAP	28	96	3
TAP	28	96	4
TAP	28	192	2
TAP	28	240	2
TAP	28	288	4
TAP	28	336	4
TAP	29	0	3
TAP	29	48	3
TAP	29	96	5
TAP	29	144	5
TAP	29	240	3
TAP	29	288	4
TAP	29	336	3
TAP	30	0	3
TAP	30	0	4
TAP	30	96	3
TAP	30	96	4
TAP	30	192	3
TAP	30	240	3
TAP	30	288	4
TAP	30	336	4
TAP	31	0	2
TAP	31	48	2
TAP	31	96	3
TAP	31	144	3
TAP	31	192	1
TAP	31	288	2
TAP	31	288	3
TAP	32	0	4
TAP	32	0	5
TAP	32	96	2
TAP	32	96	3
TAP	32	192	4
TAP	32	240	4
TAP	32	288	2
STR	32	336	2
SXL	32	336	2	96	240	0
BRK	33	288	7
TAP	34	0	0
TAP	34	0	7
TAP	34	96	0
TAP	34	96	7
TAP	34	192	7
TAP	34	240	7
TAP	34	288	0
TAP	34	336	0
TAP	35	0	6
TAP	35	48	6
TAP	35	96	7
TAP	35	144	7
TAP	35	192	5
TAP	35	288	6
TAP	35	288	7
TAP	36	0	0
TAP	36	0	1
TAP	36	96	0
TAP	36	96	7
TAP	36	192	6
TAP	36	240	6
TAP	36	288	0
TAP	36	336	0
TAP	37	0	7
TAP	37	48	7
TAP	37	96	1
TAP	37	144	1
TAP	37	240	0
TAP	37	240	7
TAP	38	0	6
TAP	38	48	6
TAP	38	96	7
TAP	38	144	7
TAP	38	192	5
TAP	38	288	1
TAP	38	288	4
TAP	39	0	1
TAP	39	48	1
TAP	39	96	0
TAP	39	144	0
TAP	39	192	2
TAP	39	288	3
TAP	39	288	6
TAP	40	0	1
TAP	40	48	1
TAP	40	96	6
TAP	40	144	6
TAP	40	192	0
TAP	40	216	7
TAP	40	240	0
TAP	40	264	7
TAP	40	288	0
TAP	40	312	7
STR	40	336	0
SSL	40	336	0	96	240	4
TAP	40	360	7
HLD	42	0	5	96
TAP	42	96	4
HLD	42	192	5	96
TAP	42	288	2
HLD	43	0	5	96
TAP	43	96	4
HLD	43	192	5	96
TAP	43	288	3
HLD	44	0	5	96
TAP	44	96	4
HLD	44	192	5	96
TAP	44	288	1
HLD	45	0	5	96
TAP	45	96	4
TAP	45	192	4
TAP	45	192	5
TAP	45	288	0
TAP	45	288	7
HLD	46	0	2	96
TAP	46	96	3
HLD	46	192	2	96
TAP	46	288	5
HLD	47	0	2	96
TAP	47	96	3
HLD	47	192	2	96
TAP	47	288	4
HLD	48	0	2	96
TAP	48	96	3
HLD	48	192	2	96
TAP	48	288	6
HLD	49	0	2	96
TAP	49	96	3
BRK	49	192	0
BRK	49	288	0
BRK	49	288	7
HLD	50	0	5	96
TTP	50	96	3	B	0	M1
HLD	50	192	5	96
TTP	50	288	1	B	0	M1
HLD	51	0	5	96
TTP	51	96	2	B	0	M1
HLD	51	192	5	96
TTP	51	288	0	E	0	M1
HLD	52	0	5	96
TTP	52	96	3	B	0	M1
HLD	52	192	5	96
TTP	52	288	1	B	0	M1
HLD	53	0	5	96
TTP	53	96	0	B	0	M1
XTP	53	192	4
XTP	53	192	5
HLD	54	0	2	96
TTP	54	96	4	B	0	M1
HLD	54	192	2	96
TTP	54	288	6	B	0	M1
HLD	55	0	2	96
TTP	55	96	0	C	0	M1
HLD	55	192	2	96
TTP	55	288	0	E	0	M1
HLD	56	0	2	96
TTP	56	96	4	B	0	M1
HLD	56	192	2	96
TTP	56	288	6	B	0	M1
HLD	57	0	2	96
TTP	57	96	0	C	0	M1
BRK	57	192	0
BRK	57	288	0
TAP	58	0	2
TAP	58	0	3
TAP	58	96	5
TAP	58	144	4
TAP	58	192	5
TAP	58	288	3
TAP	58	288	6
TAP	59	0	2
TAP	59	48	2
TAP	59	144	1
TAP	59	144	3
TAP	59	240	0
TAP	59	288	0
TTP	60	0	5	E	0	M1
TTP	60	96	4	B	0	M1
TTP	60	192	3	B	0	M1
TTP	60	288	3	E	0	M1
TTP	61	0	7	E	0	M1
TTP	61	96	7	B	0	M1
TTP	61	192	1	B	0	M1
TTP	61	192	2	B	0	M1
TTP	61	192	3	E	0	M1
TAP	62	0	4
TAP	62	0	5
TAP	62	96	2
TAP	62	144	3
TAP	62	192	2
TAP	62	288	1
TAP	62	288	4
TAP	63	0	5
TAP	63	48	5
TAP	63	144	4
TAP	63	144	6
TAP	63	240	7
TAP	63	288	7
TTP	64	0	3	E	0	M1
TTP	64	96	3	B	0	M1
TTP	64	192	4	B	0	M1
TTP	64	288	5	E	0	M1
THO	65	0	0	192	C	0	M1
TAP	66	0	0
TAP	66	0	1
TAP	66	96	6
TAP	66	144	7
TAP	66	192	6
TAP	66	288	0
TAP	66	288	5
TAP	67	0	1
TAP	67	48	1
TAP	67	144	0
TAP	67	144	2
TAP	67	240	3
TAP	67	288	3
TTP	68	0	2	E	0	M1
TTP	68	96	2	B	0	M1
TTP	68	192	3	B	0	M1
TTP	68	288	4	E	0	M1
TTP	69	0	6	E	0	M1
TTP	69	96	6	B	0	M1
TTP	69	192	0	E	0	M1
TTP	69	192	0	B	0	M1
TTP	69	192	1	B	0	M1
TAP	70	0	6
TAP	70	0	7
TAP	70	96	1
TAP	70	144	0
TAP	70	192	1
TAP	70	288	2
TAP	70	288	7
TAP	71	0	6
TAP	71	48	6
TAP	71	144	5
TAP	71	144	7
TAP	71	240	4
TAP	71	288	4
TAP	72	0	3
TAP	72	48	3
TAP	72	96	4
TAP	72	144	4
TAP	72	192	2
TAP	72	240	2
TAP	72	288	5
TAP	72	336	5
TAP	73	0	1
TAP	73	48	1
TAP	73	96	6
TAP	73	144	6
TAP	73	192	0
TAP	73	216	7
TAP	73	240	0
TAP	73	264	7
TAP	73	288	0
TAP	73	312	7
TAP	73	336	0
TAP	73	360	7
BST	74	0	0
SCR	74	0	0	96	672	7
HLD	78	0	2	384
HLD	79	0	3	384
HLD	80	0	4	384
HLD	81	0	5	192
TAP	81	192	4
TAP	81	288	3
TAP	81	288	4
HLD	82	0	2	384
TAP	82	96	3
TAP	82	192	3
TAP	82	288	3
HLD	83	0	4	384
TAP	83	96	3
TAP	83	192	3
TAP	83	288	3
HLD	84	0	3	384
TAP	84	96	4
TAP	84	192	4
TAP	84	288	4
HLD	85	0	5	384
TAP	85	96	4
TAP	85	192	4
TAP	85	288	4
HLD	86	0	2	96
TAP	86	96	3
HLD	86	192	5	96
TAP	86	288	4
HLD	87	0	1	96
TAP	87	96	2
HLD	87	192	6	96
TAP	87	288	5
HLD	88	0	1	96
TAP	88	96	0
HLD	88	192	6	96
TAP	88	288	7
TAP	89	0	0
TAP	89	48	0
TAP	89	96	6
TAP	89	144	6
TAP	89	192	2
TAP	89	240	2
BRK	89	288	4
XST	90	0	3
SCL	90	0	3	96	480	4
XTP	90	0	4
XTP	92	0	3
XST	92	0	4
SCR	92	0	4	96	480	3
TAP	94	0	1
TAP	94	0	3
TAP	94	96	2
TAP	94	192	4
TAP	94	192	6
TAP	94	288	5
TAP	95	0	1
TAP	95	0	3
TAP	95	96	0
TAP	95	192	4
TAP	95	192	6
TAP	95	288	7
TAP	96	0	1
TAP	96	48	1
TAP	96	96	6
TAP	96	144	6
TAP	96	192	0
TAP	96	192	7
TAP	96	240	0
TAP	96	240	7
TAP	96	288	0
TAP	96	288	7
TTP	97	0	0	C	1	M1
TTP	97	0	3	B	0	M1
TTP	97	0	4	B	0	M1
BRK	97	288	0
BRK	97	288	7
XST	98	0	4
SI_	98	0	4	96	48	0
XTP	98	0	6
TAP	98	192	1
STR	98	192	3
SI_	98	192	3	96	48	7
TAP	99	0	0
TAP	99	0	1
TAP	99	96	2
TAP	99	96	3
TAP	99	192	4
TAP	99	192	5
TAP	99	288	6
TAP	99	288	7
TAP	100	0	2
TAP	100	48	2
TAP	100	96	1
TAP	100	96	3
TAP	100	192	5
TAP	100	240	5
TAP	100	288	4
TAP	100	288	6
TAP	101	0	0
TAP	101	0	7
TAP	101	96	6
TAP	101	144	6
TAP	101	192	5
TAP	101	192	7
XTP	101	288	2
XTP	101	288	6
XTP	102	0	1
XST	102	0	3
SI_	102	0	3	96	48	7
STR	102	192	4
SI_	102	192	4	96	48	0
TAP	102	192	6
TAP	103	0	6
TAP	103	0	7
TAP	103	96	4
TAP	103	96	5
TAP	103	192	2
TAP	103	192	3
TAP	103	288	0
TAP	103	288	1
TAP	104	0	5
TAP	104	48	5
TAP	104	96	4
TAP	104	96	6
TAP	104	192	2
TAP	104	240	2
TAP	104	288	1
TAP	104	288	3
TAP	105	0	6
TAP	105	0	7
TAP	105	96	0
TAP	105	96	1
HLD	105	192	0	96
HLD	105	192	7	96
TAP	106	0	0
XTP	106	48	7
TAP	106	96	0
XTP	106	144	7
TAP	106	192	0
XTP	106	240	6
TAP	106	288	0
XTP	106	336	6
TAP	107	0	0
XTP	107	48	4
TAP	107	96	0
XTP	107	144	4
TAP	107	192	0
XTP	107	240	5
TAP	107	288	0
XTP	107	336	5
TAP	108	0	0
XTP	108	48	6
TAP	108	96	0
XTP	108	144	5
TAP	108	192	0
XTP	108	240	4
TAP	108	288	0
XTP	108	336	3
TAP	109	0	0
XTP	109	48	5
TAP	109	96	0
BRK	109	192	0
BRK	109	192	4
BRK	109	288	2
BRK	109	288	6
TAP	110	0	7
XTP	110	48	0
TAP	110	96	7
XTP	110	144	0
TAP	110	192	7
XTP	110	240	2
TAP	110	288	7
XTP	110	336	2
TAP	111	0	7
XTP	111	48	4
TAP	111	96	7
XTP	111	144	2
TAP	111	192	7
XTP	111	240	3
TAP	111	288	7
BRK	112	0	0
BRK	112	0	7
XTP	112	96	2
XTP	112	96	5
TAP	112	192	0
TAP	112	192	1
XTP	112	240	0
XTP	112	240	1
TAP	112	336	6
TAP	112	336	7
XTP	113	0	6
XTP	113	0	7
XTP	113	96	0
XTP	113	96	7
XTP	113	144	0
XTP	113	144	7
XTP	113	192	0
XTP	113	192	7
BRK	113	288	1
BRK	113	288	6
TAP	114	0	4
TAP	114	0	5
TAP	114	96	5
TAP	114	96	6
TAP	114	192	4
TAP	114	192	5
TAP	114	288	6
TAP	114	288	7
TAP	115	0	4
TAP	115	0	5
TAP	115	96	5
TAP	115	96	6
TAP	115	192	4
TAP	115	192	5
BRK	115	288	2
BRK	115	288	6
TAP	116	0	2
TAP	116	0	3
TAP	116	96	1
TAP	116	96	2
TAP	116	192	2
TAP	116	192	3
TAP	116	288	0
TAP	116	288	1
TAP	117	0	2
TAP	117	0	3
TAP	117	96	1
TAP	117	96	2
BRK	117	192	7
BRK	117	240	7
BRK	117	288	7
TAP	118	0	3
TAP	118	48	3
TAP	118	96	4
TAP	118	144	4
TAP	118	192	2
TAP	118	240	2
TAP	118	288	5
TAP	118	336	5
TAP	119	0	1
TAP	119	48	1
TAP	119	96	6
TAP	119	144	6
TAP	119	192	0
TAP	119	240	0
TAP	119	288	7
TAP	119	336	7
TAP	120	0	1
TAP	120	24	6
TAP	120	48	1
TAP	120	72	6
TAP	120	96	1
TAP	120	120	6
TAP	120	144	1
TAP	120	168	6
TAP	120	192	0
TAP	120	216	7
TAP	120	240	0
TAP	120	264	7
TAP	120	288	0
TAP	120	312	7
TAP	120	336	0
TAP	120	360	7
STR	121	0	0
SSL	121	0	0	96	192	4
TTP	122	0	0	C	1	M1
TTP	122	0	2	E	0	M1
TTP	122	0	6	E	0	M1

T_REC_TAP	468
T_REC_BRK	26
T_REC_XTP	42
T_REC_HLD	56
T_REC_XHO	0
T_REC_STR	6
T_REC_BST	1
T_REC_XST	11
T_REC_TTP	43
T_REC_THO	1
T_REC_SLD	19
T_REC_ALL	673
T_NUM_TAP	570
T_NUM_BRK	27
T_NUM_HLD	57
T_NUM_SLD	19
T_NUM_ALL	673
T_JUDGE_TAP	597
T_JUDGE_HLD	160
T_JUDGE_SLD	19
T_JUDGE_ALL	776
TTM_EACHPAIRS	141
TTM_SCR_TAP	285000
TTM_SCR_BRK	70200
TTM_SCR_HLD	57000
TTM_SCR_SLD	28500
TTM_SCR_ALL	440700
TTM_SCR_S	424900
TTM_SCR_SS	438000
TTM_RAT_ACV	10061

