VERSION	0.00.00	1.03.00
FES_MODE	0
BPM_DEF	222.000	222.000	222.000	222.000
MET_DEF	4	4
RESOLUTION	384
CLK_DEF	384
COMPATIBLE_CODE	MA2

BPM	0	0	222.000
MET	0	0	4	4

HLD	2	0	2	384
TAP	3	0	3
TAP	3	192	4
HLD	4	0	5	384
TAP	5	0	4
TAP	5	192	3
HLD	6	0	2	384
TAP	7	0	3
TAP	7	192	3
TAP	7	192	4
HLD	8	0	3	384
HLD	8	0	4	384
TAP	9	192	2
TAP	9	192	5
HLD	10	0	4	192
HLD	10	0	5	192
TAP	11	0	5
TAP	11	96	5
TAP	11	192	4
HLD	12	0	2	192
HLD	12	0	3	192
TAP	13	0	2
TAP	13	96	2
TAP	13	192	3
HLD	14	0	3	192
HLD	14	0	4	192
TAP	15	0	3
TAP	15	96	3
TAP	15	192	4
HLD	16	0	3	192
HLD	16	0	4	192
TAP	17	0	4
TAP	17	96	3
XTP	17	192	4
TAP	18	0	1
TAP	18	96	1
TAP	18	192	1
TAP	19	0	0
TAP	19	96	0
TAP	19	192	0
TAP	20	0	7
TAP	20	96	7
TAP	20	192	7
TAP	21	0	6
TAP	21	96	6
TAP	21	192	6
TAP	22	0	5
TAP	22	96	5
TAP	22	192	4
TAP	22	192	5
TAP	23	0	2
TAP	23	96	2
TAP	23	192	2
TAP	23	192	3
STR	24	0	1
SI_	24	0	1	96	192	5
BRK	25	192	6
BRK	25	192	7
TAP	26	0	5
TAP	26	96	5
TAP	26	192	4
TAP	26	192	5
HLD	27	0	3	96
HLD	27	0	4	96
TAP	27	192	3
TAP	27	192	4
TAP	28	0	2
TAP	28	96	2
TAP	28	192	2
TAP	28	192	3
HLD	29	0	3	96
HLD	29	0	4	96
TAP	29	192	3
TAP	29	192	4
TAP	30	0	6
TAP	30	96	6
TAP	30	192	6
TAP	30	192	7
HLD	31	0	0	96
HLD	31	0	7	96
TAP	31	192	0
TAP	31	192	7
TAP	32	0	1
TAP	32	96	1
TAP	32	192	0
TAP	32	192	1
HLD	33	0	0	96
HLD	33	0	7	96
TAP	33	192	1
TAP	33	192	6
XTP	33	288	1
XTP	33	288	6
TAP	34	0	2
TAP	34	96	2
TAP	34	192	1
TAP	34	192	3
HLD	35	0	4	96
HLD	35	0	5	96
TAP	35	192	4
TAP	35	192	5
TAP	36	0	5
TAP	36	96	5
TAP	36	192	4
TAP	36	192	6
HLD	37	0	2	96
HLD	37	0	3	96
TAP	37	192	2
TAP	37	192	3
TAP	38	0	1
TAP	38	96	1
TAP	38	192	1
TAP	39	0	7
TAP	39	96	7
TAP	39	192	7
STR	40	0	0
SI_	40	0	0	96	192	4
XTP	41	192	3
XTP	41	192	5
TTP	42	0	5	B	0	L1
TTP	42	192	0	C	0	L1
TTP	43	0	1	B	0	L1
TTP	44	0	2	B	0	L1
TTP	44	192	0	C	0	L1
TTP	45	0	6	B	0	L1
TTP	46	0	4	B	0	L1
TTP	46	192	0	C	0	L1
TTP	47	0	0	B	0	L1
THO	48	0	0	384	C	1	L1
STR	50	0	1
SI_	50	0	1	96	192	5
TAP	51	192	6
STR	52	0	6
SI_	52	0	6	96	192	2
TAP	53	192	1
STR	54	0	0
SI_	54	0	0	96	192	4
TAP	55	192	6
STR	56	0	7
SI_	56	0	7	96	192	3
XTP	57	192	2
XTP	57	192	4
TAP	58	0	2
TAP	58	96	2
TAP	58	192	3
TAP	58	288	3
TAP	59	0	3
TAP	59	0	4
TAP	59	192	2
TAP	59	192	5
HLD	60	0	5	192
TAP	60	192	4
HLD	61	0	2	192
TAP	61	192	3
TAP	62	0	5
TAP	62	96	5
TAP	62	192	4
TAP	62	288	4
TAP	63	0	3
TAP	63	0	4
TAP	63	192	2
TAP	63	192	5
HLD	64	0	2	192
TAP	64	192	3
HLD	65	0	1	192
HLD	65	0	4	192
TAP	66	0	1
TAP	66	96	1
TAP	66	192	2
TAP	66	288	2
TAP	67	0	3
TAP	67	0	4
TAP	67	192	2
TAP	67	192	5
HLD	68	0	6	192
TAP	68	192	4
HLD	69	0	1	192
TAP	69	192	3
TAP	70	0	6
TAP	70	96	6
TAP	70	192	5
TAP	70	288	5
TAP	71	0	3
TAP	71	0	4
TAP	71	192	2
TAP	71	192	5
TAP	72	0	1
TAP	72	96	1
TAP	72	192	0
TAP	72	288	0
TAP	73	0	0
TAP	73	0	7
TAP	73	96	0
TAP	73	96	7
XTP	73	192	1
XTP	73	192	6
HLD	74	0	2	384
HLD	75	0	3	384
HLD	76	0	4	384
TAP	77	0	5
TAP	77	192	4
TAP	77	192	5
HLD	78	0	5	384
HLD	79	0	4	384
HLD	80	0	3	384
TAP	81	0	2
TAP	81	96	2
TAP	81	192	2
HLD	82	0	4	192
HLD	82	0	5	192
TAP	83	0	5
TAP	83	96	5
TAP	83	192	4
HLD	84	0	2	192
HLD	84	0	3	192
TAP	85	0	2
TAP	85	96	2
TAP	85	192	3
TAP	86	0	6
TAP	86	96	6
TAP	86	192	6
TAP	86	192	7
TAP	87	0	1
TAP	87	96	1
TAP	87	192	0
TAP	87	192	1
TAP	88	0	7
TAP	88	96	7
TAP	88	192	0
TAP	88	288	0
HLD	89	0	7	192
BRK	89	192	0
STR	90	0	6
SCL	90	0	6	96	288	3
STR	92	0	2
SCL	92	0	2	96	288	7
TAP	94	0	6
TAP	94	96	6
TAP	94	192	5
TAP	94	288	5
TAP	95	0	4
TAP	95	96	4
TAP	95	192	3
TAP	95	192	4
TAP	96	0	1
TAP	96	96	1
TAP	96	192	2
TAP	96	288	2
TAP	97	0	3
TAP	97	0	4
TAP	97	96	3
TAP	97	96	4
XTP	97	192	2
XTP	97	192	5
TAP	98	0	2
TAP	98	96	3
TAP	98	192	4
TAP	98	288	5
TAP	99	0	4
TAP	99	0	6
TAP	99	96	4
TAP	99	96	6
TAP	99	192	4
TAP	99	192	6
TAP	100	0	5
TAP	100	96	4
TAP	100	192	3
TAP	100	288	2
TAP	101	0	1
TAP	101	0	3
TAP	101	96	1
TAP	101	96	3
TAP	101	192	1
TAP	101	192	3
TAP	102	0	1
TAP	102	96	1
TAP	102	192	0
TAP	102	288	0
TAP	103	0	1
TAP	103	0	7
TAP	103	96	1
TAP	103	96	7
TAP	103	192	1
TAP	103	192	7
TAP	104	0	6
TAP	104	96	6
TAP	104	192	7
TAP	104	288	7
TAP	105	0	0
TAP	105	0	6
TAP	105	96	0
TAP	105	96	6
XTP	105	192	0
XTP	105	192	6
TAP	106	0	2
TAP	106	96	3
TAP	106	96	4
TAP	106	192	5
TAP	106	288	3
TAP	106	288	4
TAP	107	0	2
TAP	107	96	2
TAP	107	192	1
TAP	107	192	3
TAP	108	0	5
TAP	108	96	3
TAP	108	96	4
TAP	108	192	2
TAP	108	288	3
TAP	108	288	4
TAP	109	0	5
TAP	109	96	5
TAP	109	192	4
TAP	109	192	6
TAP	110	0	7
TAP	110	96	7
TAP	110	192	6
TAP	110	288	6
TAP	111	0	5
TAP	111	96	5
TAP	111	192	4
TAP	111	192	5
TAP	112	0	3
TAP	112	96	3
TAP	112	192	2
TAP	112	288	2
TAP	113	0	1
TAP	113	96	1
BRK	113	192	0
BRK	113	192	1
TAP	114	0	2
TAP	114	96	2
TAP	114	192	3
TAP	114	288	3
TAP	115	0	4
TAP	115	96	5
TAP	115	192	3
TAP	115	192	6
TAP	116	0	5
TAP	116	96	5
TAP	116	192	4
TAP	116	288	4
TAP	117	0	3
TAP	117	96	2
TAP	117	192	1
TAP	117	192	4
TAP	118	0	0
TAP	118	96	0
TAP	118	192	1
TAP	118	192	7
TAP	119	0	7
TAP	119	96	7
TAP	119	192	0
TAP	119	192	6
TAP	120	0	3
TAP	120	0	4
TAP	120	96	3
TAP	120	96	4
TAP	120	192	2
TAP	120	192	5
TTP	121	0	4	E	0	L1
TTP	121	192	2	B	0	L1
TTP	121	192	5	B	0	L1
TTP	122	0	0	C	1	L1

T_REC_TAP	272
T_REC_BRK	5
T_REC_XTP	13
T_REC_HLD	43
T_REC_XHO	0
T_REC_STR	8
T_REC_BST	0
T_REC_XST	0
T_REC_TTP	13
T_REC_THO	1
T_REC_SLD	8
T_REC_ALL	363
T_NUM_TAP	306
T_NUM_BRK	5
T_NUM_HLD	44
T_NUM_SLD	8
T_NUM_ALL	363
T_JUDGE_TAP	311
T_JUDGE_HLD	200
T_JUDGE_SLD	8
T_JUDGE_ALL	519
TTM_EACHPAIRS	79
TTM_SCR_TAP	153000
TTM_SCR_BRK	13000
TTM_SCR_HLD	44000
TTM_SCR_SLD	12000
TTM_SCR_ALL	222000
TTM_SCR_S	214900
TTM_SCR_SS	221500
TTM_RAT_ACV	10022

