VERSION	0.00.00	1.03.00
FES_MODE	0
BPM_DEF	222.000	222.000	222.000	222.000
MET_DEF	4	4
RESOLUTION	384
CLK_DEF	384
COMPATIBLE_CODE	MA2

BPM	0	0	222.000
MET	0	0	4	4

TAP	10	0	3
TAP	11	0	3
TAP	12	0	2
TAP	13	0	2
TAP	14	0	1
TAP	15	0	1
TAP	16	0	0
TAP	17	0	0
TAP	18	0	7
TAP	18	192	7
TAP	19	0	7
TAP	20	0	6
TAP	20	192	6
TAP	21	0	6
TAP	22	0	5
TAP	22	192	5
TAP	23	0	5
TAP	24	0	4
TAP	24	192	4
BRK	25	0	4
TTP	26	0	3	B	0	L1
TTP	27	0	2	B	0	L1
TTP	28	0	1	B	0	L1
TTP	29	0	0	B	0	L1
TTP	30	0	7	B	0	L1
TTP	31	0	6	B	0	L1
TTP	32	0	5	B	0	L1
TTP	33	0	3	B	0	L1
TTP	33	0	4	B	0	L1
TTP	34	0	2	B	0	L1
TTP	35	0	3	B	0	L1
TTP	36	0	4	B	0	L1
TTP	37	0	5	B	0	L1
THO	38	0	0	768	C	1	L1
TAP	42	0	7
TAP	42	192	7
TAP	43	0	7
TAP	44	0	6
TAP	44	192	6
TAP	45	0	6
TAP	46	0	5
TAP	46	192	5
TAP	47	0	5
TAP	48	0	4
TAP	48	192	4
XTP	49	0	3
XTP	49	0	4
TAP	50	0	2
TAP	50	192	2
TAP	51	0	2
TAP	52	0	1
TAP	52	192	1
TAP	53	0	1
TAP	54	0	0
TAP	54	192	0
TAP	55	0	0
TAP	56	0	7
TAP	56	192	7
XTP	57	0	0
XTP	57	0	7
TAP	58	0	0
TAP	58	192	0
TAP	59	0	0
TAP	59	192	0
XHO	60	0	1	384
TAP	62	0	2
TAP	62	192	2
TAP	63	0	2
TAP	63	192	2
XHO	64	0	3	384
TAP	66	0	4
TAP	66	96	4
TAP	66	192	4
TAP	67	0	4
TAP	67	96	4
TAP	67	192	4
XHO	68	0	5	384
TAP	70	0	6
TAP	70	96	6
TAP	70	192	6
TAP	71	0	6
TAP	71	96	6
TAP	71	192	6
XHO	72	0	7	384
STR	74	0	7
SI_	74	0	7	96	288	4
STR	76	0	0
SI_	76	0	0	96	288	3
STR	78	0	7
SI_	78	0	7	96	288	4
STR	80	0	0
SI_	80	0	0	96	288	3
TAP	82	0	7
TAP	82	192	7
TAP	83	0	6
TAP	83	192	6
TAP	84	0	5
TAP	84	192	5
TAP	85	0	4
TAP	85	96	4
TAP	85	192	4
TAP	86	0	3
TAP	86	192	3
TAP	87	0	2
TAP	87	192	2
TAP	88	0	1
TAP	88	192	1
TAP	89	0	0
TAP	89	96	0
TAP	89	192	0
HLD	90	0	7	384
HLD	92	0	0	384
THO	94	0	0	768	C	1	L1
TAP	98	0	0
TAP	98	96	0
TAP	98	192	0
TAP	99	0	1
TAP	99	96	1
TAP	99	192	1
TAP	100	0	2
TAP	100	96	2
TAP	100	192	2
TAP	101	0	3
TAP	101	96	4
TAP	101	192	3
TAP	102	0	4
TAP	102	96	4
TAP	102	192	4
TAP	103	0	5
TAP	103	96	5
TAP	103	192	5
TAP	104	0	6
TAP	104	96	6
TAP	104	192	6
TAP	105	0	7
TAP	105	96	0
TAP	105	192	7
TAP	106	0	7
TAP	106	96	7
TAP	106	192	7
TAP	107	0	6
TAP	107	96	6
TAP	107	192	6
TAP	108	0	5
TAP	108	96	5
TAP	108	192	5
TAP	109	0	4
TAP	109	96	3
TAP	109	192	4
TAP	110	0	3
TAP	110	96	3
TAP	110	192	3
TAP	111	0	2
TAP	111	96	2
TAP	111	192	2
TAP	112	0	1
TAP	112	96	1
TAP	112	192	1
TAP	113	0	0
TAP	113	96	7
TAP	113	192	0
TAP	114	0	0
TAP	114	96	0
TAP	114	192	0
TAP	114	288	0
XTP	115	0	0
TAP	116	0	7
TAP	116	96	7
TAP	116	192	7
TAP	116	288	7
XTP	117	0	7
TAP	118	0	0
TAP	118	96	0
TAP	118	192	1
TAP	118	288	1
TAP	119	0	2
TAP	119	96	2
TAP	119	192	3
TAP	119	288	3
TAP	120	0	4
TAP	120	96	4
TAP	120	192	5
TAP	120	288	5
TAP	121	0	6
BRK	122	0	0
BRK	122	0	7

T_REC_TAP	148
T_REC_BRK	3
T_REC_XTP	6
T_REC_HLD	2
T_REC_XHO	4
T_REC_STR	4
T_REC_BST	0
T_REC_XST	0
T_REC_TTP	13
T_REC_THO	2
T_REC_SLD	4
T_REC_ALL	186
T_NUM_TAP	171
T_NUM_BRK	3
T_NUM_HLD	8
T_NUM_SLD	4
T_NUM_ALL	186
T_JUDGE_TAP	174
T_JUDGE_HLD	80
T_JUDGE_SLD	4
T_JUDGE_ALL	258
TTM_EACHPAIRS	3
TTM_SCR_TAP	85500
TTM_SCR_BRK	7800
TTM_SCR_HLD	8000
TTM_SCR_SLD	6000
TTM_SCR_ALL	107300
TTM_SCR_S	103800
TTM_SCR_SS	107000
TTM_RAT_ACV	10028

