VERSION	0.00.00	1.03.00
FES_MODE	0
BPM_DEF	178.000	178.000	178.000	178.000
MET_DEF	4	4
RESOLUTION	384
CLK_DEF	384
COMPATIBLE_CODE	MA2

BPM	0	0	178.000
MET	0	0	4	4

TAP	1	0	3
TAP	1	96	4
TAP	1	192	3
TAP	1	288	4
TAP	2	0	3
TAP	2	96	4
TAP	2	192	3
XTP	2	288	2
XST	2	288	5
SCR	2	288	5	96	48	0
STR	3	0	2
SCL	3	0	2	96	48	7
STR	3	96	4
SUR	3	96	4	96	48	1
STR	3	192	3
SUL	3	192	3	96	48	6
STR	3	288	5
SCR	3	288	5	96	48	0
STR	4	0	2
SCL	4	0	2	96	48	7
STR	4	96	4
SUR	4	96	4	96	48	1
STR	4	192	3
SUL	4	192	3	96	48	6
STR	4	288	5
SCR	4	288	5	96	48	0
STR	5	0	2
SCL	5	0	2	96	48	7
STR	5	96	4
SUR	5	96	4	96	48	1
TAP	5	192	3
TAP	5	288	2
STR	5	288	4
SXL	5	288	4	96	144	3
HLD	6	0	0	96
TAP	6	144	0
XTP	6	240	2
XTP	6	240	5
XST	6	288	2
SCL	6	288	2	96	48	7
XTP	6	288	5
STR	7	0	5
SCR	7	0	5	96	48	0
STR	7	96	3
SUL	7	96	3	96	48	6
STR	7	192	4
SUR	7	192	4	96	48	1
STR	7	288	2
SCL	7	288	2	96	48	7
STR	8	0	5
SCR	8	0	5	96	48	0
STR	8	96	3
SUL	8	96	3	96	48	6
STR	8	192	4
SUR	8	192	4	96	48	1
STR	8	288	2
SCL	8	288	2	96	48	7
STR	9	0	5
SCR	9	0	5	96	48	0
STR	9	96	3
SUL	9	96	3	96	48	6
TAP	9	192	4
TAP	9	288	3
TAP	9	288	4
STR	10	0	4
SCR	10	0	4	96	48	7
TAP	10	96	2
STR	10	192	3
SCL	10	192	3	96	48	0
TAP	10	288	5
TAP	11	0	4
TAP	11	96	2
TAP	11	96	3
TAP	11	192	4
TAP	11	192	5
TAP	11	288	2
STR	11	336	2
SCR	11	336	2	96	96	5
TAP	12	48	5
TAP	12	144	0
TAP	12	192	0
TAP	12	288	3
TAP	12	288	4
TAP	13	0	2
STR	13	96	4
SI_	13	96	4	96	48	7
STR	13	192	3
SI_	13	192	3	96	48	1
TAP	13	288	7
TAP	14	0	5
STR	14	96	3
SI_	14	96	3	96	48	0
STR	14	192	4
SI_	14	192	4	96	48	6
TAP	14	288	0
TAP	15	0	2
STR	15	96	4
SI_	15	96	4	96	48	0
STR	15	192	3
SI_	15	192	3	96	48	7
TAP	15	288	0
TAP	16	0	0
TAP	16	0	7
TAP	16	96	2
TAP	16	96	6
TAP	16	144	2
TAP	16	144	6
XTP	16	240	0
XTP	16	288	0
TAP	17	0	5
STR	17	96	3
SCL	17	96	3	96	48	0
STR	17	192	4
SCR	17	192	4	96	48	6
TAP	17	288	0
TAP	18	0	2
STR	18	96	4
SCR	18	96	4	96	48	7
STR	18	192	3
SCL	18	192	3	96	48	1
TAP	18	288	7
HLD	18	336	7	96
TAP	19	48	0
TAP	19	96	0
TAP	19	192	1
TAP	19	192	6
TAP	19	240	7
TAP	19	288	7
STR	19	336	0
SCR	19	336	0	96	48	3
TAP	20	48	4
TAP	20	96	4
TAP	20	192	1
TAP	20	192	6
TAP	20	240	0
TAP	20	288	0
TAP	21	0	7
STR	21	96	7
SCL	21	96	7	96	96	4
TAP	21	192	0
TTP	21	288	0	E	0	M1
TTP	22	0	0	C	0	M1
TTP	22	96	3	B	0	M1
TTP	22	96	4	B	0	M1
TAP	22	192	0
STR	22	288	0
SCR	22	288	0	96	96	3
TAP	23	0	7
TTP	23	96	0	E	0	M1
TTP	23	192	0	C	0	M1
TTP	23	288	3	B	0	M1
TTP	23	288	4	B	0	M1
TAP	24	0	7
STR	24	96	7
SCL	24	96	7	96	96	4
TAP	24	192	0
TTP	24	288	0	E	0	M1
TTP	25	0	0	C	0	M1
TTP	25	96	4	E	0	M1
XTP	25	192	3
XTP	25	192	4
XTP	25	336	2
XTP	25	336	5
XTP	26	96	1
XTP	26	96	6
XTP	26	240	0
XTP	26	240	7
BRK	27	0	1
BRK	27	0	6
TAP	27	96	3
TAP	27	96	4
STR	27	192	1
SI_	27	192	1	96	48	6
STR	27	192	5
SI_	27	192	5	96	48	2
STR	28	0	0
SCR	28	0	0	96	48	3
STR	28	0	7
SCL	28	0	7	96	48	4
TAP	28	192	0
TAP	28	192	7
TAP	28	240	0
TAP	28	240	7
TAP	28	336	3
TAP	28	336	4
STR	29	0	3
SCL	29	0	3	96	48	0
STR	29	0	4
SCR	29	0	4	96	48	7
TAP	29	192	1
TAP	29	192	6
TAP	29	240	2
TAP	29	240	5
TAP	29	288	3
TAP	29	288	4
TAP	30	0	2
HLD	30	0	5	768
TTP	30	192	0	C	0	M1
TTP	30	288	7	E	0	M1
TTP	31	0	4	E	0	M1
TTP	31	96	1	E	0	M1
TTP	31	192	3	E	0	M1
TTP	31	288	0	E	0	M1
HLD	32	0	2	768
STR	32	96	4
SCR	32	96	4	96	96	7
XTP	32	336	7
XTP	33	0	7
XTP	33	96	4
XTP	33	144	4
XTP	33	240	7
XTP	33	288	7
HLD	34	0	5	576
TTP	34	96	1	E	0	M1
TTP	34	192	4	E	0	M1
TTP	34	288	7	E	0	M1
TTP	35	0	0	E	0	M1
TTP	35	96	4	E	0	M1
TTP	35	192	0	C	1	M1
XHO	35	336	0	96
XHO	35	336	6	96
TAP	36	96	1
TAP	36	96	7
HLD	36	192	0	96
HLD	36	192	6	96
XHO	36	336	1	96
XHO	36	336	7	96
TAP	37	96	0
TAP	37	96	5
TAP	37	192	2
TAP	37	192	7
TAP	37	288	0
TAP	37	288	5
TAP	38	0	2
STR	38	0	7
SCL	38	0	7	96	192	0
TAP	39	0	0
TAP	39	0	7
STR	39	96	0
SXL	39	96	0	96	96	0
STR	39	96	7
SI_	39	96	7	96	48	4
XTP	40	0	6
XTP	40	0	7
XTP	40	96	4
XTP	40	96	5
XTP	40	192	2
XTP	40	192	3
XTP	40	288	0
XTP	40	288	1
STR	41	0	6
SI_	41	0	6	96	48	4
STR	41	0	7
SI_	41	0	7	96	48	3
XTP	41	96	6
XTP	41	96	7
STR	41	192	0
SI_	41	192	0	96	48	4
STR	41	192	1
SI_	41	192	1	96	48	3
XTP	41	288	0
XTP	41	288	1
TAP	42	0	1
STR	42	0	7
SCL	42	0	7	96	96	3
STR	42	96	3
SCL	42	96	3	96	96	7
STR	42	192	7
SCL	42	192	7	96	96	3
TAP	42	288	3
STR	43	0	2
SI_	43	0	2	96	48	7
TAP	43	96	4
STR	43	192	5
SI_	43	192	5	96	48	0
STR	43	288	3
SXR	43	288	3	96	192	4
TAP	44	0	4
TAP	44	144	6
TAP	44	192	6
TAP	44	288	7
TAP	45	0	0
STR	45	48	0
SI_	45	48	0	96	48	4
STR	45	96	4
SI_	45	96	4	96	48	0
BRK	45	240	7
BRK	45	288	7
STR	46	0	0
SCR	46	0	0	96	48	3
TAP	46	48	0
TAP	46	96	6
TAP	46	144	6
TAP	46	192	6
XTP	46	240	0
XTP	46	240	7
XTP	46	288	0
XTP	46	288	7
STR	47	0	2
SI_	47	0	2	96	48	0
STR	47	0	3
SI_	47	0	3	96	48	7
STR	47	192	4
SI_	47	192	4	96	48	0
STR	47	192	5
SI_	47	192	5	96	48	7
XTP	48	0	0
XTP	48	0	7
XTP	48	96	4
XTP	48	96	6
XTP	48	192	3
XTP	48	192	4
XTP	48	288	1
XTP	48	288	3
STR	49	0	1
SI_	49	0	1	96	48	4
STR	49	0	5
SI_	49	0	5	96	48	0
XTP	49	96	1
XTP	49	96	5
STR	49	192	3
SXL	49	192	3	96	96	5
SXR	49	192	3	96	96	1
TAP	49	192	7
HLD	50	96	1	48
HLD	50	96	7	48
HLD	50	192	1	48
HLD	50	192	7	48
HLD	50	288	2	48
HLD	50	288	6	48
STR	51	0	3
SXL	51	0	3	96	96	3
SXR	51	0	3	96	96	3
TAP	51	0	5
STR	51	288	3
SI_	51	288	3	96	48	0
STR	52	0	4
SI_	52	0	4	96	48	7
BRK	52	96	0
BRK	52	192	7
TAP	52	336	5
HLD	53	0	5	96
HLD	53	96	7	96
HLD	53	192	0	96
TAP	53	288	2
XTP	54	0	0
XTP	54	0	1
XTP	54	48	2
XTP	54	48	7
XTP	54	96	3
XTP	54	96	6
XTP	54	144	4
XTP	54	144	5
TAP	54	240	7
TAP	54	288	7
STR	54	336	0
SCR	54	336	0	96	96	6
TAP	55	48	7
TAP	55	96	7
TAP	55	192	0
TAP	55	192	7
TAP	55	288	4
TAP	55	288	6
TAP	56	0	1
TAP	56	0	3
TAP	56	96	4
TAP	56	96	5
TAP	56	192	2
TAP	56	192	6
TAP	56	288	1
STR	56	288	7
SCL	56	288	7	96	192	1
HLD	57	0	0	384
TTP	58	0	0	C	1	M1
TAP	58	192	3
TAP	58	192	4
TAP	59	0	2
TAP	59	24	3
TAP	59	48	2
TAP	59	72	3
HLD	59	96	1	96
TAP	59	192	3
TAP	59	216	2
TAP	59	240	3
TAP	59	264	2
HLD	59	288	3	96
TAP	60	0	2
TAP	60	24	3
TAP	60	48	2
TAP	60	72	3
TAP	60	96	1
TAP	60	120	4
TAP	60	144	1
TAP	60	168	4
TAP	60	192	2
TAP	60	216	3
TAP	60	240	2
TAP	60	264	3
TAP	60	288	2
TAP	61	0	5
TAP	61	24	4
TAP	61	48	5
TAP	61	72	4
HLD	61	96	6	96
TAP	61	192	4
TAP	61	216	5
TAP	61	240	4
TAP	61	264	5
HLD	61	288	4	96
TAP	62	0	5
TAP	62	24	4
TAP	62	48	5
TAP	62	72	4
TAP	62	96	6
TAP	62	120	3
TAP	62	144	6
TAP	62	168	3
TAP	62	192	5
TAP	62	288	3
TAP	62	288	4
TAP	63	0	2
TAP	63	24	3
TAP	63	48	2
TAP	63	72	3
HLD	63	96	2	96
TAP	63	192	5
TAP	63	216	4
TAP	63	240	5
TAP	63	264	4
HLD	63	288	5	96
TAP	64	0	3
TAP	64	24	4
TAP	64	48	3
TAP	64	72	4
TAP	64	96	2
TAP	64	120	5
TAP	64	144	2
TAP	64	168	5
TAP	64	192	3
TAP	64	216	4
TAP	64	240	3
TAP	64	264	4
TAP	64	288	3
STR	65	0	0
SCR	65	0	0	96	96	3
TAP	65	96	3
STR	65	192	4
SCR	65	192	4	96	96	7
TAP	65	288	7
STR	66	0	0
SCR	66	0	0	96	48	3
STR	66	96	4
SCR	66	96	4	96	48	7
STR	66	192	0
SCR	66	192	0	96	48	3
TAP	66	288	4
XTP	67	0	0
XTP	67	24	1
XTP	67	48	2
XTP	67	72	3
XTP	67	96	4
XTP	67	120	5
XTP	67	144	6
XTP	67	168	7
XTP	67	192	0
XTP	67	204	1
XTP	67	216	2
XTP	67	228	3
XTP	67	240	4
XTP	67	252	5
XTP	67	264	6
XTP	67	276	7
XTP	67	288	0
XTP	67	300	1
XTP	67	312	2
XTP	67	324	3
STR	67	336	4
SUL	67	336	4	96	144	3
XTP	67	348	5
XTP	67	360	6
XTP	67	372	7
XTP	68	0	0
STR	68	288	0
SCR	68	288	0	96	1344	7
THO	69	0	0	1344	C	0	M1
TTP	73	0	0	E	0	M1
TTP	73	96	0	C	0	M1
TTP	73	192	4	E	0	M1
TTP	73	288	2	E	0	M1
TTP	73	288	6	E	0	M1
TTP	74	0	0	E	0	M1
TTP	74	96	0	C	0	M1
TTP	74	192	4	E	0	M1
TTP	74	288	2	E	0	M1
TTP	74	288	2	B	0	M1
TTP	74	288	5	B	0	M1
TTP	74	288	6	E	0	M1
TTP	75	0	0	E	0	M1
TTP	75	96	0	C	0	M1
TTP	75	192	4	E	0	M1
TTP	75	288	1	B	0	M1
TTP	75	288	2	E	0	M1
TTP	75	288	6	B	0	M1
TTP	75	288	6	E	0	M1
TTP	76	0	0	E	0	M1
TTP	76	96	0	C	0	M1
TTP	76	192	4	E	0	M1
TTP	76	288	1	B	0	M1
TTP	76	288	2	B	0	M1
TTP	76	288	2	E	0	M1
TTP	76	288	5	B	0	M1
TTP	76	288	6	E	0	M1
TTP	76	288	6	B	0	M1
TAP	77	0	3
TAP	77	48	3
TAP	77	96	4
TAP	77	144	4
TAP	77	192	3
TAP	77	240	3
TAP	77	288	4
TAP	77	336	4
TAP	78	0	3
TAP	78	24	4
TAP	78	48	3
TAP	78	72	4
TAP	78	96	2
TAP	78	120	5
TAP	78	144	2
TAP	78	168	5
TAP	78	192	1
TAP	78	216	6
TAP	78	240	1
TAP	78	264	6
XTP	78	288	0
THO	79	0	0	192	C	1	M1
XTP	80	0	0
XTP	80	0	1
XTP	80	96	2
XTP	80	96	3
XTP	80	192	4
XTP	80	192	5
XTP	80	288	6
XTP	80	288	7
STR	81	0	1
SI_	81	0	1	96	48	3
STR	81	0	4
SI_	81	0	4	96	48	0
XTP	81	96	1
XTP	81	96	4
STR	81	192	3
SI_	81	192	3	96	48	7
STR	81	192	6
SI_	81	192	6	96	48	4
XTP	81	288	3
XTP	81	288	6
STR	82	0	0
SCR	82	0	0	96	96	4
TAP	82	0	6
STR	82	96	4
SCR	82	96	4	96	96	0
STR	82	192	0
SCR	82	192	0	96	96	4
TAP	82	288	4
STR	83	0	5
SI_	83	0	5	96	48	0
TAP	83	96	3
STR	83	192	2
SI_	83	192	2	96	48	7
STR	83	288	4
SXL	83	288	4	96	192	3
TAP	84	0	3
TAP	84	144	0
TAP	84	192	0
TAP	84	288	7
TAP	85	0	0
STR	85	48	0
SI_	85	48	0	96	48	4
STR	85	96	4
SI_	85	96	4	96	48	0
BRK	85	240	7
BRK	85	288	7
STR	86	0	0
SCR	86	0	0	96	48	3
TAP	86	48	0
TAP	86	96	6
TAP	86	144	6
TAP	86	192	6
XTP	86	240	0
XTP	86	240	7
XTP	86	288	0
XTP	86	288	7
STR	87	0	4
SI_	87	0	4	96	48	0
STR	87	0	5
SI_	87	0	5	96	48	7
STR	87	192	2
SI_	87	192	2	96	48	0
STR	87	192	3
SI_	87	192	3	96	48	7
XTP	88	0	0
XTP	88	0	7
XTP	88	96	1
XTP	88	96	3
XTP	88	192	3
XTP	88	192	4
XTP	88	288	4
XTP	88	288	6
STR	89	0	2
SI_	89	0	2	96	48	7
STR	89	0	6
SI_	89	0	6	96	48	3
XTP	89	96	2
XTP	89	96	6
TAP	89	192	0
STR	89	192	4
SXL	89	192	4	96	96	5
SXR	89	192	4	96	96	3
HLD	90	96	0	48
HLD	90	96	6	48
HLD	90	192	0	48
HLD	90	192	6	48
HLD	90	288	1	48
HLD	90	288	5	48
TAP	91	0	2
STR	91	0	4
SXL	91	0	4	96	96	4
SXR	91	0	4	96	96	4
STR	91	288	4
SI_	91	288	4	96	48	7
STR	92	0	3
SI_	92	0	3	96	48	0
BRK	92	96	7
BRK	92	192	0
TAP	92	336	2
HLD	93	0	2	96
HLD	93	96	0	96
HLD	93	192	7	96
TAP	93	288	5
XTP	94	0	6
XTP	94	0	7
XTP	94	48	0
XTP	94	48	5
XTP	94	96	1
XTP	94	96	4
XTP	94	144	2
XTP	94	144	3
TAP	94	240	0
TAP	94	288	0
STR	94	336	7
SCL	94	336	7	96	96	1
TAP	95	48	0
TAP	95	96	0
TAP	95	192	0
TAP	95	192	7
TAP	95	288	1
TAP	95	288	3
TAP	96	0	4
TAP	96	0	6
TAP	96	96	3
TAP	96	96	4
TAP	96	192	2
TAP	96	192	5
TAP	96	288	1
TAP	96	288	6
TAP	97	0	1
TAP	97	0	3
TAP	97	72	3
TAP	97	72	4
TAP	97	144	4
TAP	97	144	6
TAP	97	192	0
TAP	97	192	7
TAP	97	264	1
TAP	97	264	3
TAP	97	336	3
TAP	97	336	4
TTP	98	0	0	C	1	M1
TAP	98	192	0
TAP	98	192	7
XST	98	288	2
SCL	98	288	2	96	48	7
XTP	98	288	5
STR	99	0	5
SCR	99	0	5	96	48	0
STR	99	96	3
SUL	99	96	3	96	48	6
STR	99	192	4
SUR	99	192	4	96	48	1
XST	99	288	2
SCL	99	288	2	96	48	7
STR	100	0	5
SCR	100	0	5	96	48	0
STR	100	96	3
SUL	100	96	3	96	48	6
STR	100	192	4
SUR	100	192	4	96	48	1
XST	100	288	2
SCL	100	288	2	96	48	7
STR	101	0	5
SCR	101	0	5	96	48	0
STR	101	96	3
SUL	101	96	3	96	48	6
TAP	101	192	4
TAP	101	288	3
TAP	101	288	5
HLD	102	0	0	96
HLD	102	0	6	96
XTP	102	144	1
XTP	102	144	7
TAP	102	240	2
TAP	102	240	5
XTP	102	288	2
XST	102	288	5
SCR	102	288	5	96	48	0
STR	103	0	2
SCL	103	0	2	96	48	7
STR	103	96	4
SUR	103	96	4	96	48	1
STR	103	192	3
SUL	103	192	3	96	48	6
XST	103	288	5
SCR	103	288	5	96	48	0
STR	104	0	2
SCL	104	0	2	96	48	7
STR	104	96	4
SUR	104	96	4	96	48	1
STR	104	192	3
SUL	104	192	3	96	48	6
XST	104	288	5
SCR	104	288	5	96	48	0
STR	105	0	2
SCL	105	0	2	96	48	7
STR	105	96	4
SUR	105	96	4	96	48	1
TAP	105	192	3
TAP	105	288	2
TAP	105	288	4
HLD	106	0	0	96
HLD	106	0	5	96
HLD	106	144	2	144
HLD	106	144	7	144
TTP	107	0	0	E	0	M1
TTP	107	0	7	E	0	M1
TAP	107	96	2
TAP	107	96	4
TTP	107	192	0	E	0	M1
TTP	107	192	1	E	0	M1
TAP	107	288	3
TAP	107	288	5
TTP	108	0	0	E	0	M1
TTP	108	0	7	E	0	M1
TAP	108	96	2
TAP	108	96	4
TTP	108	192	0	E	0	M1
TTP	108	192	1	E	0	M1
TAP	108	288	3
TAP	108	288	5
TTP	109	0	0	E	0	M1
TTP	109	0	7	E	0	M1
TTP	109	0	7	B	0	M1
TAP	109	96	2
TAP	109	96	4
TTP	109	192	0	B	0	M1
TTP	109	192	0	E	0	M1
TTP	109	192	1	E	0	M1
TAP	109	288	3
TAP	109	288	4
TAP	110	0	2
TAP	110	0	5
TAP	110	96	2
TAP	110	96	5
TTP	110	192	0	C	1	M1

T_REC_TAP	273
T_REC_BRK	10
T_REC_XTP	117
T_REC_HLD	38
T_REC_XHO	4
T_REC_STR	120
T_REC_BST	0
T_REC_XST	8
T_REC_TTP	68
T_REC_THO	2
T_REC_SLD	132
T_REC_ALL	772
T_NUM_TAP	586
T_NUM_BRK	10
T_NUM_HLD	44
T_NUM_SLD	132
T_NUM_ALL	772
T_JUDGE_TAP	596
T_JUDGE_HLD	150
T_JUDGE_SLD	132
T_JUDGE_ALL	878
TTM_EACHPAIRS	133
TTM_SCR_TAP	293000
TTM_SCR_BRK	26000
TTM_SCR_HLD	44000
TTM_SCR_SLD	198000
TTM_SCR_ALL	561000
TTM_SCR_S	543200
TTM_SCR_SS	560000
TTM_RAT_ACV	10017

