VERSION	0.00.00	1.03.00
FES_MODE	0
BPM_DEF	178.000	178.000	178.000	178.000
MET_DEF	4	4
RESOLUTION	384
CLK_DEF	384
COMPATIBLE_CODE	MA2

BPM	0	0	178.000
MET	0	0	4	4
MET	21	0	4	3
MET	27	0	4	4
CLK	0	0
CLK	0	96
CLK	0	192
CLK	0	288

TAP	3	0	2
TAP	3	0	3
TAP	3	96	0
TAP	3	192	2
TAP	3	192	3
TAP	3	288	0
TAP	4	0	4
TAP	4	0	5
TAP	4	96	7
TAP	4	192	4
TAP	4	192	5
TAP	4	288	7
TAP	5	0	3
TAP	5	0	4
TAP	5	96	1
TAP	5	192	3
TAP	5	192	4
TAP	5	288	6
XHO	6	0	3	96
XHO	6	0	4	96
XST	6	144	3
SCL	6	144	3	96	48	0
XST	6	144	4
SCR	6	144	4	96	48	7
TAP	7	0	0
TAP	7	0	1
TAP	7	96	4
TAP	7	192	0
TAP	7	192	1
TAP	7	288	4
TAP	8	0	6
TAP	8	0	7
TAP	8	96	3
TAP	8	192	6
TAP	8	192	7
TAP	8	288	3
STR	9	0	0
SXL	9	0	0	96	192	3
STR	9	0	7
SXR	9	0	7	96	192	4
STR	10	0	1
SI_	10	0	1	96	48	5
STR	10	192	6
SI_	10	192	6	96	48	2
TAP	11	0	0
TAP	11	96	7
TAP	11	192	1
TAP	11	192	6
TAP	11	288	2
TAP	11	288	3
TAP	11	336	2
TAP	11	336	3
TAP	12	48	4
TAP	12	48	5
TAP	12	144	1
TAP	12	144	6
BRK	12	192	1
BRK	12	192	6
TAP	13	0	0
TAP	13	0	1
TAP	13	96	2
TAP	13	192	3
TAP	13	240	3
TAP	13	288	4
TAP	14	0	6
TAP	14	0	7
TAP	14	96	5
TAP	14	192	4
TAP	14	240	4
TAP	14	288	3
TAP	15	0	0
TAP	15	0	1
TAP	15	96	2
TAP	15	192	3
TAP	15	240	3
TAP	15	288	4
STR	16	0	6
SI_	16	0	6	96	48	3
TAP	16	0	7
STR	16	192	0
SI_	16	192	0	96	48	5
TAP	17	0	6
TAP	17	0	7
TAP	17	96	5
TAP	17	192	4
TAP	17	240	4
TAP	17	288	3
TAP	18	0	0
TAP	18	0	1
TAP	18	96	2
TAP	18	192	3
TAP	18	240	3
TAP	18	288	4
TAP	18	336	4
TAP	19	48	3
TAP	19	48	4
TAP	19	96	3
TAP	19	96	4
XHO	19	192	6	96
XHO	19	192	7	96
TAP	19	336	6
TAP	19	336	7
TAP	20	48	3
TAP	20	48	4
TAP	20	96	3
TAP	20	96	4
XHO	20	192	0	96
XHO	20	192	1	96
TAP	21	0	2
TAP	21	96	3
TAP	21	192	4
TAP	21	192	5
TAP	21	288	6
TAP	22	0	5
TAP	22	96	3
TAP	22	96	4
TAP	22	192	2
TAP	22	288	3
STR	23	0	4
SUR	23	0	4	96	192	3
STR	23	0	5
SCR	23	0	5	96	192	2
TAP	24	0	1
TAP	24	96	2
TAP	24	192	3
TAP	24	192	4
TAP	24	288	5
TAP	25	0	4
TAP	25	96	2
TAP	25	96	3
XHO	25	192	0	96
XHO	25	192	1	96
XHO	25	336	4	96
XHO	25	336	5	96
XHO	26	96	6	96
XHO	26	96	7	96
XHO	26	240	2	96
XHO	26	240	3	96
XTP	27	0	0
XTP	27	0	7
TAP	27	96	1
TAP	27	192	3
TAP	27	192	4
TAP	27	288	6
STR	28	0	0
SI_	28	0	0	96	48	3
STR	28	0	7
SI_	28	0	7	96	48	4
XTP	28	192	2
XTP	28	192	5
TAP	29	0	0
TAP	29	0	7
TAP	29	96	6
TAP	29	192	3
TAP	29	192	4
TAP	29	288	1
HLD	30	0	0	192
TAP	30	0	7
TAP	30	192	2
TAP	30	288	2
HLD	30	288	3	192
TAP	31	96	4
TAP	31	192	4
TAP	31	192	5
TAP	32	0	0
HLD	32	0	7	192
TAP	32	192	5
HLD	32	288	4	192
TAP	32	288	5
TAP	33	96	3
TAP	33	192	2
TAP	33	192	3
HLD	34	0	0	192
TAP	34	0	7
TAP	34	192	2
TAP	34	288	2
HLD	34	288	3	192
TAP	35	96	4
TAP	35	192	4
TAP	35	192	5
TAP	36	0	0
TAP	36	0	7
TAP	36	96	1
TAP	36	192	2
TAP	36	288	3
TAP	37	0	4
TAP	37	96	5
TAP	37	192	4
TAP	37	192	5
TAP	37	288	3
TAP	37	288	4
STR	38	0	2
SCL	38	0	2	96	192	5
STR	38	0	3
SUL	38	0	3	96	192	4
TAP	39	0	0
TAP	39	0	7
TAP	39	96	1
TAP	39	96	6
TAP	39	192	2
TAP	39	192	5
TAP	39	288	3
TAP	39	288	4
TTP	40	0	1	E	0	M1
TTP	40	0	1	B	0	M1
TTP	40	96	6	B	0	M1
TTP	40	96	7	E	0	M1
TTP	40	192	2	B	0	M1
TTP	40	192	3	E	0	M1
TTP	40	288	5	B	0	M1
TTP	40	288	5	E	0	M1
STR	41	0	3
SI_	41	0	3	96	48	7
XTP	41	96	6
STR	41	192	5
SI_	41	192	5	96	48	1
XTP	41	288	3
STR	42	0	2
SI_	42	0	2	96	48	7
XTP	42	96	6
TAP	42	192	5
TAP	42	288	4
TAP	43	0	2
TAP	43	0	3
HLD	43	96	1	96
HLD	43	192	3	96
HLD	43	288	4	96
HLD	44	0	6	96
TAP	44	96	0
TTP	44	192	0	C	1	M1
TTP	44	192	3	B	0	M1
TTP	44	192	7	B	0	M1
TAP	45	0	2
HLD	45	0	5	192
TAP	45	96	1
STR	45	192	0
SI_	45	192	0	96	48	4
HLD	46	0	2	192
TAP	46	0	5
XTP	46	96	6
XTP	46	144	6
XTP	46	192	6
TAP	46	288	1
TAP	46	288	5
TAP	47	0	2
TAP	47	0	3
TAP	47	96	0
TAP	47	192	4
TAP	47	192	5
TAP	47	288	7
TTP	48	0	2	B	0	M1
TTP	48	0	3	E	0	M1
TTP	48	96	5	E	0	M1
TTP	48	96	5	B	0	M1
TTP	48	192	1	B	0	M1
TTP	48	192	1	E	0	M1
TTP	48	288	6	B	0	M1
TTP	48	288	7	E	0	M1
STR	49	0	0
SI_	49	0	0	96	48	4
XTP	49	96	6
STR	49	192	7
SCL	49	192	7	96	48	4
XTP	49	288	2
STR	50	0	0
SCR	50	0	0	96	48	3
XTP	50	96	4
TAP	50	192	5
TAP	50	288	6
TAP	51	0	0
TAP	51	0	7
HLD	51	96	1	96
HLD	51	192	2	96
HLD	51	288	3	96
STR	52	0	4
SI_	52	0	4	96	48	7
TAP	52	96	0
BRK	52	192	0
TAP	53	0	0
STR	53	0	1
SCR	53	0	1	96	48	4
STR	53	192	6
SCL	53	192	6	96	48	3
TAP	53	192	7
XTP	54	0	0
XTP	54	48	7
XTP	54	96	0
XTP	54	144	1
XTP	54	144	6
TAP	55	0	3
TAP	55	0	4
TAP	55	96	2
TAP	55	96	3
TAP	55	192	4
TAP	55	192	5
TAP	55	288	1
TAP	55	288	3
TAP	56	0	4
TAP	56	0	6
TAP	56	96	1
TAP	56	96	4
TAP	56	192	3
TAP	56	192	6
TAP	56	288	0
TAP	56	288	4
XHO	57	0	6	72
XHO	57	72	5	72
XTP	57	144	4
XHO	57	192	1	72
XHO	57	264	2	72
XTP	57	336	3
XST	58	0	3
SCL	58	0	3	96	192	4
XTP	58	0	4
HLD	59	0	3	96
TAP	59	96	4
HLD	59	192	5	96
TAP	59	288	4
HLD	60	0	1	96
TAP	60	96	2
TAP	60	192	6
TAP	60	240	6
TAP	60	288	0
HLD	61	0	4	96
TAP	61	96	3
HLD	61	192	2	96
TAP	61	288	3
HLD	62	0	6	96
TAP	62	96	5
TAP	62	192	1
TAP	62	240	1
TAP	62	288	7
HLD	63	0	2	96
TAP	63	96	3
HLD	63	192	5	96
TAP	63	288	4
HLD	64	0	1	96
TAP	64	96	0
HLD	64	192	6	96
TAP	64	288	7
TAP	65	0	0
STR	65	0	1
SCR	65	0	1	96	48	4
STR	65	192	6
SCL	65	192	6	96	48	3
TAP	65	192	7
TAP	66	0	0
STR	66	0	1
SUR	66	0	1	96	48	5
STR	66	192	6
SUL	66	192	6	96	48	2
TAP	66	192	7
TTP	67	0	0	B	0	M1
TTP	67	0	1	E	0	M1
TTP	67	96	2	B	0	M1
TTP	67	96	3	E	0	M1
TTP	67	192	4	B	0	M1
TTP	67	192	5	E	0	M1
TTP	67	288	6	B	0	M1
TTP	67	288	7	E	0	M1
XTP	68	48	3
XTP	68	48	4
BRK	68	192	0
BRK	68	192	7
HLD	69	0	5	384
TTP	69	192	3	B	0	M1
TTP	69	192	4	B	0	M1
HLD	70	0	2	384
TTP	70	192	3	B	0	M1
TTP	70	192	4	B	0	M1
HLD	71	0	6	384
TTP	71	192	4	B	0	M1
TTP	71	192	5	B	0	M1
HLD	72	0	1	384
TTP	72	192	2	B	0	M1
TTP	72	192	3	B	0	M1
TAP	73	0	6
TAP	73	96	5
TAP	73	192	4
TAP	73	288	2
TAP	73	288	3
TAP	74	0	1
TAP	74	96	2
TAP	74	192	3
TAP	74	288	4
TAP	74	288	5
TAP	75	0	6
TAP	75	96	5
TAP	75	192	3
TAP	75	192	4
TAP	75	288	2
TAP	75	288	3
TAP	76	0	1
TAP	76	96	2
TAP	76	192	3
TAP	76	192	4
TAP	76	288	4
TAP	76	288	5
HLD	77	0	6	96
HLD	77	96	4	96
HLD	77	192	3	96
HLD	77	288	1	96
XTP	78	0	7
XTP	78	48	7
XTP	78	96	0
XTP	78	144	0
XTP	78	192	7
XTP	78	240	7
XTP	78	288	0
TAP	79	0	6
TAP	79	0	7
TAP	79	96	0
TAP	79	96	1
TAP	79	192	3
TAP	79	192	4
TAP	79	240	3
TAP	79	240	4
TAP	79	336	1
TAP	79	336	6
TAP	80	0	1
TAP	80	0	6
TTP	80	96	4	E	0	M1
TTP	80	192	0	C	0	M1
TTP	80	288	0	E	0	M1
STR	81	0	4
SI_	81	0	4	96	48	0
XTP	81	96	1
STR	81	192	2
SI_	81	192	2	96	48	6
XTP	81	288	4
STR	82	0	5
SI_	82	0	5	96	48	0
XTP	82	96	1
TAP	82	192	2
TAP	82	288	3
TAP	83	0	4
TAP	83	0	5
HLD	83	96	6	96
HLD	83	192	4	96
HLD	83	288	3	96
HLD	84	0	1	96
TAP	84	96	7
TTP	84	192	0	B	0	M1
TTP	84	192	0	C	1	M1
TTP	84	192	4	B	0	M1
TAP	85	0	2
HLD	85	0	5	192
TAP	85	96	1
STR	85	192	0
SI_	85	192	0	96	48	4
HLD	86	0	2	192
TAP	86	0	5
XTP	86	96	6
XTP	86	144	6
XTP	86	192	6
TAP	86	288	1
TAP	86	288	5
TAP	87	0	3
TAP	87	0	4
TAP	87	96	6
TAP	87	192	3
TAP	87	192	4
TAP	87	288	1
TTP	88	0	5	E	0	M1
TTP	88	0	5	B	0	M1
TTP	88	96	2	B	0	M1
TTP	88	96	3	E	0	M1
TTP	88	192	6	B	0	M1
TTP	88	192	7	E	0	M1
TTP	88	288	1	E	0	M1
TTP	88	288	1	B	0	M1
STR	89	0	7
SI_	89	0	7	96	48	3
XTP	89	96	1
STR	89	192	0
SCR	89	192	0	96	48	3
XTP	89	288	5
STR	90	0	7
SCL	90	0	7	96	48	4
XTP	90	96	3
TAP	90	192	2
TAP	90	288	1
TAP	91	0	0
TAP	91	0	7
HLD	91	96	6	96
HLD	91	192	5	96
HLD	91	288	4	96
STR	92	0	3
SI_	92	0	3	96	48	0
TAP	92	96	7
BRK	92	192	7
STR	93	0	6
SCL	93	0	6	96	48	3
TAP	93	0	7
TAP	93	192	0
STR	93	192	1
SCR	93	192	1	96	48	4
XTP	94	0	7
XTP	94	48	0
XTP	94	96	7
XTP	94	144	1
XTP	94	144	6
TAP	95	0	3
TAP	95	0	4
TAP	95	96	4
TAP	95	96	5
TAP	95	192	2
TAP	95	192	3
TAP	95	288	4
TAP	95	288	6
TAP	96	0	1
TAP	96	0	3
TAP	96	96	3
TAP	96	96	6
TAP	96	192	1
TAP	96	192	4
TAP	96	288	3
TAP	96	288	7
XHO	97	0	1	72
XHO	97	72	2	72
XTP	97	144	3
XHO	97	192	6	72
XHO	97	264	5	72
XTP	97	336	4
XTP	98	0	3
XST	98	0	4
SCR	98	0	4	96	192	3
TAP	99	0	3
TAP	99	0	4
TAP	99	96	1
TAP	99	192	2
TAP	99	192	3
BRK	99	288	0
TAP	100	0	3
TAP	100	0	4
TAP	100	96	6
TAP	100	192	4
TAP	100	192	5
BRK	100	288	7
TAP	101	0	2
TAP	101	0	3
TAP	101	96	0
TAP	101	192	4
TAP	101	192	5
TAP	101	288	7
XHO	102	0	2	96
XHO	102	0	3	96
XST	102	144	2
SCL	102	144	2	96	48	7
XST	102	144	3
SCR	102	144	3	96	48	6
TAP	103	0	3
TAP	103	0	4
TAP	103	96	6
TAP	103	192	4
TAP	103	192	5
BRK	103	288	7
TAP	104	0	3
TAP	104	0	4
TAP	104	96	1
TAP	104	192	2
TAP	104	192	3
BRK	104	288	0
TAP	105	0	4
TAP	105	0	5
TAP	105	96	7
TAP	105	192	2
TAP	105	192	3
TAP	105	288	0
XHO	106	0	4	96
XHO	106	0	5	96
XST	106	144	4
SCL	106	144	4	96	48	1
XST	106	144	5
SCR	106	144	5	96	48	0
TTP	107	0	1	E	0	M1
TTP	107	96	7	E	0	M1
TTP	107	192	2	E	0	M1
TTP	107	288	6	E	0	M1
TTP	108	0	3	E	0	M1
TTP	108	96	5	E	0	M1
TTP	108	192	2	E	0	M1
TTP	108	288	6	E	0	M1
TTP	109	0	1	E	0	M1
TTP	109	96	7	E	0	M1
TTP	109	192	2	E	0	M1
TTP	109	288	6	E	0	M1
THO	110	0	0	192	C	1	M1

T_REC_TAP	313
T_REC_BRK	10
T_REC_XTP	47
T_REC_HLD	42
T_REC_XHO	26
T_REC_STR	36
T_REC_BST	0
T_REC_XST	8
T_REC_TTP	61
T_REC_THO	1
T_REC_SLD	44
T_REC_ALL	588
T_NUM_TAP	465
T_NUM_BRK	10
T_NUM_HLD	69
T_NUM_SLD	44
T_NUM_ALL	588
T_JUDGE_TAP	475
T_JUDGE_HLD	184
T_JUDGE_SLD	44
T_JUDGE_ALL	703
TTM_EACHPAIRS	136
TTM_SCR_TAP	232500
TTM_SCR_BRK	26000
TTM_SCR_HLD	69000
TTM_SCR_SLD	66000
TTM_SCR_ALL	393500
TTM_SCR_S	380750
TTM_SCR_SS	392500
TTM_RAT_ACV	10025

