VERSION	0.00.00	1.03.00
FES_MODE	0
BPM_DEF	178.000	178.000	178.000	178.000
MET_DEF	4	4
RESOLUTION	384
CLK_DEF	384
COMPATIBLE_CODE	MA2

BPM	0	0	178.000
MET	0	0	4	4

TAP	3	0	5
TAP	3	96	5
TAP	3	192	4
TAP	3	192	5
TAP	4	0	2
TAP	4	96	2
TAP	4	192	2
TAP	4	192	3
TAP	5	0	5
TAP	5	96	5
TAP	5	192	4
TAP	5	288	4
TAP	6	0	3
TAP	6	96	3
TAP	6	192	2
TAP	6	192	4
TAP	7	0	1
TAP	7	96	1
TAP	7	192	0
TAP	7	192	1
TAP	8	0	6
TAP	8	96	6
TAP	8	192	6
TAP	8	192	7
HLD	9	0	5	192
TAP	9	192	4
HLD	10	0	2	192
TAP	10	192	3
STR	11	0	3
SI_	11	0	3	96	192	0
STR	11	0	4
SI_	11	0	4	96	192	7
XTP	12	192	1
XTP	12	192	6
TAP	13	0	2
TAP	13	96	2
TAP	13	192	3
TAP	14	0	5
TAP	14	96	5
TAP	14	192	4
TAP	15	0	2
TAP	15	96	2
TAP	15	192	3
STR	15	288	3
SI_	15	288	3	96	192	0
TAP	17	0	6
TAP	17	96	6
TAP	17	192	7
TAP	18	0	1
TAP	18	96	1
TAP	18	192	0
STR	18	288	0
SI_	18	288	0	96	192	4
TAP	20	0	5
TAP	20	96	5
XTP	20	192	4
XTP	20	192	6
STR	21	0	6
SI_	21	0	6	96	192	1
STR	22	192	2
SI_	22	192	2	96	192	5
STR	24	0	6
SI_	24	0	6	96	192	3
XST	25	192	2
SCL	25	192	2	96	288	5
TAP	27	0	4
TAP	27	96	4
TAP	27	192	3
TAP	27	288	3
TAP	28	0	2
TAP	28	96	2
TAP	28	192	1
TAP	28	192	3
TAP	29	0	4
TAP	29	96	4
TAP	29	192	3
TAP	29	288	3
XTP	30	0	2
XTP	30	0	4
TAP	30	192	2
HLD	31	0	2	192
TAP	31	192	3
HLD	32	0	5	192
TAP	32	192	4
TAP	33	0	4
TAP	33	0	5
TAP	33	192	6
HLD	34	0	6	192
TAP	34	192	7
HLD	35	0	1	192
BRK	35	192	0
TAP	36	0	2
TAP	36	96	2
TAP	36	192	3
TAP	36	288	3
TAP	37	0	4
TAP	37	96	4
TAP	37	192	5
STR	37	288	5
SCR	37	288	5	96	288	2
TAP	39	192	3
TAP	39	192	4
TAP	40	0	3
TAP	40	0	4
TAP	40	96	3
TAP	40	96	4
BRK	40	192	2
BRK	40	192	5
TAP	41	0	1
TAP	41	96	2
TAP	41	192	3
TAP	41	288	4
TAP	42	0	5
TAP	42	96	5
TAP	42	192	4
TAP	42	192	6
TAP	43	0	2
TAP	43	96	2
TAP	43	192	1
TAP	43	192	3
HLD	44	0	3	96
HLD	44	0	4	96
XTP	44	192	2
XTP	44	192	5
HLD	45	0	2	96
TAP	45	96	3
TAP	45	192	1
TAP	45	192	4
HLD	46	0	5	96
TAP	46	96	4
TAP	46	192	3
TAP	46	192	6
TAP	47	0	5
TAP	47	96	3
TAP	47	96	4
TAP	47	192	2
STR	47	288	3
SCL	47	288	3	96	192	0
STR	47	288	4
SCR	47	288	4	96	192	7
XTP	49	0	6
TAP	49	96	5
TAP	49	192	4
TAP	49	288	3
TAP	50	0	2
TAP	50	96	2
TAP	50	192	1
TAP	50	192	3
TAP	51	0	5
TAP	51	96	5
TAP	51	192	4
TAP	51	192	6
TAP	52	0	7
XTP	52	96	0
XTP	52	192	0
TAP	53	0	2
TAP	53	0	4
TAP	53	96	2
TAP	53	96	4
TAP	53	192	3
XST	53	288	4
SI_	53	288	4	96	192	7
TAP	55	0	6
TAP	55	96	6
TAP	55	192	5
TAP	55	288	5
TAP	56	0	4
TAP	56	96	4
TAP	56	192	3
STR	56	288	3
SI_	56	288	3	96	240	0
SI_	56	288	3	96	240	6
XHO	58	0	7	192
XTP	58	192	0
TAP	59	0	5
TAP	59	96	5
TAP	59	192	3
TAP	59	288	3
TAP	60	0	4
TAP	60	96	4
TAP	60	192	3
TAP	60	192	5
TAP	61	0	1
TAP	61	96	1
TAP	61	192	7
TAP	61	288	7
TAP	62	0	0
TAP	62	0	6
TAP	62	96	0
TAP	62	96	6
TAP	62	192	0
TAP	62	192	6
TAP	63	0	1
TAP	63	96	1
TAP	63	192	2
TAP	63	288	3
TAP	64	0	2
TAP	64	0	4
TAP	64	96	2
TAP	64	96	4
TAP	64	192	2
TAP	64	192	4
TAP	65	0	6
TAP	65	96	5
TAP	65	192	4
TAP	65	288	3
TAP	66	0	2
TAP	66	96	1
TAP	66	192	0
TAP	66	192	7
STR	67	0	0
SI_	67	0	0	96	192	3
STR	67	0	7
SI_	67	0	7	96	192	4
BRK	68	192	2
BRK	68	192	5
TTP	69	0	2	B	0	L1
TTP	69	192	0	C	0	L1
TTP	70	0	6	B	0	L1
TTP	71	0	5	E	0	L1
TTP	71	192	0	C	0	L1
TTP	72	0	1	E	0	L1
TTP	73	0	2	E	0	L1
TTP	73	192	0	C	0	L1
TTP	74	0	6	E	0	L1
TTP	75	0	3	E	0	L1
TTP	75	192	0	C	0	L1
TTP	76	0	7	E	0	L1
THO	77	0	0	384	C	1	L1
HLD	79	0	7	192
HLD	79	192	0	192
XTP	80	0	7
XTP	80	96	7
BRK	80	192	1
BRK	80	192	6
TAP	81	0	1
TAP	81	96	2
TAP	81	192	3
TAP	81	192	4
TAP	81	288	3
TAP	81	288	4
TAP	82	0	5
TAP	82	96	5
TAP	82	192	4
TAP	82	192	6
TAP	83	0	2
TAP	83	96	2
TAP	83	192	1
TAP	83	192	3
HLD	84	0	3	96
HLD	84	0	4	96
XTP	84	192	2
XTP	84	192	5
HLD	85	0	1	96
TAP	85	96	0
XTP	85	192	2
XTP	85	192	7
HLD	86	0	6	96
TAP	86	96	7
XTP	86	192	0
XTP	86	192	5
TAP	87	0	3
TAP	87	96	2
TAP	87	192	1
TAP	87	288	0
XTP	88	0	1
XTP	88	0	7
XTP	88	96	1
XTP	88	96	7
XTP	88	192	0
XTP	88	192	6
TAP	89	0	6
TAP	89	96	5
TAP	89	192	3
TAP	89	192	4
TAP	89	288	3
TAP	89	288	4
TAP	90	0	2
TAP	90	96	2
TAP	90	192	1
TAP	90	192	3
TAP	91	0	5
TAP	91	96	5
TAP	91	192	4
TAP	91	192	6
TAP	92	0	0
TAP	92	0	7
XTP	92	96	0
XTP	92	96	7
XTP	92	192	1
XTP	92	192	6
HLD	93	0	5	96
TAP	93	96	4
HLD	93	192	2	96
STR	93	288	3
SI_	93	288	3	96	192	7
TAP	95	0	0
TAP	95	96	0
TAP	95	192	1
TAP	95	288	1
TAP	96	0	2
TAP	96	96	2
TAP	96	192	3
STR	96	288	3
SCL	96	288	3	96	192	0
STR	96	288	4
SCR	96	288	4	96	192	7
XTP	98	0	1
XTP	98	0	6
TAP	99	0	1
TAP	99	96	1
TAP	99	192	0
XTP	99	288	0
TAP	100	0	7
TAP	100	96	7
TAP	100	192	0
TAP	100	192	6
TAP	101	0	2
TAP	101	96	2
TAP	101	192	3
STR	101	288	3
SI_	101	288	3	96	192	7
TAP	103	0	6
TAP	103	96	6
TAP	103	192	7
XTP	103	288	7
TAP	104	0	0
TAP	104	96	0
TAP	104	192	1
TAP	104	192	7
TAP	105	0	2
TAP	105	0	3
TAP	105	96	2
TAP	105	96	3
TAP	105	192	3
TAP	105	192	4
TAP	105	288	3
TAP	105	288	4
TAP	106	0	4
TAP	106	0	5
TAP	106	96	4
TAP	106	96	5
BRK	106	192	3
BRK	106	192	6
HLD	107	0	5	192
TAP	107	192	4
HLD	108	0	2	192
TAP	108	192	3
HLD	109	0	6	192
TAP	109	192	4
TAP	110	0	3
TAP	110	0	4
TAP	110	96	3
TAP	110	96	4
TAP	110	192	3
TAP	110	192	4

T_REC_TAP	239
T_REC_BRK	9
T_REC_XTP	34
T_REC_HLD	21
T_REC_XHO	1
T_REC_STR	17
T_REC_BST	0
T_REC_XST	2
T_REC_TTP	12
T_REC_THO	1
T_REC_SLD	20
T_REC_ALL	356
T_NUM_TAP	304
T_NUM_BRK	9
T_NUM_HLD	23
T_NUM_SLD	20
T_NUM_ALL	356
T_JUDGE_TAP	313
T_JUDGE_HLD	76
T_JUDGE_SLD	20
T_JUDGE_ALL	409
TTM_EACHPAIRS	70
TTM_SCR_TAP	152000
TTM_SCR_BRK	23400
TTM_SCR_HLD	23000
TTM_SCR_SLD	30000
TTM_SCR_ALL	228400
TTM_SCR_S	220700
TTM_SCR_SS	227500
TTM_RAT_ACV	10039

