VERSION	0.00.00	1.03.00
FES_MODE	0
BPM_DEF	178.000	178.000	178.000	178.000
MET_DEF	4	4
RESOLUTION	384
CLK_DEF	384
COMPATIBLE_CODE	MA2

BPM	0	0	178.000
MET	0	0	4	4
MET	21	0	4	3
MET	27	0	4	4

TAP	3	0	0
TAP	4	0	0
TAP	5	0	7
TAP	6	0	7
TAP	7	0	0
TAP	8	0	0
HLD	9	0	7	384
HLD	11	0	0	384
TAP	13	0	0
TAP	14	0	0
TAP	15	0	1
XTP	16	0	1
TAP	17	0	2
TAP	18	0	2
HLD	19	0	3	384
HLD	21	0	4	288
HLD	22	192	5	288
HLD	24	0	6	288
HLD	25	192	7	288
XTP	27	0	0
TAP	27	192	0
TAP	28	0	0
TAP	29	0	7
TAP	29	192	7
BRK	30	0	7
STR	31	0	7
SI_	31	0	7	96	288	4
TAP	33	0	0
STR	34	0	0
SI_	34	0	0	96	288	3
TAP	36	0	7
TAP	37	0	0
XTP	38	0	1
XTP	38	0	6
THO	39	0	0	288	C	1	L1
TAP	41	0	7
TAP	41	192	7
TAP	42	0	6
TAP	42	192	6
TAP	43	0	5
TAP	43	192	5
TAP	44	0	3
TAP	44	0	4
TAP	45	0	3
TAP	45	192	3
TAP	46	0	4
TAP	46	192	4
TAP	47	0	3
TAP	47	192	3
TAP	48	0	3
TAP	48	0	4
TAP	49	0	3
TAP	49	192	3
TAP	50	0	2
TAP	50	192	2
TAP	51	0	1
TAP	51	192	1
TAP	52	0	0
TAP	52	0	7
TAP	53	0	0
TAP	53	192	0
TAP	54	0	1
TAP	54	192	1
TAP	55	0	2
TAP	55	192	2
TAP	56	0	3
TAP	56	192	3
HLD	57	0	3	384
HLD	57	0	4	384
TTP	59	0	4	B	0	L1
TTP	60	0	3	B	0	L1
TTP	61	0	2	B	0	L1
TTP	62	0	1	B	0	L1
TTP	63	0	0	B	0	L1
TTP	64	0	7	B	0	L1
TTP	65	0	6	B	0	L1
TTP	66	0	5	B	0	L1
TTP	67	0	3	B	0	L1
TTP	67	0	4	B	0	L1
TTP	68	0	0	C	1	L1
HLD	69	0	0	384
HLD	71	0	7	384
STR	73	0	0
SI_	73	0	0	96	288	3
STR	75	0	7
SI_	75	0	7	96	288	4
TAP	77	0	0
TAP	77	192	0
TAP	78	0	7
TAP	78	192	7
HLD	79	0	0	384
HLD	79	0	7	384
TAP	81	0	7
TAP	81	96	7
TAP	81	192	7
TAP	82	0	6
TAP	82	96	6
TAP	82	192	6
TAP	83	0	5
TAP	83	96	5
TAP	83	192	4
TAP	83	288	4
TAP	84	0	3
XTP	84	192	3
XTP	84	192	4
HLD	85	0	3	192
HLD	86	0	4	192
TAP	87	0	3
TAP	87	96	4
TAP	87	192	3
TAP	88	0	3
TAP	88	0	4
TAP	88	96	3
TAP	88	96	4
BRK	88	192	2
BRK	88	192	5
TAP	89	0	3
TAP	89	96	3
TAP	89	192	3
TAP	90	0	2
TAP	90	96	2
TAP	90	192	2
TAP	91	0	1
TAP	91	96	1
TAP	91	192	0
TAP	91	288	0
TAP	92	0	7
XTP	92	192	0
XTP	92	192	7
TAP	93	0	7
TAP	93	192	7
TAP	94	0	6
TAP	94	192	6
TAP	95	0	5
TAP	95	96	5
TAP	95	192	5
TAP	96	0	4
TAP	96	96	4
TAP	96	192	4
HLD	97	0	3	384
HLD	97	0	4	384
TAP	99	0	2
TAP	99	0	3
TAP	99	192	2
TAP	99	192	3
TAP	100	0	4
TAP	100	0	5
TAP	100	192	4
TAP	100	192	5
TAP	101	0	3
TAP	101	192	4
BRK	102	0	2
BRK	102	0	5
TAP	103	0	4
TAP	103	0	5
TAP	103	192	4
TAP	103	192	5
TAP	104	0	2
TAP	104	0	3
TAP	104	192	2
TAP	104	192	3
TAP	105	0	4
TAP	105	192	3
BRK	106	0	2
BRK	106	0	5
HLD	107	0	1	384
TAP	109	0	0
TAP	109	192	0
XTP	110	0	7
XTP	110	96	7
XTP	110	192	7

T_REC_TAP	115
T_REC_BRK	7
T_REC_XTP	11
T_REC_HLD	18
T_REC_XHO	0
T_REC_STR	4
T_REC_BST	0
T_REC_XST	0
T_REC_TTP	11
T_REC_THO	1
T_REC_SLD	4
T_REC_ALL	171
T_NUM_TAP	141
T_NUM_BRK	7
T_NUM_HLD	19
T_NUM_SLD	4
T_NUM_ALL	171
T_JUDGE_TAP	148
T_JUDGE_HLD	134
T_JUDGE_SLD	4
T_JUDGE_ALL	286
TTM_EACHPAIRS	22
TTM_SCR_TAP	70500
TTM_SCR_BRK	18200
TTM_SCR_HLD	19000
TTM_SCR_SLD	6000
TTM_SCR_ALL	113700
TTM_SCR_S	109650
TTM_SCR_SS	113000
TTM_RAT_ACV	10061

