VERSION	0.00.00	1.03.00
FES_MODE	0
BPM_DEF	288.000	288.000	288.000	288.000
MET_DEF	4	4
RESOLUTION	384
CLK_DEF	384
COMPATIBLE_CODE	MA2

BPM	0	0	288.000
MET	0	0	4	4

TTP	11	0	1	E	0	M1
TTP	11	96	2	E	0	M1
TTP	11	192	3	E	0	M1
TTP	11	288	4	E	0	M1
TAP	12	0	3
TAP	12	0	5
TAP	12	96	2
TAP	12	192	2
TAP	12	192	6
TAP	12	288	6
TAP	13	0	4
TAP	13	0	6
TAP	13	96	4
TAP	13	96	6
TAP	13	192	3
TAP	13	192	5
TAP	13	288	3
STR	13	288	5
SI_	13	288	5	96	96	2
TAP	14	0	1
STR	14	96	0
SI_	14	96	0	96	96	3
TAP	14	192	7
STR	14	288	6
SI_	14	288	6	96	96	3
TAP	15	0	2
STR	15	96	1
SI_	15	96	1	96	96	4
TAP	15	192	7
STR	15	288	7
SCL	15	288	7	96	96	4
TAP	16	0	3
STR	16	96	3
SCL	16	96	3	96	96	0
TAP	16	192	4
STR	16	288	4
SCR	16	288	4	96	96	7
TAP	17	0	0
STR	17	96	0
SCR	17	96	0	96	96	3
TAP	17	192	7
TAP	17	288	7
TAP	18	0	3
TAP	18	0	6
TAP	18	96	3
TAP	18	96	6
TAP	18	192	2
TAP	18	192	5
TAP	18	288	2
TAP	18	288	5
TAP	19	0	4
TAP	19	96	3
TAP	19	192	2
TAP	19	192	4
STR	19	288	1
SI_	19	288	1	96	96	6
STR	19	288	5
SI_	19	288	5	96	96	2
XTP	20	0	1
XTP	20	0	5
TAP	20	192	0
TAP	20	288	7
TAP	21	0	6
STR	21	96	6
SCR	21	96	6	96	96	1
TAP	21	192	2
TAP	21	288	3
TAP	22	0	2
TAP	22	0	4
TAP	22	96	1
TAP	22	96	5
TAP	22	192	0
TAP	22	192	6
TAP	22	288	7
TAP	23	0	0
TAP	23	96	1
TAP	23	96	7
TAP	23	192	2
TAP	23	192	6
TAP	23	288	3
TAP	23	288	5
STR	24	0	4
SV_	24	0	4	96	96	6
TAP	24	96	1
STR	24	192	0
SV_	24	192	0	96	96	2
TAP	24	288	5
STR	25	0	4
SV_	25	0	4	96	96	6
TAP	25	96	1
STR	25	192	0
SV_	25	192	0	96	96	2
TAP	25	288	5
TAP	26	0	6
TAP	26	96	6
TAP	26	192	3
TAP	26	192	5
TAP	26	288	3
TAP	26	288	5
TAP	27	0	2
TAP	27	0	4
TAP	27	96	2
TAP	27	96	4
TAP	27	192	3
HLD	27	192	5	96
TAP	27	288	2
TAP	28	0	2
TAP	28	0	5
TAP	28	64	3
TAP	28	96	4
TAP	28	160	4
TAP	28	192	3
TAP	28	256	3
TAP	28	288	4
TAP	28	352	4
TAP	29	0	2
TAP	29	64	2
TAP	29	96	5
TAP	29	160	5
TAP	29	192	3
TAP	29	256	3
TAP	29	288	4
TAP	29	352	4
TAP	30	0	3
TAP	30	64	3
TAP	30	96	4
TAP	30	160	4
TAP	30	192	2
TAP	30	256	2
TAP	30	288	5
TAP	30	352	5
TAP	31	0	4
TAP	31	64	4
TAP	31	96	7
TAP	31	160	7
TAP	31	192	3
TAP	31	256	3
TAP	31	288	5
TAP	31	352	5
TAP	32	0	3
TAP	32	64	3
TAP	32	96	4
TAP	32	160	4
TAP	32	192	0
TAP	32	256	0
TAP	32	288	3
TAP	32	352	3
TAP	33	0	2
TAP	33	64	2
TAP	33	96	4
TAP	33	160	4
TAP	33	192	3
TAP	33	256	3
TAP	33	288	5
TAP	33	352	5
TAP	34	0	4
TAP	34	64	4
TAP	34	96	6
TAP	34	160	6
TAP	34	192	0
TAP	34	256	0
TAP	34	288	7
TAP	34	352	7
TAP	35	0	2
TAP	35	64	2
TAP	35	96	5
TAP	35	160	5
TAP	35	192	3
TAP	35	256	3
TAP	35	288	4
TAP	35	352	4
TAP	36	0	3
TAP	36	64	3
TAP	36	96	4
TAP	36	160	4
TAP	36	192	2
TAP	36	256	2
TAP	36	288	5
TAP	36	352	5
TAP	37	0	3
TAP	37	64	3
TAP	37	96	4
TAP	37	160	4
TAP	37	192	1
TAP	37	256	1
TAP	37	288	4
TAP	37	352	4
TAP	38	0	3
TAP	38	64	3
TAP	38	96	4
TAP	38	160	4
TAP	38	192	2
TAP	38	256	2
TAP	38	288	6
TAP	38	352	6
TAP	39	0	3
TAP	39	64	3
TAP	39	96	4
TAP	39	160	4
TAP	39	192	1
TAP	39	256	1
TAP	39	288	5
TAP	39	352	5
TAP	40	0	4
TAP	40	64	4
TAP	40	96	3
TAP	40	160	3
TAP	40	192	2
TAP	40	256	2
TAP	40	288	1
TAP	40	352	1
TAP	41	0	0
TAP	41	64	0
TAP	41	96	7
TAP	41	160	7
TAP	41	192	6
TAP	41	256	6
TAP	41	288	5
TAP	41	352	5
TAP	42	0	4
TAP	42	64	4
TAP	42	96	2
TAP	42	160	2
TAP	42	192	3
TAP	42	256	3
TAP	42	288	4
TAP	42	352	4
TAP	43	0	3
TAP	43	96	2
TAP	43	96	5
TAP	43	192	2
TAP	43	192	5
STR	43	288	1
SCR	43	288	1	96	384	7
TAP	43	288	6
TTP	44	0	0	C	1	M1
STR	46	0	0
SI_	46	0	0	96	288	3
TAP	47	96	4
TAP	47	192	4
STR	48	0	5
SCL	48	0	5	96	96	2
STR	49	0	2
SCR	49	0	2	96	96	5
STR	50	0	7
SI_	50	0	7	96	288	4
TTP	51	96	3	E	0	M1
TAP	52	0	2
HLD	52	96	2	672
TAP	52	288	3
TAP	53	96	3
TAP	53	288	3
TAP	54	0	4
HLD	54	96	5	672
TAP	54	288	4
TAP	55	96	4
TAP	55	288	4
TAP	56	0	3
TAP	56	96	2
TAP	56	192	2
TAP	56	288	3
TAP	57	0	4
TAP	57	96	5
TAP	57	192	5
TAP	57	288	4
TAP	58	0	3
TAP	58	0	4
TAP	58	192	2
TAP	58	192	5
TAP	59	0	3
TAP	59	0	4
TAP	59	96	2
TAP	59	96	5
TAP	59	192	1
TAP	59	192	6
XTP	59	256	7
XST	59	288	0
SCR	59	288	0	96	96	4
XST	60	0	4
SCR	60	0	4	96	96	0
XST	60	96	0
SCR	60	96	0	96	144	6
XST	60	192	4
SCR	60	192	4	96	144	2
XST	60	288	0
SCR	60	288	0	96	144	6
XST	61	0	4
SCR	61	0	4	96	144	2
XST	61	96	0
SCR	61	96	0	96	144	6
XST	61	192	4
SCR	61	192	4	96	144	2
XST	61	288	0
SCR	61	288	0	96	144	6
XST	62	0	4
SCR	62	0	4	96	144	2
XST	62	96	0
SCR	62	96	0	96	144	6
XST	62	192	4
SCR	62	192	4	96	144	2
XST	62	288	0
SCR	62	288	0	96	144	6
XST	63	0	4
SCR	63	0	4	96	144	2
XTP	63	96	0
XTP	63	192	4
XTP	63	288	0
STR	64	0	5
SI_	64	0	5	96	48	7
TAP	64	96	0
STR	64	192	2
SI_	64	192	2	96	48	0
TAP	64	288	7
STR	65	0	4
SI_	65	0	4	96	48	6
TAP	65	96	0
STR	65	192	3
SI_	65	192	3	96	48	1
TAP	65	288	7
TAP	66	0	7
TAP	66	96	2
TAP	66	96	6
TAP	66	192	1
TAP	66	192	5
TAP	66	288	0
TAP	66	288	4
STR	67	0	3
SCR	67	0	3	96	96	6
STR	67	0	7
SCR	67	0	7	96	96	2
XTP	67	96	3
XTP	67	96	7
TAP	67	288	7
XST	68	0	7
SCL	68	0	7	96	96	3
XST	68	96	3
SCL	68	96	3	96	96	7
XST	68	192	7
SCL	68	192	7	96	144	1
XST	68	288	3
SCL	68	288	3	96	144	5
XST	69	0	7
SCL	69	0	7	96	144	1
XST	69	96	3
SCL	69	96	3	96	144	5
XST	69	192	7
SCL	69	192	7	96	144	1
XST	69	288	3
SCL	69	288	3	96	144	5
XST	70	0	7
SCL	70	0	7	96	144	1
XST	70	96	3
SCL	70	96	3	96	144	5
XST	70	192	7
SCL	70	192	7	96	144	1
XST	70	288	3
SCL	70	288	3	96	144	5
XST	71	0	7
SCL	71	0	7	96	144	1
XST	71	96	3
SCL	71	96	3	96	144	5
XTP	71	192	7
XTP	71	288	3
XTP	72	0	7
TAP	72	96	3
TAP	72	192	2
STR	72	288	1
SUR	72	288	1	96	96	5
TAP	73	0	6
STR	73	160	7
SCL	73	160	7	96	320	0
XTP	73	288	0
TAP	75	192	3
TAP	75	224	4
TAP	75	256	3
TAP	75	288	4
TAP	76	0	2
HLD	76	0	5	96
TAP	76	96	3
HLD	76	192	2	96
TAP	76	192	4
TAP	76	288	4
TAP	77	0	3
HLD	77	0	5	96
STR	77	96	3
SXR	77	96	3	96	192	4
TAP	77	192	6
TAP	77	288	6
TAP	78	0	5
TAP	78	96	5
HLD	78	192	2	96
TAP	78	192	4
TAP	78	288	4
STR	79	0	3
SI_	79	0	3	96	48	1
TAP	79	96	5
STR	79	192	4
SI_	79	192	4	96	48	6
TAP	79	288	2
HLD	80	0	2	96
TAP	80	96	4
TAP	80	192	3
HLD	80	192	5	96
TAP	80	288	3
HLD	81	0	2	96
TAP	81	0	4
TAP	81	96	4
TAP	81	192	3
HLD	81	192	5	96
XST	81	288	3
SI_	81	288	3	96	48	1
XST	82	0	4
SI_	82	0	4	96	48	6
XST	82	96	2
SI_	82	96	2	96	48	0
XST	82	192	5
SI_	82	192	5	96	48	7
XST	82	288	1
SCR	82	288	1	96	288	0
XTP	83	0	6
HLD	84	0	1	96
TAP	84	0	4
TAP	84	96	5
TAP	84	192	3
HLD	84	192	6	96
TAP	84	288	2
HLD	85	0	1	96
TAP	85	0	4
STR	85	96	5
SXR	85	96	5	96	192	6
TAP	85	192	0
TAP	85	288	0
TAP	86	0	1
TAP	86	96	1
TAP	86	192	2
HLD	86	192	6	96
TAP	86	288	3
STR	87	0	2
SCL	87	0	2	96	48	0
TAP	87	96	4
STR	87	192	5
SCR	87	192	5	96	48	7
TAP	87	288	0
TAP	88	0	0
TAP	88	96	1
HLD	88	192	2	96
TAP	88	192	7
TAP	88	288	6
TAP	89	0	0
HLD	89	0	5	96
TAP	89	96	1
HLD	89	192	2	96
TAP	89	192	7
XST	89	288	6
SI_	89	288	6	96	48	4
XST	90	0	1
SI_	90	0	1	96	48	3
XST	90	96	7
SI_	90	96	7	96	48	5
XST	90	192	0
SI_	90	192	0	96	48	2
XST	90	288	6
SI_	90	288	6	96	48	4
XST	91	0	1
SI_	91	0	1	96	48	3
XST	91	96	7
SI_	91	96	7	96	48	5
TAP	91	192	0
BRK	91	288	0
HLD	92	0	1	48
HLD	92	0	7	48
HLD	92	96	1	48
HLD	92	96	7	48
HLD	92	192	0	48
HLD	92	192	6	48
HLD	92	288	0	48
HLD	92	288	6	48
TTP	93	0	1	E	0	M1
TTP	93	24	2	E	0	M1
TTP	93	48	3	E	0	M1
TTP	93	72	4	E	0	M1
TTP	93	96	5	E	0	M1
TTP	93	120	6	E	0	M1
TTP	93	144	7	E	0	M1
TTP	93	168	0	E	0	M1
TTP	93	192	1	E	0	M1
XHO	93	288	4	48
HLD	94	0	3	48
HLD	94	0	5	48
HLD	94	96	3	48
HLD	94	96	5	48
HLD	94	192	2	48
HLD	94	192	4	48
HLD	94	288	2	48
HLD	94	288	4	48
XTP	95	0	5
TAP	95	48	4
XTP	95	96	2
TAP	95	144	3
XTP	95	192	6
TAP	95	240	5
XTP	95	288	1
TAP	95	336	2
HLD	96	0	7	48
HLD	96	96	0	48
HLD	96	96	6	48
HLD	96	192	2	48
HLD	96	192	4	48
HLD	96	288	1	48
HLD	96	288	5	48
XTP	97	0	4
TAP	97	48	5
XTP	97	96	3
TAP	97	144	2
XTP	97	192	5
TAP	97	240	6
XTP	97	288	2
TAP	97	336	1
XTP	98	0	7
XTP	98	32	6
XTP	98	64	5
XTP	98	96	4
XTP	98	128	3
XTP	98	160	2
XTP	98	192	0
XTP	98	224	1
XTP	98	256	2
XST	98	288	3
SUR	98	288	3	96	240	4
XTP	98	320	4
XTP	98	352	5
HLD	100	0	0	48
HLD	100	0	7	48
HLD	100	96	0	48
HLD	100	96	7	48
HLD	100	192	1	48
HLD	100	192	6	48
HLD	100	288	1	48
HLD	100	288	6	48
TAP	101	0	0
TAP	101	0	7
TAP	101	96	1
TAP	101	96	6
TTP	101	192	3	B	0	M1
TTP	101	192	3	E	0	M1
TTP	101	192	4	B	0	M1
TTP	101	192	5	E	0	M1
TAP	101	288	1
TAP	101	288	6
HLD	102	0	2	48
HLD	102	0	5	48
HLD	102	96	2	48
HLD	102	96	5	48
HLD	102	192	3	48
HLD	102	192	4	48
HLD	102	288	3	48
HLD	102	288	4	48
XTP	103	0	2
XTP	103	0	5
XTP	103	64	2
XTP	103	64	5
XTP	103	96	3
XTP	103	96	4
XHO	103	192	2	96
XHO	103	192	5	96
HLD	104	0	0	48
HLD	104	96	1	48
HLD	104	96	7	48
HLD	104	192	3	48
HLD	104	192	5	48
HLD	104	288	2	48
HLD	104	288	6	48
XTP	105	0	3
TAP	105	48	2
XTP	105	96	4
TAP	105	144	5
XTP	105	192	2
TAP	105	240	1
XTP	105	288	5
TAP	105	336	6
TAP	106	0	0
TAP	106	32	7
TAP	106	64	0
TAP	106	96	7
TAP	106	128	0
TAP	106	160	7
TAP	106	192	1
TAP	106	224	6
TAP	106	256	1
TAP	106	288	6
TAP	106	320	1
TAP	106	352	6
TAP	107	0	2
TAP	107	32	5
TAP	107	64	2
TAP	107	96	5
TAP	107	128	2
TAP	107	160	5
TAP	107	192	3
TAP	107	224	4
TAP	107	256	3
TAP	107	288	4
TAP	107	320	3
TAP	107	352	4
TTP	108	0	0	C	1	M1
TAP	115	96	2
TAP	115	96	5
TAP	115	192	2
TAP	115	192	5
TAP	116	0	3
TAP	116	64	3
TAP	116	96	4
TAP	116	160	4
TAP	116	192	3
TAP	116	256	3
TAP	116	288	4
TAP	116	352	4
TAP	117	0	3
TAP	117	64	3
TAP	117	96	4
TAP	117	160	4
TAP	117	192	3
TAP	117	256	3
TAP	117	288	4
TAP	117	352	4
TAP	118	0	3
TAP	118	64	3
TAP	118	96	4
TAP	118	160	4
TAP	118	192	3
TAP	118	256	3
TAP	118	288	4
TAP	118	352	4
TAP	119	0	3
TAP	119	64	3
TAP	119	96	4
TAP	119	160	4
TAP	119	192	3
TAP	119	256	3
TAP	119	288	4
TAP	119	352	4
BRK	120	0	2
TAP	120	64	2
TAP	120	96	5
TAP	120	160	5
TAP	120	192	3
TAP	120	256	3
TAP	120	288	4
TAP	120	352	4
BRK	121	0	1
TAP	121	64	1
TAP	121	96	5
TAP	121	160	5
TAP	121	192	3
TAP	121	256	3
TAP	121	288	4
TAP	121	352	4
BRK	122	0	0
TAP	122	64	0
TAP	122	96	5
TAP	122	160	5
TAP	122	192	3
TAP	122	256	3
TAP	122	288	4
TAP	122	352	4
TAP	123	0	3
TAP	123	64	3
TAP	123	96	5
BRK	123	192	2
BRK	123	192	6
XST	123	288	7
SCL	123	288	7	96	96	3
BST	124	0	3
SCL	124	0	3	96	96	7
XST	124	96	7
SCL	124	96	7	96	192	7
TTP	124	192	0	C	1	M1
XST	124	288	7
SCL	124	288	7	96	192	7
TTP	125	0	0	C	1	M1
XST	125	96	7
SCL	125	96	7	96	192	7
TTP	125	192	0	C	1	M1
XST	125	288	7
SCL	125	288	7	96	192	7
TTP	126	0	0	C	1	M1
XST	126	96	7
SCL	126	96	7	96	192	7
TTP	126	192	0	C	1	M1
XST	126	288	7
SCL	126	288	7	96	192	7
TTP	127	0	0	C	1	M1
XTP	127	96	7
XTP	127	192	3
XTP	127	288	7
STR	128	0	2
SI_	128	0	2	96	48	0
TAP	128	96	7
STR	128	192	5
SI_	128	192	5	96	48	7
TAP	128	288	0
STR	129	0	3
SI_	129	0	3	96	48	1
TAP	129	96	7
STR	129	192	4
SI_	129	192	4	96	48	6
TAP	129	288	0
TAP	130	0	0
TAP	130	96	1
TAP	130	96	5
TAP	130	192	2
TAP	130	192	6
TAP	130	288	3
TAP	130	288	7
STR	131	0	0
SCL	131	0	0	96	96	5
STR	131	0	4
SCL	131	0	4	96	96	1
XTP	131	96	0
XTP	131	96	4
XST	131	288	0
SCR	131	288	0	96	96	4
BST	132	0	4
SCR	132	0	4	96	96	0
XST	132	96	0
SCR	132	96	0	96	192	0
TTP	132	192	0	C	1	M1
XST	132	288	0
SCR	132	288	0	96	192	0
TTP	133	0	0	C	1	M1
XST	133	96	0
SCR	133	96	0	96	192	0
TTP	133	192	0	C	1	M1
XST	133	288	0
SCR	133	288	0	96	192	0
TTP	134	0	0	C	1	M1
XST	134	96	0
SCR	134	96	0	96	192	0
TTP	134	192	0	C	1	M1
XST	134	288	0
SCR	134	288	0	96	192	0
TTP	135	0	0	C	1	M1
XTP	135	96	0
XTP	135	192	4
XTP	135	288	0
XTP	136	0	5
TTP	136	96	5	E	0	M1
TTP	136	192	4	E	0	M1
TTP	136	288	3	E	0	M1
THO	137	0	0	192	C	0	M1
STR	138	0	1
SI_	138	0	1	96	48	3
STR	138	0	6
SI_	138	0	6	96	48	4
STR	138	192	0
SI_	138	192	0	96	48	4
STR	138	192	7
SI_	138	192	7	96	48	3
STR	139	0	0
SCR	139	0	0	96	48	3
STR	139	0	7
SCL	139	0	7	96	48	4
TAP	139	192	0
TAP	139	224	7
TAP	139	256	0
TAP	139	288	7
TAP	140	0	2
TAP	140	64	2
TAP	140	96	5
TAP	140	160	5
TAP	140	192	3
TAP	140	256	3
TAP	140	288	4
TAP	140	352	4
TAP	141	0	2
TAP	141	64	2
TAP	141	96	3
TAP	141	160	1
TAP	141	192	0
TAP	141	256	6
TAP	141	288	7
TAP	141	352	5
TAP	142	0	4
TAP	142	64	4
TAP	142	96	6
TAP	142	160	6
TAP	142	192	3
TAP	142	256	3
TAP	142	288	5
TAP	142	352	5
TAP	143	0	4
TAP	143	64	6
TAP	143	96	7
TAP	143	160	1
TAP	143	192	0
TAP	143	256	2
TAP	143	288	3
TAP	143	352	3
TAP	144	0	2
TAP	144	64	2
TAP	144	96	4
TAP	144	160	4
TAP	144	192	3
TAP	144	256	3
TAP	144	288	5
TAP	144	352	5
TAP	145	0	4
TAP	145	64	4
TAP	145	96	6
TAP	145	160	6
TAP	145	192	1
TAP	145	256	1
TAP	145	288	5
TAP	145	352	5
TAP	146	0	4
TAP	146	64	4
TAP	146	96	5
TAP	146	160	1
TAP	146	192	3
TAP	146	256	6
TAP	146	288	4
TAP	146	352	0
TAP	147	0	3
TAP	147	64	7
TAP	147	96	4
TAP	147	160	2
TAP	147	192	3
TAP	147	256	3
TAP	147	288	1
TAP	147	352	1
TAP	148	0	6
TAP	148	96	5
TAP	148	128	4
TAP	148	160	5
TAP	148	192	4
TAP	148	288	2
TAP	148	320	3
TAP	148	352	2
TAP	149	0	3
TAP	149	96	5
TAP	149	128	4
TAP	149	160	5
TAP	149	192	4
TAP	149	288	2
TAP	149	320	3
TAP	149	352	2
TAP	150	0	3
TAP	150	96	6
TAP	150	128	4
TAP	150	160	5
TAP	150	192	4
TAP	150	288	1
TAP	150	320	3
TAP	150	352	2
TAP	151	0	3
TAP	151	96	6
TAP	151	128	4
TAP	151	160	5
TAP	151	192	4
TAP	151	288	1
TAP	151	320	3
TAP	151	352	2
TAP	152	0	3
TAP	152	96	5
TAP	152	128	4
TAP	152	160	6
TAP	152	192	4
TAP	152	288	2
TAP	152	320	3
TAP	152	352	1
TAP	153	0	3
TAP	153	96	5
TAP	153	128	4
TAP	153	160	5
TAP	153	192	4
TAP	153	288	2
TAP	153	320	3
TAP	153	352	2
TAP	154	0	3
TAP	154	64	6
TAP	154	96	7
TAP	154	160	5
TAP	154	192	4
TAP	154	256	1
TAP	154	288	0
TAP	154	352	2
TAP	155	0	3
TAP	155	96	6
TAP	155	128	4
TAP	155	160	5
TAP	155	192	2
TAP	155	224	3
TAP	155	256	1
TAP	155	288	5
TAP	155	320	4
TAP	155	352	6
BRK	156	0	0

T_REC_TAP	530
T_REC_BRK	7
T_REC_XTP	51
T_REC_HLD	64
T_REC_XHO	3
T_REC_STR	46
T_REC_BST	2
T_REC_XST	55
T_REC_TTP	35
T_REC_THO	1
T_REC_SLD	103
T_REC_ALL	897
T_NUM_TAP	717
T_NUM_BRK	9
T_NUM_HLD	68
T_NUM_SLD	103
T_NUM_ALL	897
T_JUDGE_TAP	726
T_JUDGE_HLD	81
T_JUDGE_SLD	103
T_JUDGE_ALL	910
TTM_EACHPAIRS	92
TTM_SCR_TAP	358500
TTM_SCR_BRK	23400
TTM_SCR_HLD	68000
TTM_SCR_SLD	154500
TTM_SCR_ALL	604400
TTM_SCR_S	585400
TTM_SCR_SS	603500
TTM_RAT_ACV	10014

