VERSION	0.00.00	1.03.00
FES_MODE	0
BPM_DEF	288.000	288.000	288.000	288.000
MET_DEF	4	4
RESOLUTION	384
CLK_DEF	0
COMPATIBLE_CODE	MA2

BPM	0	0	288.000
MET	0	0	4	4
CLK	0	0
CLK	0	96
CLK	0	192
CLK	0	288

STR	4	0	6
SSL	4	0	6	96	480	2
TTP	5	0	3	E	0	M1
STR	6	0	1
SSR	6	0	1	96	480	5
TTP	7	0	5	E	0	M1
STR	8	0	6
SXL	8	0	6	96	480	3
TTP	9	0	2	B	0	M1
STR	10	0	1
SI_	10	0	1	96	96	5
TTP	11	0	6	B	0	M1
TTP	11	96	1	B	0	M1
TTP	11	192	4	B	0	M1
TTP	11	288	3	B	0	M1
TAP	12	0	5
TAP	12	96	3
TAP	12	160	4
TAP	12	192	2
TAP	12	288	4
TAP	12	352	3
TAP	13	0	5
TAP	13	96	3
TAP	13	160	4
TAP	13	192	2
TAP	13	288	5
TAP	13	352	4
TAP	14	0	6
TAP	14	96	2
TAP	14	160	3
TAP	14	192	1
TAP	14	288	5
TAP	14	352	4
TAP	15	0	6
TAP	15	96	2
TAP	15	160	3
TAP	15	192	1
TAP	15	288	5
TAP	15	352	4
TAP	16	0	6
TAP	16	96	3
TAP	16	160	4
TAP	16	192	2
TAP	16	288	4
TAP	16	352	3
TAP	17	0	5
TAP	17	96	2
TAP	17	160	3
TAP	17	192	1
TAP	17	288	4
TAP	17	352	3
HLD	18	0	5	160
TAP	18	96	4
TAP	18	160	4
TAP	18	256	5
TAP	18	288	4
TAP	19	0	4
TAP	19	0	5
TTP	19	192	2	B	0	M1
TTP	19	192	3	B	0	M1
TTP	19	192	3	E	0	M1
TTP	19	192	6	B	0	M1
TTP	19	192	7	E	0	M1
TTP	19	192	7	B	0	M1
HLD	20	0	5	96
TAP	20	96	3
TAP	20	160	4
HLD	20	192	2	96
TAP	20	288	4
TAP	20	352	3
HLD	21	0	5	96
TAP	21	96	3
TAP	21	160	4
HLD	21	192	2	96
TAP	21	288	5
TAP	21	352	4
HLD	22	0	6	96
TAP	22	96	2
TAP	22	160	3
HLD	22	192	1	96
TAP	22	288	5
TAP	22	352	4
HLD	23	0	6	96
TAP	23	96	2
TAP	23	160	3
HLD	23	192	1	96
TAP	23	288	5
TAP	23	352	4
HLD	24	0	6	96
TAP	24	96	3
TAP	24	160	4
HLD	24	192	2	96
TAP	24	288	4
TAP	24	352	3
HLD	25	0	5	96
TAP	25	96	2
TAP	25	160	3
HLD	25	192	1	96
TAP	25	288	4
TAP	25	352	3
TAP	26	0	5
TAP	26	96	5
TAP	26	192	0
TAP	26	192	6
TAP	26	288	0
TAP	26	288	6
TAP	27	0	1
TAP	27	96	1
TAP	27	192	2
TAP	27	192	4
TAP	27	288	2
TAP	27	288	4
HLD	28	0	3	480
TAP	28	96	5
TAP	28	288	4
STR	29	96	2
SCR	29	96	2	96	96	5
TAP	29	192	0
HLD	30	0	4	480
TAP	30	96	2
TAP	30	288	3
STR	31	96	5
SCL	31	96	5	96	96	2
TAP	31	192	7
HLD	32	0	1	192
TAP	32	96	3
HLD	32	192	6	192
TAP	32	288	4
TAP	33	0	3
STR	33	96	2
SCR	33	96	2	96	96	5
TAP	33	192	0
TAP	34	0	6
TAP	34	96	5
TAP	34	192	4
TAP	34	288	0
TAP	35	0	1
TAP	35	96	2
HLD	35	160	2	128
TAP	35	288	3
TAP	36	0	2
TAP	36	0	3
TAP	36	96	4
TAP	36	192	2
TAP	36	192	3
TAP	36	288	1
TAP	37	0	2
TAP	37	0	3
STR	37	96	4
SI_	37	96	4	96	48	0
TAP	37	192	6
TAP	38	0	4
TAP	38	0	5
TAP	38	96	3
TAP	38	192	4
TAP	38	192	5
TAP	38	288	6
TAP	39	0	4
TAP	39	0	5
STR	39	96	3
SI_	39	96	3	96	48	7
TAP	39	192	1
TAP	40	0	3
STR	40	96	3
SI_	40	96	3	96	48	7
TAP	40	192	4
STR	40	288	4
SI_	40	288	4	96	48	0
TAP	41	0	2
STR	41	96	2
SI_	41	96	2	96	48	7
TAP	41	192	5
STR	41	288	5
SI_	41	288	5	96	48	0
TAP	42	0	2
STR	42	96	2
SCL	42	96	2	96	192	5
BRK	43	192	1
BRK	43	192	6
STR	44	0	1
SCR	44	0	1	96	96	4
TAP	44	192	7
STR	45	0	6
SCL	45	0	6	96	96	3
TAP	45	192	0
STR	46	0	1
SXL	46	0	1	96	480	4
STR	46	0	5
SXL	46	0	5	96	480	0
TAP	48	0	7
TAP	48	96	6
TAP	48	192	5
TAP	48	288	4
TAP	49	0	0
TAP	49	96	1
TAP	49	192	2
STR	49	288	3
SUR	49	288	3	96	288	5
HLD	50	0	4	288
XTP	51	96	1
XTP	51	96	6
STR	52	0	6
SCL	52	0	6	96	96	3
TAP	52	192	0
STR	53	0	1
SCR	53	0	1	96	96	4
TAP	53	192	7
STR	54	0	1
SLL	54	0	1	96	288	2
STR	54	0	5
SLL	54	0	5	96	288	6
TAP	55	192	0
TAP	55	288	0
TAP	56	0	1
TAP	56	0	7
TAP	56	96	2
TAP	56	96	6
TAP	56	192	3
TAP	56	192	5
TAP	56	288	4
TAP	57	0	6
TAP	57	0	7
TAP	57	96	0
TAP	57	96	5
TAP	57	192	1
TAP	57	192	4
STR	57	288	2
SCL	57	288	2	96	96	7
TAP	58	0	3
STR	58	96	4
SCR	58	96	4	96	96	7
TAP	58	192	3
STR	58	288	3
SCL	58	288	3	96	96	0
TAP	59	0	5
TAP	59	96	6
BRK	59	192	1
BRK	59	192	7
STR	60	0	1
SI_	60	0	1	96	96	4
TTP	60	96	0	E	0	M1
STR	60	192	6
SI_	60	192	6	96	96	3
TTP	60	288	0	E	0	M1
STR	61	0	1
SI_	61	0	1	96	96	4
TTP	61	96	0	E	0	M1
STR	61	192	6
SI_	61	192	6	96	96	3
TTP	61	288	0	E	0	M1
STR	62	0	1
SI_	62	0	1	96	96	4
TTP	62	96	0	E	0	M1
STR	62	192	6
SI_	62	192	6	96	96	3
TTP	62	288	0	E	0	M1
STR	63	0	1
SUR	63	0	1	96	288	4
HLD	63	96	7	192
HLD	64	0	6	160
TAP	64	96	5
TAP	64	160	5
TAP	64	256	3
TAP	64	288	4
HLD	65	0	1	160
TAP	65	96	0
TAP	65	160	0
TAP	65	256	3
TAP	65	288	4
TAP	66	0	4
TAP	66	0	5
TAP	66	96	0
TAP	66	96	6
TAP	66	192	2
TAP	66	192	3
TAP	66	288	0
TAP	66	288	7
STR	67	0	1
SUR	67	0	1	96	96	5
TAP	67	0	6
HLD	67	96	7	192
TAP	67	288	0
STR	68	0	6
SI_	68	0	6	96	96	3
TTP	68	96	0	E	0	M1
STR	68	192	1
SI_	68	192	1	96	96	4
TTP	68	288	0	E	0	M1
STR	69	0	6
SI_	69	0	6	96	96	3
TTP	69	96	0	E	0	M1
STR	69	192	1
SI_	69	192	1	96	96	4
TTP	69	288	0	E	0	M1
STR	70	0	6
SI_	70	0	6	96	96	3
TTP	70	96	0	E	0	M1
STR	70	192	1
SI_	70	192	1	96	96	4
TTP	70	288	0	E	0	M1
STR	71	0	6
SUL	71	0	6	96	288	3
HLD	71	96	0	192
TAP	72	96	2
TAP	72	96	3
TAP	72	192	1
TAP	72	192	4
TAP	72	288	0
TAP	72	288	5
TAP	73	0	6
HLD	73	0	7	144
HLD	73	144	0	144
STR	73	288	1
SXR	73	288	1	96	576	6
TAP	76	0	5
TAP	76	64	4
TAP	76	96	5
TAP	76	192	4
TAP	76	192	6
TAP	76	288	3
TAP	77	0	2
TAP	77	64	3
TAP	77	96	2
HLD	77	192	1	96
HLD	77	192	4	96
TAP	78	0	2
TAP	78	64	3
TAP	78	96	2
TAP	78	192	1
TAP	78	192	3
TAP	78	288	4
TAP	79	0	5
TAP	79	64	4
TAP	79	96	5
HLD	79	192	3	96
HLD	79	192	6	96
TAP	80	0	5
TAP	80	64	4
TAP	80	96	5
TAP	80	192	4
TAP	80	192	6
TAP	80	288	3
TAP	81	0	2
TAP	81	64	3
TAP	81	96	2
HLD	81	192	1	864
TAP	81	192	4
TTP	82	0	7	B	0	M1
TTP	82	96	0	B	0	M1
TTP	82	192	6	B	0	M1
TTP	82	288	1	B	0	M1
TTP	83	0	5	B	0	M1
TTP	83	96	2	B	0	M1
TTP	83	192	4	B	0	M1
TTP	83	288	3	B	0	M1
TAP	84	0	5
TAP	84	64	4
STR	84	96	5
SI_	84	96	5	96	48	3
TAP	84	192	0
TAP	84	288	1
TAP	85	0	2
TAP	85	64	3
STR	85	96	2
SI_	85	96	2	96	48	4
TAP	85	192	7
TAP	86	0	6
TAP	86	64	7
STR	86	96	6
SI_	86	96	6	96	48	3
TAP	86	192	0
TAP	86	288	1
TAP	87	0	1
TAP	87	64	0
STR	87	96	1
SI_	87	96	1	96	48	4
TAP	87	192	7
TAP	88	0	5
TAP	88	64	4
STR	88	96	5
SI_	88	96	5	96	48	1
TAP	88	192	3
TAP	88	288	2
TAP	89	0	2
TAP	89	64	3
STR	89	96	2
SI_	89	96	2	96	48	6
HLD	89	192	5	864
TTP	90	0	0	B	0	M1
TTP	90	96	7	B	0	M1
TTP	90	192	1	B	0	M1
TTP	90	288	6	B	0	M1
TTP	91	0	2	B	0	M1
TTP	91	96	5	B	0	M1
TTP	91	192	3	B	0	M1
TTP	91	288	4	B	0	M1
TAP	92	0	1
TAP	92	0	3
TAP	92	96	2
TAP	92	192	4
TAP	92	192	6
STR	92	288	5
SXR	92	288	5	96	384	2
TAP	93	192	0
TAP	93	288	0
TAP	94	0	1
STR	94	96	1
SI_	94	96	1	96	48	7
TAP	94	192	6
STR	94	288	6
SI_	94	288	6	96	48	2
TAP	95	0	3
STR	95	96	3
SI_	95	96	3	96	48	5
TAP	95	192	7
TAP	96	0	4
TAP	96	0	6
TAP	96	96	5
TAP	96	192	1
TAP	96	192	3
TAP	96	288	2
STR	97	0	6
SI_	97	0	6	96	96	1
STR	97	96	2
SI_	97	96	2	96	96	5
TAP	97	288	7
STR	98	0	7
SXL	98	0	7	96	384	2
SXR	98	0	7	96	384	2
TTP	99	192	0	B	0	M1
TTP	99	192	1	E	0	M1
TTP	99	192	1	B	0	M1
TTP	99	192	5	B	0	M1
TTP	99	192	6	B	0	M1
TTP	99	192	6	E	0	M1
TAP	100	0	1
TAP	100	0	3
TAP	100	96	2
TAP	100	192	4
TAP	100	192	6
STR	100	288	5
SCL	100	288	5	96	96	2
TAP	101	0	0
STR	101	96	1
SI_	101	96	1	96	96	6
STR	101	192	5
SI_	101	192	5	96	96	2
TAP	102	0	1
STR	102	96	1
SI_	102	96	1	96	48	7
TAP	102	192	6
STR	102	288	5
SSR	102	288	5	96	192	1
TAP	103	0	1
TAP	103	96	0
TAP	103	192	0
TAP	103	288	7
TAP	104	0	4
TAP	104	0	6
TAP	104	96	5
TAP	104	192	1
TAP	104	192	3
TAP	104	288	2
HLD	105	0	3	48
HLD	105	0	5	48
HLD	105	96	2	48
HLD	105	96	4	48
HLD	105	192	3	48
HLD	105	192	5	48
HLD	105	288	2	48
HLD	105	288	4	48
TAP	106	0	5
TAP	106	48	4
TAP	106	96	6
TAP	106	144	3
TAP	106	192	4
TAP	106	240	2
TAP	106	288	3
TAP	106	336	1
TAP	107	0	7
TAP	107	96	1
TAP	107	96	6
TAP	107	192	2
TAP	107	192	5
TAP	107	288	3
TAP	107	288	4
HLD	108	0	3	768
HLD	110	0	4	768
TAP	112	0	3
TAP	112	192	3
TAP	113	0	3
TAP	113	192	3
TAP	114	0	4
TAP	114	192	4
TAP	115	0	3
TAP	115	96	3
TAP	115	192	4
TAP	115	288	4
TAP	116	0	3
TAP	116	64	4
TAP	116	96	3
TAP	116	160	4
TAP	116	192	3
TAP	116	256	4
TAP	116	288	3
TAP	116	352	4
TAP	117	0	3
TAP	117	64	4
TAP	117	96	3
TAP	117	160	4
TAP	117	192	3
TAP	117	256	4
TAP	117	288	3
TAP	117	352	4
TAP	118	0	3
TAP	118	64	4
TAP	118	96	3
TAP	118	160	4
TAP	118	192	3
TAP	118	256	4
TAP	118	288	3
TAP	118	352	4
TAP	119	0	3
TAP	119	64	4
TAP	119	96	3
TAP	119	160	4
TAP	119	192	3
TAP	119	288	2
TAP	119	288	5
TAP	120	0	3
TAP	120	64	4
TAP	120	96	3
TAP	120	160	5
TAP	120	192	1
TAP	120	256	6
TAP	120	288	1
TAP	120	352	7
TAP	121	0	0
TAP	121	24	1
TAP	121	48	2
TAP	121	72	3
TAP	121	96	4
TAP	121	120	5
TAP	121	144	6
TAP	121	168	7
TAP	121	192	0
TAP	121	216	1
TAP	121	240	2
TAP	121	264	3
TAP	121	288	4
TAP	121	312	5
TAP	121	336	6
TAP	121	360	7
XTP	122	0	0
XST	122	96	0
SI_	122	96	0	96	48	4
XTP	122	192	6
XST	122	288	6
SI_	122	288	6	96	48	2
XTP	123	0	0
XTP	123	96	0
BRK	123	192	1
BRK	123	192	7
STR	124	0	7
SI_	124	0	7	96	96	3
TTP	124	96	0	B	0	M1
STR	124	192	1
SI_	124	192	1	96	96	4
TTP	124	288	0	B	0	M1
STR	125	0	7
SI_	125	0	7	96	96	3
TTP	125	96	0	B	0	M1
STR	125	192	1
SI_	125	192	1	96	96	4
TTP	125	288	0	B	0	M1
STR	126	0	7
SI_	126	0	7	96	96	3
TTP	126	96	0	B	0	M1
STR	126	192	1
SI_	126	192	1	96	96	4
TTP	126	288	0	B	0	M1
STR	127	0	6
SXL	127	0	6	96	288	3
HLD	127	96	0	192
HLD	128	0	1	160
TAP	128	96	2
TAP	128	160	2
TAP	128	256	4
TAP	128	288	3
HLD	129	0	6	160
TAP	129	96	7
TAP	129	160	7
TAP	129	256	4
TAP	129	288	3
TAP	130	0	2
TAP	130	0	3
TAP	130	96	1
TAP	130	96	7
TAP	130	192	4
TAP	130	192	5
TAP	130	288	0
TAP	130	288	6
TAP	131	0	1
STR	131	0	6
SUL	131	0	6	96	96	2
HLD	131	96	0	192
TAP	131	288	7
STR	132	0	0
SI_	132	0	0	96	96	4
TTP	132	96	7	B	0	M1
STR	132	192	6
SI_	132	192	6	96	96	3
TTP	132	288	7	B	0	M1
STR	133	0	0
SI_	133	0	0	96	96	4
TTP	133	96	7	B	0	M1
STR	133	192	6
SI_	133	192	6	96	96	3
TTP	133	288	7	B	0	M1
STR	134	0	0
SI_	134	0	0	96	96	4
TTP	134	96	7	B	0	M1
STR	134	192	6
SI_	134	192	6	96	96	3
TTP	134	288	7	B	0	M1
STR	135	0	1
SXR	135	0	1	96	192	4
HLD	135	96	7	192
TAP	136	96	4
TAP	136	96	5
TAP	136	192	3
TAP	136	192	6
TAP	136	288	2
TAP	136	288	7
HLD	137	0	0	144
TAP	137	0	1
HLD	137	144	7	144
STR	137	288	6
SXL	137	288	6	96	576	1
TAP	140	0	2
TAP	140	64	3
TAP	140	96	2
TAP	140	192	5
TAP	140	256	4
TAP	140	288	5
TAP	141	0	2
TAP	141	64	3
TAP	141	96	2
TTP	141	192	0	E	0	M1
TTP	141	192	0	C	1	M1
TTP	141	192	6	E	0	M1
TTP	141	192	6	B	0	M1
TTP	141	192	7	B	0	M1
TAP	142	0	5
TAP	142	64	4
TAP	142	96	5
TAP	142	192	2
TAP	142	256	3
TAP	142	288	2
TAP	143	0	5
TAP	143	64	4
TAP	143	96	5
TTP	143	192	0	B	0	M1
TTP	143	192	0	E	0	M1
TTP	143	192	0	C	1	M1
TTP	143	192	1	B	0	M1
TTP	143	192	2	E	0	M1
TAP	144	0	2
TAP	144	64	3
TAP	144	96	2
TAP	144	192	5
TAP	144	256	4
TAP	144	288	5
TAP	145	0	2
TAP	145	64	3
TAP	145	96	1
TAP	145	192	5
TAP	145	256	4
STR	145	288	6
SI_	145	288	6	96	48	3
BRK	146	0	1
STR	146	96	2
SI_	146	96	2	96	48	7
BRK	146	192	6
STR	146	288	5
SI_	146	288	5	96	48	0
BRK	147	0	2
STR	147	96	1
SI_	147	96	1	96	48	4
BRK	147	192	7
TAP	147	288	6
TAP	148	0	5
HLD	148	96	5	480
TAP	148	192	3
TAP	148	288	3
TAP	149	0	4
TAP	149	96	4
TTP	149	192	0	B	0	M1
TTP	149	192	0	C	0	M1
TAP	150	0	2
HLD	150	96	2	480
TAP	150	192	4
TAP	150	288	4
TAP	151	0	3
TAP	151	96	3
TTP	151	192	0	C	0	M1
TTP	151	192	7	B	0	M1
TAP	152	0	6
HLD	152	96	6	288
TTP	152	192	0	C	0	M1
TTP	152	192	0	B	0	M1
TAP	153	0	1
HLD	153	96	1	960
TTP	153	192	0	C	0	M1
TTP	153	192	7	B	0	M1
TTP	154	0	3	B	0	M1
TTP	154	96	4	B	0	M1
TTP	154	192	2	B	0	M1
TTP	154	288	5	B	0	M1
TTP	155	0	1	B	0	M1
TTP	155	96	6	B	0	M1
TTP	155	192	0	B	0	M1
TTP	155	288	7	B	0	M1
TTP	156	0	0	C	1	M1
TTP	156	0	3	B	0	M1
TTP	156	0	4	B	0	M1

T_REC_TAP	404
T_REC_BRK	10
T_REC_XTP	6
T_REC_HLD	53
T_REC_XHO	0
T_REC_STR	80
T_REC_BST	0
T_REC_XST	2
T_REC_TTP	88
T_REC_THO	0
T_REC_SLD	83
T_REC_ALL	726
T_NUM_TAP	580
T_NUM_BRK	10
T_NUM_HLD	53
T_NUM_SLD	83
T_NUM_ALL	726
T_JUDGE_TAP	590
T_JUDGE_HLD	130
T_JUDGE_SLD	83
T_JUDGE_ALL	803
TTM_EACHPAIRS	63
TTM_SCR_TAP	290000
TTM_SCR_BRK	26000
TTM_SCR_HLD	53000
TTM_SCR_SLD	124500
TTM_SCR_ALL	493500
TTM_SCR_S	477750
TTM_SCR_SS	492500
TTM_RAT_ACV	10020

