VERSION	0.00.00	1.03.00
FES_MODE	0
BPM_DEF	288.000	288.000	288.000	288.000
MET_DEF	4	4
RESOLUTION	384
CLK_DEF	384
COMPATIBLE_CODE	MA2

BPM	0	0	288.000
MET	0	0	4	4

HLD	4	0	0	192
HLD	4	192	1	192
STR	5	0	2
SCR	5	0	2	96	192	5
HLD	6	0	7	192
HLD	6	192	6	192
STR	7	0	5
SCL	7	0	5	96	192	2
HLD	8	0	0	192
HLD	8	192	1	192
STR	9	0	2
SCR	9	0	2	96	192	5
XTP	10	48	1
XTP	10	48	6
TAP	11	0	0
TAP	11	96	1
TAP	11	192	2
TAP	11	288	3
TAP	12	0	4
TAP	12	0	5
TAP	12	192	1
TAP	12	192	7
TAP	13	0	2
TAP	13	96	3
TAP	13	192	1
TAP	13	192	4
TAP	14	0	2
TAP	14	0	3
TAP	14	192	0
TAP	14	192	6
TAP	15	0	5
TAP	15	96	4
TAP	15	192	3
TAP	15	192	6
STR	16	0	5
SCR	16	0	5	96	192	0
TAP	16	192	3
STR	17	0	2
SCL	17	0	2	96	192	7
TAP	17	192	4
TAP	18	0	5
TAP	18	96	5
TAP	18	192	2
TAP	18	288	2
STR	19	0	3
SCL	19	0	3	96	192	0
STR	19	0	4
SCR	19	0	4	96	192	7
TAP	20	0	0
TAP	20	0	7
TAP	20	192	1
TAP	20	192	3
TAP	21	0	6
TAP	21	96	7
TAP	21	192	0
TAP	21	192	5
TAP	22	0	0
TAP	22	0	7
TAP	22	192	4
TAP	22	192	6
TAP	23	0	1
TAP	23	96	0
TAP	23	192	2
TAP	23	192	7
TAP	24	0	0
STR	24	0	6
SCL	24	0	6	96	192	3
TAP	24	192	2
STR	25	0	1
SCR	25	0	1	96	192	4
TAP	25	0	7
TAP	25	192	5
TAP	26	0	6
TAP	26	96	6
TAP	26	192	3
TAP	26	288	3
TAP	27	0	4
TAP	27	96	4
TAP	27	192	3
TAP	27	192	5
TAP	28	0	2
TAP	28	96	3
TAP	28	192	2
TAP	28	192	4
TAP	29	0	4
STR	29	96	3
SI_	29	96	3	96	96	1
TAP	29	96	5
TAP	30	0	3
TAP	30	96	4
TAP	30	192	3
TAP	30	192	5
TAP	31	0	3
TAP	31	96	2
STR	31	96	4
SI_	31	96	4	96	96	6
TAP	32	0	4
TAP	32	96	3
TAP	32	192	1
TAP	32	288	2
TAP	33	0	7
TAP	33	96	6
TAP	33	192	3
TAP	33	192	5
STR	34	0	4
SI_	34	0	4	96	96	7
STR	34	192	3
SI_	34	192	3	96	96	0
STR	35	0	4
SI_	35	0	4	96	96	7
XTP	35	192	0
TAP	36	0	3
TAP	36	96	4
TAP	36	192	2
TAP	36	288	3
TAP	37	0	4
TAP	37	0	6
STR	37	96	4
SI_	37	96	4	96	96	2
TAP	37	96	6
TAP	38	0	4
TAP	38	96	3
TAP	38	192	5
TAP	38	288	4
TAP	39	0	1
TAP	39	0	3
TAP	39	96	1
STR	39	96	3
SI_	39	96	3	96	96	5
TAP	40	0	3
HLD	40	96	4	192
TAP	40	288	2
TAP	41	0	1
TAP	41	0	3
TAP	41	96	4
TAP	41	192	3
TAP	41	288	2
TAP	42	0	1
HLD	42	0	3	192
HLD	42	192	4	192
HLD	43	0	6	192
BRK	43	192	1
HLD	44	0	3	384
TTP	44	192	1	B	0	M1
TTP	44	192	2	B	0	M1
HLD	45	0	4	384
TTP	45	192	5	B	0	M1
TTP	45	192	6	B	0	M1
TTP	46	0	3	E	0	M1
TTP	46	192	4	E	0	M1
TTP	47	0	5	E	0	M1
TAP	47	192	2
TAP	47	192	5
STR	48	0	5
SCL	48	0	5	96	192	2
TAP	48	192	0
STR	49	0	1
SUR	49	0	1	96	192	5
TAP	49	192	7
HLD	50	0	4	192
TAP	50	0	6
HLD	50	192	3	192
HLD	51	0	1	192
TAP	51	192	6
HLD	52	0	4	384
TTP	52	192	5	B	0	M1
TTP	52	192	6	B	0	M1
HLD	53	0	3	384
TTP	53	192	1	B	0	M1
TTP	53	192	2	B	0	M1
TTP	54	0	5	E	0	M1
TTP	54	192	4	E	0	M1
TTP	55	0	3	E	0	M1
TAP	55	192	3
TAP	55	288	3
HLD	56	0	2	192
TAP	56	192	4
TAP	56	288	4
HLD	57	0	5	192
TAP	57	192	2
TAP	57	288	2
XHO	58	0	3	96
XHO	58	0	4	96
XHO	58	192	2	96
XHO	58	192	5	96
XHO	59	0	1	96
XHO	59	0	6	96
BRK	59	192	3
BRK	59	192	4
XTP	60	0	1
TAP	60	96	0
TAP	60	192	2
TAP	60	192	7
XTP	60	288	6
TAP	61	0	7
TAP	61	96	0
TAP	61	96	5
TAP	61	192	1
TAP	61	288	2
TAP	61	288	3
TAP	62	0	4
TAP	62	96	2
TAP	62	96	3
TAP	62	192	1
TAP	62	288	2
TAP	62	288	3
TAP	63	0	4
STR	63	96	2
SI_	63	96	2	96	96	0
STR	63	96	3
SI_	63	96	3	96	96	7
HLD	64	0	6	144
HLD	64	144	5	144
TAP	64	288	4
HLD	65	0	1	144
HLD	65	144	2	144
TAP	65	288	3
TAP	66	0	3
TAP	66	0	4
TAP	66	96	2
TAP	66	96	5
TAP	66	192	1
TAP	66	192	6
TAP	66	288	0
STR	66	288	7
SCL	66	288	7	96	96	4
HLD	67	96	3	192
BRK	67	288	7
XTP	68	0	6
TAP	68	96	7
TAP	68	192	0
TAP	68	192	5
XTP	68	288	1
TAP	69	0	0
TAP	69	96	2
TAP	69	96	7
TAP	69	192	6
TAP	69	288	4
TAP	69	288	5
TAP	70	0	3
TAP	70	96	4
TAP	70	96	5
TAP	70	192	6
HLD	70	288	4	96
HLD	70	288	5	96
HLD	71	96	1	96
HLD	71	96	3	96
TAP	71	288	2
TAP	71	288	6
TAP	72	96	3
TAP	72	192	4
TAP	72	288	3
HLD	73	0	1	144
TAP	73	0	6
HLD	73	144	2	144
TAP	73	288	3
TAP	74	0	3
TAP	74	0	4
TAP	74	192	2
TAP	74	192	5
TAP	75	0	1
TAP	75	0	6
TAP	75	96	1
TAP	75	96	6
HLD	75	192	3	96
HLD	75	192	4	96
TAP	76	0	1
TAP	76	96	1
TAP	76	192	2
TAP	76	192	4
TAP	77	0	6
TAP	77	96	6
TAP	77	192	3
TAP	77	192	5
TAP	78	0	1
TAP	78	0	4
TAP	78	192	3
TAP	78	192	6
TAP	79	0	2
TAP	79	96	3
TAP	79	192	1
TAP	79	192	4
TTP	80	0	5	E	0	M1
TTP	80	0	6	E	0	M1
TTP	80	192	1	E	0	M1
TTP	80	192	2	E	0	M1
TTP	81	0	3	E	0	M1
TTP	81	0	4	E	0	M1
TTP	81	192	0	E	0	M1
TTP	81	192	7	E	0	M1
TAP	82	0	5
TAP	82	96	5
TAP	82	192	3
TAP	82	288	3
TAP	83	0	4
TAP	83	96	4
TAP	83	192	2
TAP	83	192	3
TAP	84	0	5
TAP	84	96	4
TAP	84	192	3
TAP	84	192	6
TAP	85	0	6
TAP	85	96	7
TAP	85	192	0
TAP	85	192	5
TAP	86	0	1
TAP	86	96	0
TAP	86	192	2
TAP	86	192	7
TAP	87	0	5
TAP	87	96	4
TAP	87	192	3
TAP	87	192	6
TTP	88	0	2	E	0	M1
TTP	88	0	3	E	0	M1
TTP	88	192	6	E	0	M1
TTP	88	192	7	E	0	M1
TTP	89	0	4	E	0	M1
TTP	89	0	5	E	0	M1
TTP	89	192	0	E	0	M1
TTP	89	192	1	E	0	M1
TAP	90	0	2
TAP	90	96	2
TAP	90	192	4
TAP	90	288	4
TAP	91	0	3
TAP	91	96	3
TAP	91	192	4
TAP	91	192	5
HLD	92	0	3	192
TAP	92	192	4
TAP	93	0	5
TAP	93	96	5
TAP	93	192	4
TAP	93	192	6
HLD	94	0	5	192
TAP	94	192	4
TAP	95	0	2
TAP	95	96	3
TAP	95	192	1
TAP	95	192	4
HLD	96	0	1	192
TAP	96	192	2
TAP	97	0	5
TAP	97	96	4
TAP	97	192	3
TAP	97	192	6
STR	98	0	1
SUR	98	0	1	96	480	3
STR	98	0	4
SCR	98	0	4	96	480	1
HLD	100	0	4	192
TAP	100	192	3
TAP	101	0	2
TAP	101	96	2
TAP	101	192	1
TAP	101	192	3
HLD	102	0	2	192
TAP	102	192	3
TAP	103	0	5
TAP	103	96	4
TAP	103	192	3
TAP	103	192	6
HLD	104	0	6	192
TAP	104	192	5
TAP	105	0	2
TAP	105	96	3
TAP	105	192	1
TAP	105	192	4
TAP	106	0	3
HLD	106	0	6	192
HLD	106	192	4	192
HLD	107	0	3	192
HLD	107	192	1	192
STR	108	0	6
SCL	108	0	6	96	192	3
STR	109	0	0
SCR	109	0	0	96	192	3
STR	110	0	7
SCL	110	0	7	96	192	4
STR	111	0	1
SCR	111	0	1	96	192	4
TTP	112	0	5	B	0	M1
TTP	112	0	6	B	0	M1
TTP	112	0	7	B	0	M1
TTP	113	0	0	B	0	M1
TTP	113	0	1	B	0	M1
TTP	113	0	2	B	0	M1
TTP	114	0	3	E	0	M1
TTP	114	0	4	E	0	M1
TTP	114	0	5	E	0	M1
TAP	115	0	3
TAP	115	0	4
TAP	115	192	2
TAP	115	192	5
TAP	116	0	1
TAP	116	0	6
TAP	116	192	2
TAP	116	192	3
TAP	117	0	1
TAP	117	0	6
TAP	117	192	4
TAP	117	192	5
TAP	118	0	0
TAP	118	0	7
TAP	118	192	1
TAP	118	192	3
TAP	119	0	0
TAP	119	0	7
TAP	119	192	4
TAP	119	192	6
HLD	120	0	0	144
HLD	120	144	1	144
TAP	120	288	2
HLD	121	0	6	144
HLD	121	144	5	144
TAP	121	288	4
HLD	122	0	2	144
HLD	122	144	3	144
TAP	122	288	4
TAP	123	0	3
TAP	123	0	4
BRK	123	192	1
BRK	123	192	6
XTP	124	0	6
TAP	124	96	7
TAP	124	192	0
TAP	124	192	5
XTP	124	288	1
TAP	125	0	0
TAP	125	96	2
TAP	125	96	7
TAP	125	192	6
TAP	125	288	4
TAP	125	288	5
TAP	126	0	3
TAP	126	96	4
TAP	126	96	5
TAP	126	192	6
TAP	126	288	4
TAP	126	288	5
TAP	127	0	3
STR	127	96	4
SI_	127	96	4	96	96	0
STR	127	96	5
SI_	127	96	5	96	96	7
HLD	128	0	1	144
HLD	128	144	2	144
TAP	128	288	3
HLD	129	0	6	144
HLD	129	144	5	144
TAP	129	288	4
TAP	130	0	3
TAP	130	0	4
TAP	130	96	2
TAP	130	96	5
TAP	130	192	1
TAP	130	192	6
STR	130	288	0
SCR	130	288	0	96	96	3
TAP	130	288	7
HLD	131	96	4	192
BRK	131	288	0
XTP	132	0	1
TAP	132	96	0
TAP	132	192	2
TAP	132	192	7
XTP	132	288	6
TAP	133	0	7
TAP	133	96	0
TAP	133	96	5
TAP	133	192	1
TAP	133	288	2
TAP	133	288	3
TAP	134	0	4
TAP	134	96	2
TAP	134	96	3
TAP	134	192	1
HLD	134	288	2	96
HLD	134	288	3	96
HLD	135	96	4	96
HLD	135	96	6	96
TAP	135	288	1
TAP	135	288	5
TAP	136	96	4
TAP	136	192	3
TAP	136	288	4
TAP	137	0	1
HLD	137	0	6	144
HLD	137	144	5	144
TAP	137	288	4
TAP	138	0	3
TAP	138	0	4
TAP	138	192	2
TAP	138	192	5
TAP	139	0	1
TAP	139	0	6
STR	139	96	1
SI_	139	96	1	96	96	4
STR	139	96	6
SI_	139	96	6	96	96	3
TAP	140	0	1
TAP	140	96	1
TAP	140	192	4
TAP	140	288	4
TAP	141	0	2
TAP	141	96	2
TAP	141	192	1
TAP	141	192	3
TAP	142	0	6
TAP	142	96	6
TAP	142	192	3
TAP	142	288	3
TAP	143	0	5
TAP	143	96	5
TAP	143	192	4
TAP	143	192	6
TTP	144	0	2	E	0	M1
TTP	144	0	3	B	0	M1
TTP	144	192	4	B	0	M1
TTP	144	192	6	E	0	M1
TTP	145	0	0	B	0	M1
TTP	145	0	2	E	0	M1
TTP	145	192	6	E	0	M1
TTP	145	192	7	B	0	M1
TAP	146	0	5
TAP	146	96	5
TAP	146	192	3
TAP	146	288	3
TAP	147	0	4
TAP	147	96	4
TAP	147	192	2
TAP	147	288	2
TAP	148	96	1
TAP	148	96	4
HLD	148	192	1	96
HLD	148	192	4	96
HLD	149	0	2	96
HLD	149	0	3	96
HLD	149	192	1	96
HLD	149	192	4	96
TAP	150	96	3
TAP	150	96	6
HLD	150	192	3	96
HLD	150	192	6	96
HLD	151	0	4	96
HLD	151	0	5	96
HLD	151	192	3	96
HLD	151	192	6	96
TAP	152	96	3
TAP	152	96	4
HLD	152	192	3	96
HLD	152	192	4	96
HLD	153	0	2	96
HLD	153	0	5	96
HLD	153	192	1	96
HLD	153	192	6	96
TTP	154	0	1	E	0	M1
TTP	154	96	7	E	0	M1
TTP	154	192	2	E	0	M1
TTP	154	288	6	E	0	M1
TTP	155	0	3	E	0	M1
TTP	155	96	5	E	0	M1
TTP	155	192	0	E	0	M1
TTP	155	288	4	E	0	M1
BRK	156	0	1
BRK	156	0	5

T_REC_TAP	346
T_REC_BRK	9
T_REC_XTP	11
T_REC_HLD	77
T_REC_XHO	6
T_REC_STR	32
T_REC_BST	0
T_REC_XST	0
T_REC_TTP	55
T_REC_THO	0
T_REC_SLD	32
T_REC_ALL	568
T_NUM_TAP	444
T_NUM_BRK	9
T_NUM_HLD	83
T_NUM_SLD	32
T_NUM_ALL	568
T_JUDGE_TAP	453
T_JUDGE_HLD	140
T_JUDGE_SLD	32
T_JUDGE_ALL	625
TTM_EACHPAIRS	125
TTM_SCR_TAP	222000
TTM_SCR_BRK	23400
TTM_SCR_HLD	83000
TTM_SCR_SLD	48000
TTM_SCR_ALL	376400
TTM_SCR_S	364250
TTM_SCR_SS	375500
TTM_RAT_ACV	10023

