VERSION	0.00.00	1.03.00
FES_MODE	0
BPM_DEF	288.000	288.000	288.000	288.000
MET_DEF	4	4
RESOLUTION	384
CLK_DEF	384
COMPATIBLE_CODE	MA2

BPM	0	0	288.000
MET	0	0	4	4
CLK	0	0
CLK	0	96
CLK	0	192
CLK	0	288

TAP	12	0	2
TAP	12	192	3
TAP	13	0	2
TAP	13	0	3
TAP	14	0	5
TAP	14	192	4
TAP	15	0	4
TAP	15	0	5
TAP	16	0	2
TAP	16	192	3
TAP	17	0	5
TAP	17	192	4
TAP	18	0	3
TAP	18	0	4
TAP	18	192	3
TAP	18	192	4
TAP	19	0	2
TAP	19	0	5
TAP	20	0	6
TAP	20	192	7
TAP	21	0	6
TAP	21	0	7
TAP	22	0	1
TAP	22	192	0
TAP	23	0	0
TAP	23	0	1
TAP	24	0	6
TAP	24	192	7
TAP	25	0	1
TAP	25	192	0
TAP	26	0	0
TAP	26	0	7
TAP	26	192	0
TAP	26	192	7
XTP	27	0	1
XTP	27	0	6
TTP	28	0	1	B	0	L1
TTP	28	192	0	C	0	L1
TTP	29	0	5	B	0	L1
TTP	30	0	6	B	0	L1
TTP	30	192	0	C	0	L1
TTP	31	0	2	B	0	L1
TTP	32	0	3	E	0	L1
TTP	32	0	5	E	0	L1
TTP	33	0	2	E	0	L1
TTP	33	0	6	E	0	L1
TTP	34	0	1	E	0	L1
TTP	34	0	7	E	0	L1
TTP	35	0	0	C	0	L1
TTP	36	0	2	B	0	L1
TTP	36	192	0	C	0	L1
TTP	37	0	6	B	0	L1
TTP	38	0	5	B	0	L1
TTP	38	192	0	C	0	L1
TTP	39	0	1	B	0	L1
TTP	40	0	4	B	0	L1
TTP	40	0	5	B	0	L1
TTP	41	0	2	B	0	L1
TTP	41	0	3	B	0	L1
TTP	42	0	1	B	0	L1
TTP	42	0	6	B	0	L1
TTP	43	0	0	C	1	L1
STR	44	0	7
SI_	44	0	7	96	480	4
STR	46	0	3
SI_	46	0	3	96	480	0
STR	48	0	6
SI_	48	0	6	96	480	1
STR	50	0	2
SI_	50	0	2	96	480	5
HLD	52	0	6	384
HLD	53	0	5	384
HLD	54	0	4	384
TAP	55	0	3
HLD	56	0	2	384
HLD	57	0	1	384
HLD	58	0	0	384
BRK	59	0	7
TAP	60	0	0
TAP	60	0	1
TAP	60	192	2
TAP	60	192	7
TAP	61	0	6
TAP	61	0	7
TAP	61	192	0
TAP	61	192	5
TAP	62	0	0
TAP	62	0	7
TAP	62	192	1
TAP	62	192	6
BRK	63	0	2
BRK	63	0	5
TAP	64	0	3
TAP	64	192	4
TAP	65	0	5
TAP	65	192	6
TAP	66	0	7
TAP	66	192	0
XTP	67	0	1
XTP	67	0	6
TAP	68	0	4
TAP	68	0	5
TAP	68	192	3
TAP	68	192	6
TAP	69	0	2
TAP	69	0	3
TAP	69	192	1
TAP	69	192	4
TAP	70	0	3
TAP	70	0	4
TAP	70	192	2
TAP	70	192	5
BRK	71	0	1
BRK	71	0	6
TAP	72	0	7
TAP	72	192	0
TAP	73	0	1
TAP	73	192	2
TAP	74	0	3
TAP	74	192	4
XTP	75	0	2
XTP	75	0	5
TTP	76	0	3	B	0	L1
TTP	76	192	4	B	0	L1
TTP	77	0	2	B	0	L1
TTP	77	0	5	B	0	L1
TTP	78	0	1	B	0	L1
TTP	78	192	6	B	0	L1
TTP	79	0	0	C	0	L1
TTP	80	0	6	B	0	L1
TTP	80	0	7	B	0	L1
TTP	81	0	0	B	0	L1
TTP	81	0	1	B	0	L1
TTP	82	0	2	B	0	L1
TTP	82	0	3	B	0	L1
TTP	83	0	4	B	0	L1
TTP	83	0	5	B	0	L1
HLD	84	0	2	384
TAP	84	192	3
TAP	85	0	3
HLD	86	0	5	384
TAP	86	192	4
TAP	87	0	4
HLD	88	0	3	192
HLD	88	0	4	192
XTP	89	0	2
XTP	89	0	5
THO	90	0	0	384	C	1	L1
STR	92	0	0
SXL	92	0	0	96	1056	5
STR	96	0	4
SXL	96	0	4	96	1056	1
STR	100	0	2
SXL	100	0	2	96	1056	7
STR	104	0	6
SXL	104	0	6	96	1056	3
HLD	108	0	2	768
HLD	110	0	3	768
HLD	112	0	4	768
HLD	114	0	5	384
TAP	115	0	4
TAP	116	0	5
TAP	116	192	5
TAP	117	0	4
TAP	118	0	2
TAP	118	192	2
TAP	119	0	3
TAP	120	0	3
TAP	120	0	4
TAP	120	192	3
TAP	120	192	4
TAP	121	0	2
TAP	121	0	5
TAP	121	192	2
TAP	121	192	5
TAP	122	0	1
TAP	122	0	6
TAP	122	192	1
TAP	122	192	6
BRK	123	0	0
BRK	123	0	7
TAP	124	0	0
TAP	124	0	1
TAP	124	192	2
TAP	124	192	7
TAP	125	0	6
TAP	125	0	7
TAP	125	192	0
TAP	125	192	5
TAP	126	0	0
TAP	126	0	7
TAP	126	192	1
TAP	126	192	6
BRK	127	0	2
BRK	127	0	5
TAP	128	0	0
TAP	128	192	1
TAP	129	0	2
TAP	129	192	3
TAP	130	0	4
TAP	130	96	4
TAP	130	192	4
XTP	131	0	3
XTP	131	0	5
TAP	132	0	4
TAP	132	0	5
TAP	132	192	3
TAP	132	192	6
TAP	133	0	2
TAP	133	0	3
TAP	133	192	1
TAP	133	192	4
TAP	134	0	3
TAP	134	0	4
TAP	134	192	2
TAP	134	192	5
BRK	135	0	1
BRK	135	0	6
TAP	136	0	4
TAP	136	192	5
TAP	137	0	6
TAP	137	192	7
STR	138	0	0
SI_	138	0	0	96	480	3
STR	138	0	7
SI_	138	0	7	96	480	4
TAP	140	0	6
TAP	140	192	7
TAP	141	0	6
TAP	141	0	7
TAP	142	0	1
TAP	142	192	0
TAP	143	0	0
TAP	143	0	1
TAP	144	0	6
TAP	144	192	7
TAP	145	0	1
TAP	145	192	0
TAP	146	0	0
TAP	146	0	7
TAP	146	192	0
TAP	146	192	7
TAP	147	0	1
TAP	147	0	6
TAP	148	0	2
TAP	148	192	3
TAP	149	0	2
TAP	149	0	3
TAP	150	0	5
TAP	150	192	4
TAP	151	0	4
TAP	151	0	5
TAP	152	0	2
TAP	152	192	3
TAP	153	0	5
TAP	153	192	4
TAP	154	0	3
TAP	154	0	4
TAP	154	192	3
TAP	154	192	4
XTP	155	0	2
XTP	155	0	5
TTP	156	0	0	C	1	L1

T_REC_TAP	163
T_REC_BRK	11
T_REC_XTP	12
T_REC_HLD	14
T_REC_XHO	0
T_REC_STR	10
T_REC_BST	0
T_REC_XST	0
T_REC_TTP	42
T_REC_THO	1
T_REC_SLD	10
T_REC_ALL	263
T_NUM_TAP	227
T_NUM_BRK	11
T_NUM_HLD	15
T_NUM_SLD	10
T_NUM_ALL	263
T_JUDGE_TAP	238
T_JUDGE_HLD	68
T_JUDGE_SLD	10
T_JUDGE_ALL	316
TTM_EACHPAIRS	61
TTM_SCR_TAP	113500
TTM_SCR_BRK	28600
TTM_SCR_HLD	15000
TTM_SCR_SLD	15000
TTM_SCR_ALL	172100
TTM_SCR_S	165900
TTM_SCR_SS	171000
TTM_RAT_ACV	10064

