VERSION	0.00.00	1.03.00
FES_MODE	0
BPM_DEF	145.000	145.000	145.000	145.000
MET_DEF	4	4
RESOLUTION	384
CLK_DEF	384
COMPATIBLE_CODE	MA2

BPM	0	0	145.000
MET	0	0	4	4

STR	1	0	0
SCR	1	0	0	96	96	3
STR	1	192	7
SCL	1	192	7	96	96	4
TAP	2	0	3
TAP	2	48	3
TAP	2	96	3
TAP	2	144	3
TAP	2	192	3
TAP	2	240	3
TAP	2	288	3
STR	3	0	7
SCL	3	0	7	96	96	4
STR	3	192	0
SCR	3	192	0	96	96	3
TAP	4	0	4
TAP	4	48	4
TAP	4	96	4
TAP	4	144	4
TAP	4	192	4
TAP	4	240	4
TAP	4	288	3
TAP	4	288	4
STR	5	0	4
SCR	5	0	4	96	48	7
TAP	5	48	5
TAP	5	96	3
STR	5	192	3
SCL	5	192	3	96	48	0
TAP	5	240	2
TAP	5	288	4
TAP	6	0	5
TAP	6	48	4
TAP	6	96	3
TAP	6	144	2
TAP	6	192	2
TAP	6	224	3
TAP	6	256	1
TAP	6	288	5
TAP	6	320	4
TAP	6	352	6
STR	7	0	3
SCL	7	0	3	96	48	0
TAP	7	48	2
TAP	7	96	4
STR	7	192	4
SCR	7	192	4	96	48	7
TAP	7	240	5
TAP	7	288	3
TAP	7	360	0
STR	8	0	0
SI_	8	0	0	96	48	4
STR	8	96	7
SI_	8	96	7	96	48	3
TAP	8	192	0
TAP	8	288	1
TAP	8	288	6
STR	9	0	3
SCL	9	0	3	96	48	0
TAP	9	48	2
TAP	9	96	4
STR	9	192	4
SCR	9	192	4	96	48	7
TAP	9	240	5
TAP	9	288	3
TAP	10	0	2
TAP	10	48	3
TAP	10	96	4
TAP	10	144	5
TAP	10	192	5
TAP	10	224	4
TAP	10	256	6
TAP	10	288	2
TAP	10	320	3
TAP	10	352	1
STR	11	0	7
SCL	11	0	7	96	48	4
TAP	11	96	2
STR	11	192	3
SCL	11	192	3	96	48	0
TAP	11	288	6
STR	12	0	7
SCL	12	0	7	96	48	4
TAP	12	96	2
STR	12	192	3
SCL	12	192	3	96	48	0
TAP	12	288	7
TAP	13	0	5
TAP	13	48	4
TAP	13	96	3
HLD	13	144	2	96
TAP	13	240	3
TAP	13	288	4
HLD	13	336	5	96
TAP	14	48	0
STR	14	96	0
SCR	14	96	0	96	384	7
STR	16	0	7
SCL	16	0	7	96	48	4
TAP	16	48	3
TAP	16	96	1
TAP	16	168	0
STR	16	192	0
SCR	16	192	0	96	48	3
TAP	16	240	4
TAP	16	288	6
STR	17	0	7
SCL	17	0	7	96	48	4
TAP	17	48	3
TAP	17	96	1
TAP	17	168	0
STR	17	192	0
SCR	17	192	0	96	48	3
TAP	17	240	4
TAP	17	288	6
THO	18	0	0	576	C	0	M1
TAP	20	0	4
TAP	20	0	5
TAP	20	48	3
TAP	20	96	2
TAP	20	144	2
TAP	20	192	2
TAP	20	192	3
TAP	20	240	4
TAP	20	288	5
TAP	20	336	5
TAP	21	0	4
STR	21	0	5
SCL	21	0	5	96	48	2
TAP	21	192	3
TAP	21	192	4
TAP	22	0	1
TAP	22	0	4
TAP	22	48	4
TAP	22	96	5
TAP	22	144	6
TAP	22	192	3
TAP	22	192	6
TAP	22	240	3
TAP	22	288	2
TAP	22	336	1
TAP	23	0	1
TAP	23	0	4
TAP	23	48	4
TAP	23	96	5
TAP	23	144	6
TAP	23	192	3
TAP	23	192	6
TAP	23	240	3
TAP	23	288	2
TAP	23	336	1
TAP	24	0	1
TAP	24	0	4
TAP	24	96	2
TAP	24	96	5
STR	24	192	3
SCL	24	192	3	96	48	0
TAP	24	192	6
STR	24	288	4
SCR	24	288	4	96	48	7
HLD	25	0	0	192
TTP	25	192	0	C	1	M1
TTP	26	0	5	E	0	M1
TTP	26	48	1	E	0	M1
TTP	26	96	6	E	0	M1
TTP	26	144	2	E	0	M1
TTP	26	192	7	E	0	M1
TTP	26	240	3	E	0	M1
TTP	26	288	0	E	0	M1
TTP	26	336	4	E	0	M1
TTP	27	0	6	B	0	M1
TTP	27	48	2	B	0	M1
TTP	27	96	5	B	0	M1
TTP	27	144	1	B	0	M1
TTP	27	192	3	B	0	M1
TTP	27	192	4	B	0	M1
TAP	27	288	2
TAP	27	288	5
TTP	28	0	3	E	0	M1
TTP	28	48	7	E	0	M1
TTP	28	96	2	E	0	M1
TTP	28	144	6	E	0	M1
TTP	28	192	1	E	0	M1
TTP	28	240	5	E	0	M1
TTP	28	288	0	E	0	M1
TTP	28	336	4	E	0	M1
TTP	29	0	1	B	0	M1
TTP	29	48	5	B	0	M1
TTP	29	96	2	B	0	M1
TTP	29	144	6	B	0	M1
TTP	29	192	3	B	0	M1
TTP	29	192	4	B	0	M1
TAP	29	288	2
TAP	29	288	5
HLD	30	0	2	72
TAP	30	0	4
TAP	30	72	3
TAP	30	96	2
TAP	30	144	2
TAP	30	192	1
TAP	30	192	4
TAP	30	240	0
TAP	30	288	7
TAP	30	336	6
TAP	31	0	3
TAP	31	0	5
TAP	31	48	2
STR	31	96	1
SI_	31	96	1	96	48	6
TAP	31	144	4
STR	31	192	5
SI_	31	192	5	96	48	2
TAP	31	288	0
TAP	32	0	3
HLD	32	0	5	72
TAP	32	72	4
TAP	32	96	5
TAP	32	144	5
TAP	32	192	3
TAP	32	192	6
TAP	32	240	7
TAP	32	288	0
TAP	32	336	1
TAP	33	0	2
TAP	33	0	4
TAP	33	48	5
STR	33	96	6
SI_	33	96	6	96	48	3
TAP	33	144	3
STR	33	192	2
SI_	33	192	2	96	48	7
TAP	33	288	5
TAP	34	0	3
HLD	34	0	5	72
TAP	34	72	4
TAP	34	96	5
TAP	34	144	5
TAP	34	192	3
TAP	34	192	6
TAP	34	240	7
TAP	34	288	0
TAP	34	336	1
TAP	35	0	2
TAP	35	0	4
TAP	35	48	5
STR	35	96	6
SCL	35	96	6	96	48	3
TAP	35	144	2
STR	35	192	1
SI_	35	192	1	96	48	5
TAP	35	288	7
TAP	35	336	7
STR	36	0	6
SCR	36	0	6	96	48	1
TAP	36	144	2
STR	36	192	2
SCR	36	192	2	96	48	5
TAP	36	288	7
STR	37	0	6
SCR	37	0	6	96	48	1
TAP	37	144	3
TAP	37	192	3
TAP	37	288	2
TAP	37	288	5
TAP	37	336	5
TAP	38	0	5
TAP	38	32	4
TAP	38	64	6
TAP	38	96	2
TAP	38	128	3
TAP	38	160	1
HLD	38	192	1	96
STR	38	288	3
SCL	38	288	3	96	48	0
STR	39	96	0
SCR	39	96	0	96	48	3
TAP	39	96	4
HLD	39	192	7	96
TAP	39	288	3
TAP	39	336	2
TAP	40	0	2
TAP	40	32	3
TAP	40	64	1
TAP	40	96	5
TAP	40	128	4
TAP	40	160	6
HLD	40	192	6	96
STR	40	288	4
SCR	40	288	4	96	48	7
TAP	41	96	3
STR	41	96	7
SCL	41	96	7	96	48	4
HLD	41	192	0	96
TAP	41	288	4
TAP	41	336	5
TAP	42	0	5
TAP	42	32	4
TAP	42	64	6
TAP	42	96	2
TAP	42	128	3
TAP	42	160	1
HLD	42	192	1	96
STR	42	288	3
SI_	42	288	3	96	48	7
TAP	43	0	0
STR	43	96	0
SI_	43	96	0	96	48	4
TAP	43	96	4
HLD	43	192	7	96
STR	43	288	4
SCL	43	288	4	96	96	0
STR	44	96	3
SCR	44	96	3	96	96	7
STR	44	288	4
SCL	44	288	4	96	96	0
STR	45	96	3
SCR	45	96	3	96	96	7
STR	46	0	6
SI_	46	0	6	96	48	4
STR	46	0	7
SI_	46	0	7	96	48	3
XTP	46	96	6
XTP	46	96	7
STR	46	192	0
SI_	46	192	0	96	48	4
STR	46	192	1
SI_	46	192	1	96	48	3
XTP	46	288	0
XTP	46	288	1
HLD	47	0	1	48
HLD	47	48	3	48
HLD	47	96	4	48
TAP	47	144	6
HLD	47	192	6	48
HLD	47	240	4	48
HLD	47	288	3	48
TAP	47	336	1
STR	48	0	0
SI_	48	0	0	96	48	4
STR	48	0	1
SI_	48	0	1	96	48	3
XTP	48	96	0
XTP	48	96	1
STR	48	192	6
SI_	48	192	6	96	48	4
STR	48	192	7
SI_	48	192	7	96	48	3
XTP	48	288	6
XTP	48	288	7
HLD	49	0	6	48
HLD	49	48	4	48
HLD	49	96	3	48
TAP	49	144	1
HLD	49	192	1	48
HLD	49	240	3	48
HLD	49	288	4	48
TAP	49	336	6
STR	50	0	3
SI_	50	0	3	96	48	0
STR	50	0	7
SI_	50	0	7	96	48	4
STR	50	192	0
SI_	50	192	0	96	48	3
STR	50	192	4
SI_	50	192	4	96	48	7
STR	51	0	3
SI_	51	0	3	96	48	0
STR	51	0	7
SI_	51	0	7	96	48	4
STR	51	192	0
SI_	51	192	0	96	48	3
STR	51	192	4
SI_	51	192	4	96	48	7
TAP	52	0	3
TAP	52	24	4
TAP	52	48	3
TAP	52	72	4
TAP	52	96	2
TAP	52	120	5
TAP	52	144	2
TAP	52	168	5
TAP	52	192	3
TAP	52	216	4
TAP	52	240	2
TAP	52	264	5
TAP	52	288	1
TAP	52	312	6
XTP	52	336	0
TAP	53	0	5
TAP	53	32	4
TAP	53	64	7
TAP	53	96	2
TAP	53	128	3
TAP	53	160	0
TAP	53	192	5
TAP	53	224	4
TAP	53	256	6
TAP	53	288	2
TAP	53	320	3
TAP	53	352	1
STR	54	0	5
SCL	54	0	5	96	48	2
TAP	54	48	2
TAP	54	96	0
TAP	54	144	0
STR	54	192	2
SCR	54	192	2	96	48	5
TAP	54	240	5
TAP	54	288	7
TAP	54	336	7
STR	55	0	6
SI_	55	0	6	96	48	3
STR	55	48	2
SI_	55	48	2	96	48	7
TAP	55	192	5
TAP	55	224	4
TAP	55	256	6
TAP	55	288	2
TAP	55	320	3
TAP	55	352	1
STR	56	0	5
SI_	56	0	5	96	48	2
TAP	56	48	5
STR	56	96	0
SCR	56	96	0	96	96	5
TAP	56	144	0
TAP	56	192	6
TAP	56	240	6
STR	56	288	7
SI_	56	288	7	96	48	4
TAP	56	360	3
STR	57	0	3
SI_	57	0	3	96	48	0
TAP	57	96	4
TAP	57	192	2
TAP	57	224	3
TAP	57	256	1
TAP	57	288	5
TAP	57	320	4
TAP	57	352	6
STR	58	0	2
SCR	58	0	2	96	48	5
TAP	58	48	5
TAP	58	96	7
TAP	58	144	7
STR	58	192	5
SCL	58	192	5	96	48	2
TAP	58	240	2
TAP	58	288	0
TAP	58	336	0
STR	59	0	1
SI_	59	0	1	96	48	5
STR	59	48	7
SI_	59	48	7	96	48	4
TAP	59	192	2
TAP	59	224	3
TAP	59	256	1
TAP	59	288	5
TAP	59	320	4
TAP	59	352	6
HLD	60	0	1	192
TAP	60	96	3
HLD	60	192	6	192
TAP	60	288	4
HLD	61	0	0	192
TAP	61	96	3
HLD	61	192	7	192
TAP	61	288	4
TAP	62	0	0
TAP	62	48	0
TAP	62	96	7
HLD	62	144	7	96
TAP	62	240	3
TAP	62	288	2
HLD	62	336	1	96
TTP	63	48	4	E	0	M1
THO	63	96	0	288	C	1	M1
TAP	65	0	2
TAP	65	0	4
TAP	65	48	2
TAP	65	96	2
TAP	65	96	3
TAP	65	144	2
TAP	65	192	2
TAP	65	192	4
TAP	65	240	2
TAP	65	288	2
TAP	65	288	4
TAP	65	336	2
TAP	66	0	2
TAP	66	0	3
TAP	66	48	2
TAP	66	96	2
TAP	66	96	4
TAP	66	144	2
TAP	66	192	2
TAP	66	192	3
TAP	66	240	2
TAP	66	288	2
TAP	66	288	3
TAP	66	336	2
TAP	67	0	2
TAP	67	0	4
TAP	67	48	2
TAP	67	96	3
TAP	67	96	5
TAP	67	144	3
TAP	67	192	4
TAP	67	192	6
TAP	67	240	4
TAP	67	288	5
TAP	67	288	7
TAP	67	336	5
TAP	68	0	4
TAP	68	0	6
TAP	68	48	4
TAP	68	96	3
TAP	68	96	5
TAP	68	144	3
TAP	68	192	2
TAP	68	192	4
TAP	68	240	2
TAP	68	288	2
TAP	68	288	3
TAP	68	336	2
TAP	69	0	3
TAP	69	0	5
TAP	69	48	5
TAP	69	96	4
TAP	69	96	5
TAP	69	144	5
TAP	69	192	3
TAP	69	192	5
TAP	69	240	5
TAP	69	288	3
TAP	69	288	5
TAP	69	336	5
TAP	70	0	4
TAP	70	0	5
TAP	70	48	5
TAP	70	96	3
TAP	70	96	5
TAP	70	144	5
TAP	70	192	4
TAP	70	192	5
TAP	70	240	5
TAP	70	288	4
TAP	70	288	5
TAP	70	336	5
TAP	71	0	3
TAP	71	0	5
TAP	71	48	5
TAP	71	96	2
TAP	71	96	4
TAP	71	144	4
TAP	71	192	1
TAP	71	192	3
TAP	71	240	3
TAP	71	288	0
TAP	71	288	2
TAP	71	336	2
TAP	72	0	1
TAP	72	0	3
TAP	72	48	3
TAP	72	96	2
TAP	72	96	4
TAP	72	144	4
TAP	72	192	3
TAP	72	192	5
TAP	72	240	5
TAP	72	288	4
TAP	72	288	5
TAP	72	336	5
TAP	73	0	3
STR	73	0	4
SCR	73	0	4	96	48	7
TAP	73	48	3
TAP	73	96	3
TAP	73	144	3
TAP	73	192	2
STR	73	192	7
SCL	73	192	7	96	48	4
TAP	73	240	2
TAP	73	288	2
TAP	73	336	2
STR	74	0	3
SCL	74	0	3	96	48	0
TAP	74	0	4
TAP	74	48	4
TAP	74	96	4
TAP	74	144	4
STR	74	192	0
SCR	74	192	0	96	48	3
TAP	74	192	5
TAP	74	240	5
TAP	74	288	5
TAP	74	336	5
TAP	75	0	3
STR	75	0	4
SCR	75	0	4	96	48	7
TAP	75	48	3
TAP	75	96	3
TAP	75	144	3
TAP	75	192	2
TAP	75	192	7
TAP	75	240	2
TAP	75	288	3
TAP	75	288	4
STR	76	0	3
SI_	76	0	3	96	48	7
STR	76	0	5
SCL	76	0	5	96	48	2
TAP	76	48	3
TAP	76	48	5
STR	76	192	2
SCR	76	192	2	96	48	5
STR	76	192	4
SI_	76	192	4	96	48	0
TAP	76	240	2
TAP	76	240	4
TAP	77	0	6
TAP	77	48	4
TAP	77	96	3
TAP	77	144	1
TTP	77	192	6	E	0	M1
TTP	77	224	2	E	0	M1
TTP	77	256	5	E	0	M1
TTP	77	288	4	E	0	M1
TTP	77	320	7	E	0	M1
TTP	77	352	0	E	0	M1
STR	78	0	2
SCR	78	0	2	96	48	5
STR	78	0	4
SI_	78	0	4	96	48	0
TAP	78	48	2
TAP	78	48	4
STR	78	192	3
SI_	78	192	3	96	48	7
STR	78	192	5
SCL	78	192	5	96	48	2
TAP	78	240	3
TAP	78	240	5
STR	79	0	0
SI_	79	0	0	96	48	4
STR	79	0	7
SI_	79	0	7	96	48	3
XTP	79	96	0
XTP	79	96	7
BRK	79	192	2
BRK	79	192	5
TAP	79	288	0
TAP	79	288	7
STR	80	0	2
SCR	80	0	2	96	48	5
STR	80	0	4
SI_	80	0	4	96	48	0
TAP	80	48	2
TAP	80	48	4
STR	80	192	3
SI_	80	192	3	96	48	7
STR	80	192	5
SCL	80	192	5	96	48	2
TAP	80	240	3
TAP	80	240	5
TAP	81	0	1
TAP	81	48	3
TAP	81	96	4
TAP	81	144	6
TTP	81	192	2	E	0	M1
TTP	81	224	6	E	0	M1
TTP	81	256	3	E	0	M1
TTP	81	288	4	E	0	M1
TTP	81	320	1	E	0	M1
TTP	81	352	0	E	0	M1
HLD	82	0	2	192
TAP	82	96	3
HLD	82	192	5	192
TAP	82	288	4
HLD	83	0	0	192
TAP	83	96	3
HLD	83	192	7	192
TAP	83	288	4
TAP	84	0	0
TAP	84	48	0
TAP	84	96	7
HLD	84	144	7	96
TAP	84	240	3
TAP	84	288	2
HLD	84	336	1	96
TTP	85	48	4	E	0	M1
THO	85	96	0	288	C	1	M1
STR	87	0	0
SCR	87	0	0	96	48	3
TAP	87	48	3
TAP	87	96	3
STR	87	192	7
SCL	87	192	7	96	48	4
TAP	87	240	4
TAP	87	288	4
STR	88	0	0
SCR	88	0	0	96	48	3
TAP	88	48	3
TAP	88	96	3
STR	88	192	7
SCL	88	192	7	96	48	4
TAP	88	240	4
STR	88	288	4
SCR	88	288	4	96	576	3
TAP	89	0	3

T_REC_TAP	424
T_REC_BRK	2
T_REC_XTP	11
T_REC_HLD	36
T_REC_XHO	0
T_REC_STR	95
T_REC_BST	0
T_REC_XST	0
T_REC_TTP	43
T_REC_THO	3
T_REC_SLD	95
T_REC_ALL	709
T_NUM_TAP	573
T_NUM_BRK	2
T_NUM_HLD	39
T_NUM_SLD	95
T_NUM_ALL	709
T_JUDGE_TAP	575
T_JUDGE_HLD	102
T_JUDGE_SLD	95
T_JUDGE_ALL	772
TTM_EACHPAIRS	95
TTM_SCR_TAP	286500
TTM_SCR_BRK	5200
TTM_SCR_HLD	39000
TTM_SCR_SLD	142500
TTM_SCR_ALL	473200
TTM_SCR_S	458850
TTM_SCR_SS	473000
TTM_RAT_ACV	10004

