VERSION	0.00.00	1.03.00
FES_MODE	0
BPM_DEF	145.000	145.000	145.000	145.000
MET_DEF	4	4
RESOLUTION	384
CLK_DEF	384
COMPATIBLE_CODE	MA2

BPM	0	0	145.000
MET	0	0	4	4

TAP	1	0	3
HLD	1	0	5	768
TAP	1	96	4
TAP	1	288	4
TAP	2	96	4
TAP	2	288	3
HLD	3	0	2	672
TAP	3	96	3
TAP	3	288	3
TAP	4	96	3
TAP	4	288	5
HLD	5	0	6	96
TAP	5	96	4
HLD	5	192	1	96
TAP	5	288	3
TAP	6	0	0
TAP	6	48	7
STR	6	96	0
SCR	6	96	0	96	96	3
STR	6	96	7
SCL	6	96	7	96	96	4
STR	7	0	5
SI_	7	0	5	96	96	2
STR	7	192	1
SI_	7	192	1	96	96	6
HLD	8	0	7	96
TAP	8	96	0
XTP	8	192	1
XTP	8	192	6
TAP	8	288	3
TAP	8	288	4
HLD	9	0	1	96
TAP	9	96	3
HLD	9	192	6	96
TAP	9	288	4
TAP	10	0	7
TAP	10	48	0
STR	10	96	0
SI_	10	96	0	96	96	4
STR	10	96	7
SI_	10	96	7	96	96	3
TAP	11	0	3
HLD	11	0	5	288
TAP	11	96	3
TAP	11	192	4
TAP	11	288	3
HLD	12	0	2	288
TAP	12	0	4
TAP	12	96	4
TAP	12	192	3
TAP	12	288	4
HLD	13	0	3	96
TAP	13	96	4
HLD	13	144	4	96
HLD	13	240	2	96
STR	13	336	0
SCL	13	336	0	96	336	1
TAP	16	0	4
TAP	16	48	3
HLD	16	96	2	96
TAP	16	192	3
TAP	16	240	4
HLD	16	288	5	96
TAP	17	0	4
TAP	17	48	3
HLD	17	96	2	96
TAP	17	192	3
TAP	17	240	4
STR	17	288	5
SCL	17	288	5	96	384	7
TAP	19	192	3
TAP	19	192	4
TTP	20	0	5	E	0	M1
TTP	20	96	4	B	0	M1
TTP	20	192	3	B	0	M1
TTP	20	288	3	E	0	M1
THO	21	0	0	192	C	0	M1
TTP	22	0	6	E	0	M1
TTP	22	96	7	E	0	M1
TTP	22	192	0	E	0	M1
TTP	22	288	0	C	0	M1
TTP	23	0	2	E	0	M1
TTP	23	96	1	E	0	M1
TTP	23	192	0	E	0	M1
TTP	24	0	4	E	0	M1
TTP	24	96	0	C	0	M1
TTP	24	192	0	E	0	M1
THO	25	0	0	192	C	0	M1
STR	26	0	1
SI_	26	0	1	96	96	4
STR	26	192	5
SI_	26	192	5	96	96	0
STR	27	0	2
SCR	27	0	2	96	96	5
TAP	27	192	7
TAP	27	288	3
TAP	27	288	5
STR	28	0	6
SI_	28	0	6	96	96	3
STR	28	192	2
SI_	28	192	2	96	96	7
STR	29	0	5
SCL	29	0	5	96	96	2
TAP	29	192	0
BRK	29	288	3
BRK	29	288	4
TAP	30	0	3
HLD	30	0	5	96
STR	30	96	4
SCL	30	96	4	96	96	1
TAP	30	288	7
TAP	30	336	7
TAP	31	0	0
TAP	31	0	7
STR	31	96	4
SI_	31	96	4	96	96	0
TAP	31	96	6
TAP	31	288	7
HLD	32	0	2	96
TAP	32	0	4
STR	32	96	3
SCR	32	96	3	96	96	6
TAP	32	288	0
TAP	32	336	0
TAP	33	0	0
TAP	33	0	7
TAP	33	96	1
STR	33	96	3
SI_	33	96	3	96	96	7
TAP	33	288	0
TAP	34	0	3
HLD	34	0	5	96
STR	34	96	4
SCL	34	96	4	96	96	1
TAP	34	288	7
TAP	34	336	7
TAP	35	0	0
TAP	35	0	7
STR	35	96	4
SI_	35	96	4	96	96	0
TAP	35	96	6
TAP	35	288	7
HLD	36	0	1	288
HLD	36	0	3	96
HLD	36	192	4	288
HLD	37	0	3	288
HLD	37	192	6	96
TAP	38	0	2
TAP	38	0	3
TAP	38	96	0
STR	38	96	1
SCR	38	96	1	96	96	4
TAP	38	288	7
TAP	38	336	7
TAP	39	0	0
TAP	39	48	0
STR	39	96	1
SI_	39	96	1	96	96	5
TAP	40	0	4
TAP	40	0	5
STR	40	96	6
SCL	40	96	6	96	96	3
TAP	40	96	7
TAP	40	288	0
TAP	40	336	0
TAP	41	0	7
TAP	41	48	7
STR	41	96	6
SI_	41	96	6	96	96	2
TAP	42	0	2
TAP	42	0	3
STR	42	96	0
SCR	42	96	0	96	96	3
TAP	42	96	7
TAP	42	288	7
TAP	42	336	7
TAP	43	0	0
TAP	43	48	0
TAP	43	96	1
TAP	43	96	6
HLD	43	144	1	144
HLD	43	144	6	144
TAP	44	0	5
TAP	44	48	5
TAP	44	96	4
TAP	44	144	2
TAP	44	192	2
TAP	44	240	3
TAP	44	288	5
TAP	44	336	5
TAP	45	0	4
TAP	45	48	2
TAP	45	96	2
TAP	45	144	3
TAP	45	192	3
TAP	45	192	4
TAP	45	288	2
TAP	45	288	5
TAP	46	0	6
TAP	46	0	7
STR	46	96	6
SCL	46	96	6	96	144	2
STR	46	96	7
SUL	46	96	7	96	144	1
TAP	47	0	0
TAP	47	0	1
STR	47	96	0
SUR	47	96	0	96	144	6
STR	47	96	1
SCR	47	96	1	96	144	5
TAP	48	0	4
TAP	48	0	5
STR	48	96	4
SUR	48	96	4	96	144	2
STR	48	96	5
SCR	48	96	5	96	144	1
TAP	49	0	2
TAP	49	0	3
STR	49	96	2
SCL	49	96	2	96	144	6
STR	49	96	3
SUL	49	96	3	96	144	5
STR	50	0	1
SI_	50	0	1	96	96	4
STR	50	0	7
SI_	50	0	7	96	96	3
TAP	50	288	2
TAP	50	288	5
STR	51	0	0
SI_	51	0	0	96	96	4
STR	51	0	6
SI_	51	0	6	96	96	3
TAP	51	288	2
TAP	51	288	5
TAP	52	0	6
TAP	52	48	6
TAP	52	96	7
TAP	52	144	7
TAP	52	192	0
TAP	52	240	0
TAP	52	288	1
HLD	53	0	2	96
HLD	53	96	3	96
HLD	53	192	4	96
TAP	53	288	5
TAP	54	0	5
TAP	54	48	4
TAP	54	96	3
TAP	54	144	2
TAP	54	192	2
TAP	54	240	3
TAP	54	288	4
TAP	54	336	5
STR	55	0	5
SI_	55	0	5	96	96	2
STR	55	96	1
SI_	55	96	1	96	96	6
TAP	55	288	7
TAP	56	0	5
TAP	56	48	5
TAP	56	96	4
TAP	56	144	2
TAP	56	192	2
TAP	56	240	3
TAP	56	288	3
TAP	56	288	4
TAP	57	0	4
TAP	57	0	6
TAP	57	96	1
TAP	57	96	3
BRK	57	192	0
BRK	57	192	7
TAP	58	0	2
TAP	58	48	3
TAP	58	96	4
TAP	58	144	5
TAP	58	192	5
TAP	58	240	4
TAP	58	288	3
TAP	58	336	2
STR	59	0	1
SI_	59	0	1	96	96	5
STR	59	96	6
SI_	59	96	6	96	96	2
TAP	59	288	0
HLD	60	0	1	96
HLD	60	96	2	96
HLD	60	192	3	96
TAP	60	288	4
HLD	61	0	6	96
HLD	61	96	5	96
HLD	61	192	4	96
TAP	61	288	3
TAP	62	0	0
TAP	62	48	0
TAP	62	96	7
STR	62	144	7
SF_	62	144	7	96	96	3
TAP	63	48	1
TAP	63	48	5
HLD	63	96	1	192
HLD	63	96	5	192
THO	64	0	0	192	C	1	M1
TAP	65	0	5
TAP	65	96	4
TAP	65	96	6
TAP	65	192	2
TAP	65	288	1
TAP	65	288	3
TAP	66	0	5
TAP	66	48	5
TAP	66	96	3
TAP	66	144	3
TAP	66	192	7
TAP	66	240	7
TAP	66	288	0
TAP	66	288	7
TAP	67	0	2
TAP	67	96	1
TAP	67	96	3
TAP	67	192	5
TAP	67	288	4
TAP	67	288	6
TAP	68	0	2
TAP	68	48	2
TAP	68	96	4
TAP	68	144	4
TAP	68	192	0
TAP	68	240	0
TAP	68	288	0
TAP	68	288	7
TAP	69	0	4
TAP	69	96	2
TAP	69	96	6
TAP	69	192	3
TAP	69	288	1
TAP	69	288	5
TAP	70	0	4
TAP	70	48	4
TAP	70	96	3
TAP	70	144	3
TAP	70	192	7
TAP	70	240	7
TAP	70	288	1
TAP	70	288	7
TAP	71	0	3
TAP	71	96	1
TAP	71	96	5
TAP	71	192	4
TAP	71	288	2
TAP	71	288	6
TAP	72	0	3
TAP	72	48	3
TAP	72	96	4
TAP	72	144	4
TAP	72	192	3
TAP	72	240	3
TAP	72	288	3
TAP	72	288	4
TTP	73	0	4	B	0	M1
TTP	73	0	5	E	0	M1
TTP	73	96	3	B	0	M1
TTP	73	96	3	E	0	M1
TTP	73	192	2	E	0	M1
TTP	73	240	0	C	0	M1
TTP	73	288	6	E	0	M1
TTP	74	0	1	B	0	M1
TTP	74	0	1	E	0	M1
TTP	74	96	6	B	0	M1
TTP	74	96	7	E	0	M1
TTP	74	192	4	E	0	M1
TTP	74	240	0	C	0	M1
TTP	74	288	0	E	0	M1
THO	75	0	0	192	C	1	M1
TAP	76	0	1
TAP	76	48	2
TAP	76	96	3
TAP	76	144	4
TAP	76	192	4
TAP	76	240	3
TAP	76	288	2
TAP	76	336	1
STR	77	0	0
SI_	77	0	0	96	96	3
STR	77	96	4
SI_	77	96	4	96	96	7
TAP	77	288	0
TAP	78	0	6
TAP	78	48	6
TAP	78	96	7
TAP	78	144	1
TAP	78	192	1
TAP	78	240	0
TAP	78	288	0
TAP	78	288	7
TTP	79	0	2	E	0	M1
TTP	79	0	6	E	0	M1
TTP	79	96	0	E	0	M1
TTP	79	96	4	E	0	M1
TTP	79	192	0	C	1	M1
TAP	80	0	6
TAP	80	48	5
TAP	80	96	4
TAP	80	144	3
TAP	80	192	3
TAP	80	240	4
TAP	80	288	5
TAP	80	336	6
STR	81	0	7
SI_	81	0	7	96	96	4
STR	81	96	3
SI_	81	96	3	96	96	0
TAP	81	288	7
HLD	82	0	5	96
TAP	82	96	4
HLD	82	192	2	96
TAP	82	288	3
HLD	83	0	4	96
TAP	83	96	3
HLD	83	192	3	96
TAP	83	288	4
TAP	84	0	6
TAP	84	48	5
TAP	84	96	4
HLD	84	144	3	96
TAP	84	240	4
TAP	84	288	3
HLD	84	336	2	240
TAP	85	48	5
HLD	85	96	5	192
STR	85	288	4
SCR	85	288	4	96	288	3
TTP	87	0	6	E	0	M1
TTP	87	48	5	E	0	M1
TTP	87	96	4	E	0	M1
TTP	87	192	2	E	0	M1
TTP	87	240	3	E	0	M1
TTP	87	288	4	E	0	M1
TTP	88	0	7	E	0	M1
TTP	88	48	6	E	0	M1
TTP	88	96	5	E	0	M1
TTP	88	192	1	E	0	M1
TTP	88	240	2	E	0	M1
TTP	88	288	3	E	0	M1
TTP	89	0	0	C	1	M1

T_REC_TAP	252
T_REC_BRK	4
T_REC_XTP	2
T_REC_HLD	43
T_REC_XHO	0
T_REC_STR	47
T_REC_BST	0
T_REC_XST	0
T_REC_TTP	46
T_REC_THO	4
T_REC_SLD	47
T_REC_ALL	445
T_NUM_TAP	347
T_NUM_BRK	4
T_NUM_HLD	47
T_NUM_SLD	47
T_NUM_ALL	445
T_JUDGE_TAP	351
T_JUDGE_HLD	159
T_JUDGE_SLD	47
T_JUDGE_ALL	557
TTM_EACHPAIRS	61
TTM_SCR_TAP	173500
TTM_SCR_BRK	10400
TTM_SCR_HLD	47000
TTM_SCR_SLD	70500
TTM_SCR_ALL	301400
TTM_SCR_S	292000
TTM_SCR_SS	301000
TTM_RAT_ACV	10013

